<?xml version="1.0" standalone="no"?>
<!DOCTYPE svg PUBLIC "-//W3C//DTD SVG 1.1//EN" "http://www.w3.org/Graphics/SVG/1.1/DTD/svg11.dtd" >
<svg xmlns="http://www.w3.org/2000/svg" xmlns:xlink="http://www.w3.org/1999/xlink" version="1.1">
<metadata>
Created by FontForge 20190801 at Thu Mar  2 18:56:10 2017
 By Jimmy Wärting
Copyright \(c\)2016. Cerebri Sans is a trademark of Alfredo Marco Pradil. All rights reserved.
</metadata>
<defs>
<font id="CerebriSans-Bold" horiz-adv-x="0" >
  <font-face 
    font-family="Cerebri Sans"
    font-weight="700"
    font-stretch="normal"
    units-per-em="2048"
    panose-1="0 0 8 0 0 0 0 0 0 0"
    ascent="1536"
    descent="-512"
    x-height="1028"
    cap-height="1445"
    bbox="-1662 -574 2840 2369"
    underline-thickness="102"
    underline-position="-184"
    stemh="266"
    stemv="297"
    unicode-range="U+0020-FB02"
  />
<missing-glyph horiz-adv-x="1248" 
d="M160 0v1536h928v-1536h-928zM379 219h490v1098h-490v-1098z" />
    <glyph glyph-name="f_f" unicode="ff" horiz-adv-x="1439" 
d="M221 0v807h-201v221h201v111c0 347 210 397 508 397v-230c-95 0 -221 4 -221 -168v-110h408v111c0 347 210 397 508 397v-230c-95 0 -220 4 -220 -168v-110h220v-221h-220v-807h-288v807h-408v-807h-287z" />
    <glyph glyph-name="fi" unicode="fi" horiz-adv-x="1331" 
d="M221 1139c0 347 210 397 508 397v-230c-95 0 -221 4 -221 -168v-110h221v-221h-221v-807h-287v807h-201v221h201v111zM1039 1182c-91 0 -167 74 -167 166c0 91 76 165 167 165c89 0 165 -74 165 -165c0 -92 -76 -166 -165 -166zM892 0v1028h290v-1028h-290z" />
    <glyph glyph-name="fl" unicode="fl" horiz-adv-x="1332" 
d="M221 1139c0 347 210 397 508 397v-230c-95 0 -221 4 -221 -168v-110h221v-221h-221v-807h-287v807h-201v221h201v111zM892 1536h291v-1536h-291v1536z" />
    <glyph glyph-name=".notdef" horiz-adv-x="1248" 
d="M160 0v1536h928v-1536h-928zM379 219h490v1098h-490v-1098z" />
    <glyph glyph-name="A" unicode="A" horiz-adv-x="1491" 
d="M1154 0l-105 298h-607l-105 -298h-307l532 1445h367l532 -1445h-307zM530 549h431l-215 613z" />
    <glyph glyph-name="Aacute" unicode="&#xc1;" horiz-adv-x="1491" 
d="M1061 1847l-227 -267h-177l262 368zM1154 0l-105 298h-607l-105 -298h-307l532 1445h367l532 -1445h-307zM530 549h431l-215 613z" />
    <glyph glyph-name="Abreve" unicode="&#x102;" horiz-adv-x="1491" 
d="M745 1580c-215 0 -364 77 -364 295h166c0 -112 78 -161 198 -161c122 0 200 49 200 161h166c0 -218 -150 -295 -366 -295zM1154 0l-105 298h-607l-105 -298h-307l532 1445h367l532 -1445h-307zM530 549h431l-215 613z" />
    <glyph glyph-name="uni1EAE" unicode="&#x1eae;" horiz-adv-x="1491" 
d="M1062 2213l-227 -267h-177l262 368zM745 1580c-215 0 -364 77 -364 295h166c0 -112 78 -161 198 -161c122 0 200 49 200 161h166c0 -218 -150 -295 -366 -295zM1154 0l-105 298h-607l-105 -298h-307l532 1445h367l532 -1445h-307zM530 549h431l-215 613z" />
    <glyph glyph-name="uni1EB6" unicode="&#x1eb6;" horiz-adv-x="1491" 
d="M745 1580c-215 0 -364 77 -364 295h166c0 -112 78 -161 198 -161c122 0 200 49 200 161h166c0 -218 -150 -295 -366 -295zM1461 0h-307l-105 298h-607l-105 -298h-307l532 1445h367zM530 549h431l-215 613zM747 -182c89 0 165 -74 165 -164c0 -93 -76 -166 -165 -166
c-91 0 -167 73 -167 166c0 90 76 164 167 164z" />
    <glyph glyph-name="uni1EB0" unicode="&#x1eb0;" horiz-adv-x="1491" 
d="M836 1946h-178l-226 267l141 101zM745 1580c-215 0 -364 77 -364 295h166c0 -112 78 -161 198 -161c122 0 200 49 200 161h166c0 -218 -150 -295 -366 -295zM1154 0l-105 298h-607l-105 -298h-307l532 1445h367l532 -1445h-307zM530 549h431l-215 613z" />
    <glyph glyph-name="uni1EB2" unicode="&#x1eb2;" horiz-adv-x="1491" 
d="M729 2202c-29 0 -59 -12 -86 -38l-67 96c41 35 97 58 169 58c124 0 196 -71 196 -176c0 -96 -59 -136 -126 -157v-83h-128v135c75 13 111 46 111 97c0 38 -22 68 -69 68zM745 1580c-215 0 -364 77 -364 295h166c0 -112 78 -161 198 -161c122 0 200 49 200 161h166
c0 -218 -150 -295 -366 -295zM1154 0l-105 298h-607l-105 -298h-307l532 1445h367l532 -1445h-307zM530 549h431l-215 613z" />
    <glyph glyph-name="uni1EB4" unicode="&#x1eb4;" horiz-adv-x="1491" 
d="M631 2106c-57 0 -84 -59 -84 -137h-151c0 155 86 267 230 267c87 0 135 -36 168 -73c34 -36 56 -76 102 -76c55 0 78 53 78 135h153c0 -149 -79 -266 -231 -266c-93 0 -137 41 -170 80c-29 36 -50 70 -95 70zM745 1580c-215 0 -364 77 -364 295h166
c0 -112 78 -161 198 -161c122 0 200 49 200 161h166c0 -218 -150 -295 -366 -295zM1154 0l-105 298h-607l-105 -298h-307l532 1445h367l532 -1445h-307zM530 549h431l-215 613z" />
    <glyph glyph-name="uni01CD" unicode="&#x1cd;" horiz-adv-x="1491" 
d="M833 1580h-174l-227 299h177l137 -167l136 167h178zM1154 0l-105 298h-607l-105 -298h-307l532 1445h367l532 -1445h-307zM530 549h431l-215 613z" />
    <glyph glyph-name="Acircumflex" unicode="&#xc2;" horiz-adv-x="1491" 
d="M745 1746l-136 -166h-177l227 299h173l227 -299h-177zM1154 0l-105 298h-607l-105 -298h-307l532 1445h367l532 -1445h-307zM530 549h431l-215 613z" />
    <glyph glyph-name="uni1EA4" unicode="&#x1ea4;" horiz-adv-x="1491" 
d="M1060 2237l-227 -267h-177l262 368zM745 1746l-136 -166h-177l227 299h173l227 -299h-177zM1154 0l-105 298h-607l-105 -298h-307l532 1445h367l532 -1445h-307zM530 549h431l-215 613z" />
    <glyph glyph-name="uni1EAC" unicode="&#x1eac;" horiz-adv-x="1491" 
d="M745 1746l-136 -166h-177l227 299h173l227 -299h-177zM1461 0h-307l-105 298h-607l-105 -298h-307l532 1445h367zM530 549h431l-215 613zM747 -182c89 0 165 -74 165 -164c0 -93 -76 -166 -165 -166c-91 0 -167 73 -167 166c0 90 76 164 167 164z" />
    <glyph glyph-name="uni1EA6" unicode="&#x1ea6;" horiz-adv-x="1491" 
d="M834 1970h-178l-226 267l141 101zM659 1879h173l227 -299h-177l-137 166l-136 -166h-177zM1154 0l-105 298h-607l-105 -298h-307l532 1445h367l532 -1445h-307zM530 549h431l-215 613z" />
    <glyph glyph-name="uni1EA8" unicode="&#x1ea8;" horiz-adv-x="1491" 
d="M727 2226c-29 0 -59 -12 -86 -38l-67 96c41 35 97 58 169 58c124 0 196 -71 196 -176c0 -96 -59 -136 -126 -157v-83h-128v135c75 13 111 46 111 97c0 38 -22 68 -69 68zM745 1746l-136 -166h-177l227 299h173l227 -299h-177zM1154 0l-105 298h-607l-105 -298h-307
l532 1445h367l532 -1445h-307zM530 549h431l-215 613z" />
    <glyph glyph-name="uni1EAA" unicode="&#x1eaa;" horiz-adv-x="1491" 
d="M629 2130c-57 0 -84 -59 -84 -137h-151c0 155 86 267 230 267c87 0 135 -36 168 -73c34 -36 56 -76 102 -76c55 0 78 53 78 135h153c0 -149 -79 -266 -231 -266c-93 0 -137 41 -170 80c-29 36 -50 70 -95 70zM659 1879h173l227 -299h-177l-137 166l-136 -166h-177z
M1154 0l-105 298h-607l-105 -298h-307l532 1445h367l532 -1445h-307zM530 549h431l-215 613z" />
    <glyph glyph-name="Adieresis" unicode="&#xc4;" horiz-adv-x="1491" 
d="M531 1536c-91 0 -167 74 -167 166c0 91 76 164 167 164c89 0 165 -73 165 -164c0 -92 -76 -166 -165 -166zM962 1536c-92 0 -167 74 -167 166c0 91 75 164 167 164c89 0 165 -73 165 -164c0 -92 -76 -166 -165 -166zM1154 0l-105 298h-607l-105 -298h-307l532 1445h367
l532 -1445h-307zM530 549h431l-215 613z" />
    <glyph glyph-name="uni1EA0" unicode="&#x1ea0;" horiz-adv-x="1491" 
d="M1461 0h-307l-105 298h-607l-105 -298h-307l532 1445h367zM530 549h431l-215 613zM747 -182c89 0 165 -74 165 -164c0 -93 -76 -166 -165 -166c-91 0 -167 73 -167 166c0 90 76 164 167 164z" />
    <glyph glyph-name="Agrave" unicode="&#xc0;" horiz-adv-x="1491" 
d="M835 1580h-178l-226 267l141 101zM1154 0l-105 298h-607l-105 -298h-307l532 1445h367l532 -1445h-307zM530 549h431l-215 613z" />
    <glyph glyph-name="uni1EA2" unicode="&#x1ea2;" horiz-adv-x="1491" 
d="M728 1836c-29 0 -59 -12 -86 -38l-67 96c41 35 97 58 169 58c124 0 196 -71 196 -176c0 -96 -59 -136 -126 -157v-83h-128v135c75 13 111 46 111 97c0 38 -22 68 -69 68zM1154 0l-105 298h-607l-105 -298h-307l532 1445h367l532 -1445h-307zM530 549h431l-215 613z" />
    <glyph glyph-name="Amacron" unicode="&#x100;" horiz-adv-x="1491" 
d="M1078 1750v-170h-664v170h664zM1154 0l-105 298h-607l-105 -298h-307l532 1445h367l532 -1445h-307zM530 549h431l-215 613z" />
    <glyph glyph-name="Aogonek" unicode="&#x104;" horiz-adv-x="1491" 
d="M1289 -220c0 -25 21 -36 60 -36c37 0 85 16 112 40v-182c-41 -17 -93 -27 -144 -27c-110 0 -193 36 -193 109c0 86 105 210 217 316h-187l-105 298h-607l-105 -298h-307l532 1445h367l532 -1445c-70 -63 -172 -165 -172 -220zM530 549h431l-215 613z" />
    <glyph glyph-name="Aring" unicode="&#xc5;" horiz-adv-x="1491" 
d="M746 1580c-133 0 -241 108 -241 240c0 130 108 237 241 237c130 0 237 -107 237 -237c0 -132 -107 -240 -237 -240zM746 1940c-66 0 -116 -56 -116 -120c0 -71 50 -119 116 -119s118 48 118 119c0 64 -52 120 -118 120zM1154 0l-105 298h-607l-105 -298h-307l532 1445
h367l532 -1445h-307zM530 549h431l-215 613z" />
    <glyph glyph-name="Atilde" unicode="&#xc3;" horiz-adv-x="1491" 
d="M630 1740c-57 0 -84 -59 -84 -137h-151c0 155 86 267 230 267c87 0 135 -36 168 -73c34 -36 56 -76 102 -76c55 0 78 53 78 135h153c0 -149 -79 -266 -231 -266c-93 0 -137 41 -170 80c-29 36 -50 70 -95 70zM1154 0l-105 298h-607l-105 -298h-307l532 1445h367
l532 -1445h-307zM530 549h431l-215 613z" />
    <glyph glyph-name="AE" unicode="&#xc6;" horiz-adv-x="1883" 
d="M30 0l498 1445h1233v-264h-562v-327h486v-264h-486v-325h562v-265h-863v298h-459l-96 -298h-313zM522 549h376v632h-177z" />
    <glyph glyph-name="B" unicode="B" horiz-adv-x="1315" 
d="M963 763c163 -45 272 -152 272 -358c0 -244 -148 -405 -453 -405h-595v1445h468c312 0 476 -150 476 -396c0 -127 -55 -231 -168 -286zM658 1196h-182v-340h195c128 0 184 76 184 174c0 96 -63 166 -197 166zM726 257c162 0 218 87 218 181c0 96 -55 187 -224 187h-244
v-368h250z" />
    <glyph glyph-name="C" unicode="C" horiz-adv-x="1569" 
d="M827 -20c-425 0 -739 289 -739 743s314 742 739 742c322 0 580 -165 683 -439l-280 -102c-64 168 -217 265 -403 265c-249 0 -440 -174 -440 -466s191 -467 440 -467c186 0 339 98 403 266l280 -102c-103 -274 -361 -440 -683 -440z" />
    <glyph glyph-name="Cacute" unicode="&#x106;" horiz-adv-x="1569" 
d="M740 1580l262 368l142 -101l-227 -267h-177zM827 -20c-425 0 -739 289 -739 743s314 742 739 742c322 0 580 -165 683 -439l-280 -102c-64 168 -217 265 -403 265c-249 0 -440 -174 -440 -466s191 -467 440 -467c186 0 339 98 403 266l280 -102
c-103 -274 -361 -440 -683 -440z" />
    <glyph glyph-name="Ccaron" unicode="&#x10c;" horiz-adv-x="1569" 
d="M742 1580l-227 299h177l137 -167l136 167h178l-227 -299h-174zM827 -20c-425 0 -739 289 -739 743s314 742 739 742c322 0 580 -165 683 -439l-280 -102c-64 168 -217 265 -403 265c-249 0 -440 -174 -440 -466s191 -467 440 -467c186 0 339 98 403 266l280 -102
c-103 -274 -361 -440 -683 -440z" />
    <glyph glyph-name="Ccedilla" unicode="&#xc7;" horiz-adv-x="1569" 
d="M827 256c186 0 339 98 403 266l280 -102c-96 -257 -329 -419 -623 -438l-59 -105c15 3 31 6 45 6c113 0 196 -79 196 -192c0 -125 -98 -223 -223 -223c-117 0 -207 67 -239 151l127 44c20 -40 65 -64 106 -64c50 0 94 36 94 92c0 60 -44 91 -96 91c-28 0 -55 -10 -74 -31
l-105 62l93 170c-386 32 -664 313 -664 740c0 454 314 742 739 742c322 0 580 -165 683 -439l-280 -102c-64 168 -217 265 -403 265c-249 0 -440 -174 -440 -466s191 -467 440 -467z" />
    <glyph glyph-name="Cdotaccent" unicode="&#x10a;" horiz-adv-x="1569" 
d="M830 1536c-91 0 -167 74 -167 166c0 91 76 164 167 164c89 0 165 -73 165 -164c0 -92 -76 -166 -165 -166zM827 -20c-425 0 -739 289 -739 743s314 742 739 742c322 0 580 -165 683 -439l-280 -102c-64 168 -217 265 -403 265c-249 0 -440 -174 -440 -466
s191 -467 440 -467c186 0 339 98 403 266l280 -102c-103 -274 -361 -440 -683 -440z" />
    <glyph glyph-name="D" unicode="D" horiz-adv-x="1493" 
d="M187 0v1445h523c461 0 689 -290 689 -722c0 -433 -228 -723 -689 -723h-523zM487 265h208c266 0 388 166 388 458s-122 458 -388 458h-208v-916z" />
    <glyph glyph-name="Eth" unicode="&#xd0;" horiz-adv-x="1493" 
d="M710 1445c461 0 689 -290 689 -722c0 -433 -228 -723 -689 -723h-523v635h-154v176h154v634h523zM695 265c266 0 388 166 388 458s-122 458 -388 458h-208v-370h235v-176h-235v-370h208z" />
    <glyph glyph-name="Dcaron" unicode="&#x10e;" horiz-adv-x="1493" 
d="M548 1580l-227 299h177l137 -167l136 167h178l-227 -299h-174zM187 0v1445h523c461 0 689 -290 689 -722c0 -433 -228 -723 -689 -723h-523zM487 265h208c266 0 388 166 388 458s-122 458 -388 458h-208v-916z" />
    <glyph glyph-name="Dcroat" unicode="&#x110;" horiz-adv-x="1493" 
d="M710 1445c461 0 689 -290 689 -722c0 -433 -228 -723 -689 -723h-523v635h-154v176h154v634h523zM695 265c266 0 388 166 388 458s-122 458 -388 458h-208v-370h235v-176h-235v-370h208z" />
    <glyph glyph-name="E" unicode="E" horiz-adv-x="1147" 
d="M1025 1181h-536v-328h475v-261h-475v-327h536v-265h-838v1445h838v-264z" />
    <glyph glyph-name="Eacute" unicode="&#xc9;" horiz-adv-x="1147" 
d="M928 1847l-227 -267h-177l262 368zM1025 1181h-536v-328h475v-261h-475v-327h536v-265h-838v1445h838v-264z" />
    <glyph glyph-name="Ecaron" unicode="&#x11a;" horiz-adv-x="1147" 
d="M700 1580h-174l-227 299h177l137 -167l136 167h178zM1025 1181h-536v-328h475v-261h-475v-327h536v-265h-838v1445h838v-264z" />
    <glyph glyph-name="Ecircumflex" unicode="&#xca;" horiz-adv-x="1147" 
d="M612 1746l-136 -166h-177l227 299h173l227 -299h-177zM1025 1181h-536v-328h475v-261h-475v-327h536v-265h-838v1445h838v-264z" />
    <glyph glyph-name="uni1EBE" unicode="&#x1ebe;" horiz-adv-x="1147" 
d="M927 2237l-227 -267h-177l262 368zM612 1746l-136 -166h-177l227 299h173l227 -299h-177zM1025 1181h-536v-328h475v-261h-475v-327h536v-265h-838v1445h838v-264z" />
    <glyph glyph-name="uni1EC6" unicode="&#x1ec6;" horiz-adv-x="1147" 
d="M612 1746l-136 -166h-177l227 299h173l227 -299h-177zM1025 1181h-536v-328h475v-261h-475v-327h536v-265h-838v1445h838v-264zM614 -182c89 0 165 -74 165 -164c0 -93 -76 -166 -165 -166c-91 0 -167 73 -167 166c0 90 76 164 167 164z" />
    <glyph glyph-name="uni1EC0" unicode="&#x1ec0;" horiz-adv-x="1147" 
d="M701 1970h-178l-226 267l141 101zM526 1879h173l227 -299h-177l-137 166l-136 -166h-177zM1025 1181h-536v-328h475v-261h-475v-327h536v-265h-838v1445h838v-264z" />
    <glyph glyph-name="uni1EC2" unicode="&#x1ec2;" horiz-adv-x="1147" 
d="M594 2226c-29 0 -59 -12 -86 -38l-67 96c41 35 97 58 169 58c124 0 196 -71 196 -176c0 -96 -59 -136 -126 -157v-83h-128v135c75 13 111 46 111 97c0 38 -22 68 -69 68zM612 1746l-136 -166h-177l227 299h173l227 -299h-177zM1025 1181h-536v-328h475v-261h-475v-327
h536v-265h-838v1445h838v-264z" />
    <glyph glyph-name="uni1EC4" unicode="&#x1ec4;" horiz-adv-x="1147" 
d="M496 2130c-57 0 -84 -59 -84 -137h-151c0 155 86 267 230 267c87 0 135 -36 168 -73c34 -36 56 -76 102 -76c55 0 78 53 78 135h153c0 -149 -79 -266 -231 -266c-93 0 -137 41 -170 80c-29 36 -50 70 -95 70zM526 1879h173l227 -299h-177l-137 166l-136 -166h-177z
M1025 1181h-536v-328h475v-261h-475v-327h536v-265h-838v1445h838v-264z" />
    <glyph glyph-name="Edieresis" unicode="&#xcb;" horiz-adv-x="1147" 
d="M398 1536c-91 0 -167 74 -167 166c0 91 76 164 167 164c89 0 165 -73 165 -164c0 -92 -76 -166 -165 -166zM829 1536c-92 0 -167 74 -167 166c0 91 75 164 167 164c89 0 165 -73 165 -164c0 -92 -76 -166 -165 -166zM1025 1181h-536v-328h475v-261h-475v-327h536v-265
h-838v1445h838v-264z" />
    <glyph glyph-name="Edotaccent" unicode="&#x116;" horiz-adv-x="1147" 
d="M614 1536c-91 0 -167 74 -167 166c0 91 76 164 167 164c89 0 165 -73 165 -164c0 -92 -76 -166 -165 -166zM1025 1181h-536v-328h475v-261h-475v-327h536v-265h-838v1445h838v-264z" />
    <glyph glyph-name="uni1EB8" unicode="&#x1eb8;" horiz-adv-x="1147" 
d="M1025 1181h-536v-328h475v-261h-475v-327h536v-265h-838v1445h838v-264zM614 -182c89 0 165 -74 165 -164c0 -93 -76 -166 -165 -166c-91 0 -167 73 -167 166c0 90 76 164 167 164z" />
    <glyph glyph-name="Egrave" unicode="&#xc8;" horiz-adv-x="1147" 
d="M702 1580h-178l-226 267l141 101zM1025 1181h-536v-328h475v-261h-475v-327h536v-265h-838v1445h838v-264z" />
    <glyph glyph-name="uni1EBA" unicode="&#x1eba;" horiz-adv-x="1147" 
d="M595 1836c-29 0 -59 -12 -86 -38l-67 96c41 35 97 58 169 58c124 0 196 -71 196 -176c0 -96 -59 -136 -126 -157v-83h-128v135c75 13 111 46 111 97c0 38 -22 68 -69 68zM1025 1181h-536v-328h475v-261h-475v-327h536v-265h-838v1445h838v-264z" />
    <glyph glyph-name="Emacron" unicode="&#x112;" horiz-adv-x="1147" 
d="M945 1750v-170h-664v170h664zM1025 1181h-536v-328h475v-261h-475v-327h536v-265h-838v1445h838v-264z" />
    <glyph glyph-name="Eogonek" unicode="&#x118;" horiz-adv-x="1147" 
d="M1025 1181h-536v-328h475v-261h-475v-327h536v-265c-70 -63 -172 -165 -172 -220c0 -25 21 -36 60 -36c37 0 85 16 112 40v-182c-41 -17 -93 -27 -144 -27c-110 0 -193 36 -193 109c0 86 105 210 217 316h-718v1445h838v-264z" />
    <glyph glyph-name="uni1EBC" unicode="&#x1ebc;" horiz-adv-x="1147" 
d="M497 1740c-57 0 -84 -59 -84 -137h-151c0 155 86 267 230 267c87 0 135 -36 168 -73c34 -36 56 -76 102 -76c55 0 78 53 78 135h153c0 -149 -79 -266 -231 -266c-93 0 -137 41 -170 80c-29 36 -50 70 -95 70zM1025 1181h-536v-328h475v-261h-475v-327h536v-265h-838v1445
h838v-264z" />
    <glyph glyph-name="F" unicode="F" horiz-adv-x="1108" 
d="M1039 1181h-550v-328h475v-261h-475v-592h-302v1445h852v-264z" />
    <glyph glyph-name="G" unicode="G" horiz-adv-x="1642" 
d="M812 -20c-417 0 -724 288 -724 739c0 457 314 746 739 746c279 0 510 -123 636 -340l-263 -140c-76 148 -212 219 -373 219c-250 0 -438 -172 -438 -478c0 -295 176 -485 449 -485c185 0 355 92 396 303h-395v241h679v-785h-236v200c-93 -137 -249 -220 -470 -220z" />
    <glyph glyph-name="Gbreve" unicode="&#x11e;" horiz-adv-x="1642" 
d="M820 1580c-215 0 -364 77 -364 295h166c0 -112 78 -161 198 -161c122 0 200 49 200 161h166c0 -218 -150 -295 -366 -295zM812 -20c-417 0 -724 288 -724 739c0 457 314 746 739 746c279 0 510 -123 636 -340l-263 -140c-76 148 -212 219 -373 219
c-250 0 -438 -172 -438 -478c0 -295 176 -485 449 -485c185 0 355 92 396 303h-395v241h679v-785h-236v200c-93 -137 -249 -220 -470 -220z" />
    <glyph glyph-name="Gcommaaccent" unicode="&#x122;" horiz-adv-x="1642" 
d="M812 -20c-417 0 -724 288 -724 739c0 457 314 746 739 746c279 0 510 -123 636 -340l-263 -140c-76 148 -212 219 -373 219c-250 0 -438 -172 -438 -478c0 -295 176 -485 449 -485c185 0 355 92 396 303h-395v241h679v-785h-236v200c-93 -137 -249 -220 -470 -220z
M668 -574l-141 66l168 373h251z" />
    <glyph glyph-name="Gdotaccent" unicode="&#x120;" horiz-adv-x="1642" 
d="M822 1536c-91 0 -167 74 -167 166c0 91 76 164 167 164c89 0 165 -73 165 -164c0 -92 -76 -166 -165 -166zM812 -20c-417 0 -724 288 -724 739c0 457 314 746 739 746c279 0 510 -123 636 -340l-263 -140c-76 148 -212 219 -373 219c-250 0 -438 -172 -438 -478
c0 -295 176 -485 449 -485c185 0 355 92 396 303h-395v241h679v-785h-236v200c-93 -137 -249 -220 -470 -220z" />
    <glyph glyph-name="H" unicode="H" horiz-adv-x="1585" 
d="M1098 1445h300v-1445h-300v594h-611v-594h-300v1445h300v-590h611v590z" />
    <glyph glyph-name="Hbar" unicode="&#x126;" horiz-adv-x="1585" 
d="M1529 1198v-117h-131v-1081h-300v594h-611v-594h-300v1081h-128v117h128v247h300v-247h611v247h300v-247h131zM1098 855v226h-611v-226h611z" />
    <glyph glyph-name="I" unicode="I" horiz-adv-x="673" 
d="M187 0v1445h300v-1445h-300z" />
    <glyph glyph-name="Iacute" unicode="&#xcd;" horiz-adv-x="673" 
d="M246 1580l262 368l142 -101l-227 -267h-177zM187 0v1445h300v-1445h-300z" />
    <glyph glyph-name="uni01CF" unicode="&#x1cf;" horiz-adv-x="673" 
d="M248 1580l-227 299h177l137 -167l136 167h178l-227 -299h-174zM187 0v1445h300v-1445h-300z" />
    <glyph glyph-name="Icircumflex" unicode="&#xce;" horiz-adv-x="673" 
d="M198 1580h-177l227 299h173l227 -299h-177l-137 166zM187 0v1445h300v-1445h-300z" />
    <glyph glyph-name="Idieresis" unicode="&#xcf;" horiz-adv-x="673" 
d="M120 1536c-91 0 -167 74 -167 166c0 91 76 164 167 164c89 0 165 -73 165 -164c0 -92 -76 -166 -165 -166zM551 1536c-92 0 -167 74 -167 166c0 91 75 164 167 164c89 0 165 -73 165 -164c0 -92 -76 -166 -165 -166zM187 0v1445h300v-1445h-300z" />
    <glyph glyph-name="Idotaccent" unicode="&#x130;" horiz-adv-x="673" 
d="M336 1536c-91 0 -167 74 -167 166c0 91 76 164 167 164c89 0 165 -73 165 -164c0 -92 -76 -166 -165 -166zM187 0v1445h300v-1445h-300z" />
    <glyph glyph-name="uni1ECA" unicode="&#x1eca;" horiz-adv-x="673" 
d="M187 0v1445h300v-1445h-300zM336 -512c-91 0 -167 73 -167 166c0 90 76 164 167 164c89 0 165 -74 165 -164c0 -93 -76 -166 -165 -166z" />
    <glyph glyph-name="Igrave" unicode="&#xcc;" horiz-adv-x="673" 
d="M246 1580l-226 267l141 101l263 -368h-178zM187 0v1445h300v-1445h-300z" />
    <glyph glyph-name="uni1EC8" unicode="&#x1ec8;" horiz-adv-x="673" 
d="M275 1536v135c75 13 111 46 111 97c0 38 -22 68 -69 68c-29 0 -59 -12 -86 -38l-67 96c41 35 97 58 169 58c124 0 196 -71 196 -176c0 -96 -59 -136 -126 -157v-83h-128zM187 0v1445h300v-1445h-300z" />
    <glyph glyph-name="Imacron" unicode="&#x12a;" horiz-adv-x="673" 
d="M3 1580v170h664v-170h-664zM187 0v1445h300v-1445h-300z" />
    <glyph glyph-name="Iogonek" unicode="&#x12e;" horiz-adv-x="673" 
d="M487 0c-70 -63 -172 -165 -172 -220c0 -25 21 -36 60 -36c37 0 85 16 112 40v-182c-41 -17 -93 -27 -144 -27c-110 0 -193 36 -193 109c0 86 105 210 217 316h-180v1445h300v-1445z" />
    <glyph glyph-name="Itilde" unicode="&#x128;" horiz-adv-x="673" 
d="M484 1590c-93 0 -137 41 -170 80c-29 36 -50 70 -95 70c-57 0 -84 -59 -84 -137h-151c0 155 86 267 230 267c87 0 135 -36 168 -73c34 -36 56 -76 102 -76c55 0 78 53 78 135h153c0 -149 -79 -266 -231 -266zM187 0v1445h300v-1445h-300z" />
    <glyph glyph-name="J" unicode="J" horiz-adv-x="1013" 
d="M407 -20c-112 0 -248 30 -382 100l127 247c71 -50 140 -77 219 -77c118 0 178 71 178 240v955h300v-1011c0 -296 -180 -454 -442 -454z" />
    <glyph glyph-name="K" unicode="K" horiz-adv-x="1453" 
d="M1042 0l-449 614h-106v-614h-300v1445h300v-568h102l453 568h366l-560 -691l577 -754h-383z" />
    <glyph glyph-name="Kcommaaccent" unicode="&#x136;" horiz-adv-x="1453" 
d="M848 754l577 -754h-383l-449 614h-106v-614h-300v1445h300v-568h102l453 568h366zM417 -508l168 373h251l-278 -439z" />
    <glyph glyph-name="L" unicode="L" horiz-adv-x="982" 
d="M487 265h453v-265h-753v1445h300v-1180z" />
    <glyph glyph-name="Lacute" unicode="&#x139;" horiz-adv-x="982" 
d="M652 1847l-227 -267h-177l262 368zM487 265h453v-265h-753v1445h300v-1180z" />
    <glyph glyph-name="Lcaron" unicode="&#x13d;" horiz-adv-x="1121" 
d="M1073 1446l-215 -654h-206l125 654h296zM487 1445v-1180h453v-265h-753v1445h300z" />
    <glyph glyph-name="Lcommaaccent" unicode="&#x13b;" horiz-adv-x="982" 
d="M487 265h453v-265h-753v1445h300v-1180zM270 -508l168 373h251l-278 -439z" />
    <glyph glyph-name="Lslash" unicode="&#x141;" horiz-adv-x="982" 
d="M487 265h453v-265h-753v522l-169 -125v181l169 126v741h300v-518l166 123v-183l-166 -123v-479z" />
    <glyph glyph-name="M" unicode="M" horiz-adv-x="1970" 
d="M1843 0h-299l-95 1089l-366 -1089h-194l-366 1089l-96 -1089h-300l121 1445h428l308 -907l312 907h428z" />
    <glyph glyph-name="N" unicode="N" horiz-adv-x="1660" 
d="M1174 1445h299v-1445h-347l-640 1033v-1033h-299v1445h343l644 -1027v1027z" />
    <glyph glyph-name="Nacute" unicode="&#x143;" horiz-adv-x="1660" 
d="M1146 1847l-227 -267h-177l262 368zM1174 1445h299v-1445h-347l-640 1033v-1033h-299v1445h343l644 -1027v1027z" />
    <glyph glyph-name="Ncaron" unicode="&#x147;" horiz-adv-x="1660" 
d="M918 1580h-174l-227 299h177l137 -167l136 167h178zM1174 1445h299v-1445h-347l-640 1033v-1033h-299v1445h343l644 -1027v1027z" />
    <glyph glyph-name="Ncommaaccent" unicode="&#x145;" horiz-adv-x="1660" 
d="M1174 1445h299v-1445h-347l-640 1033v-1033h-299v1445h343l644 -1027v1027zM537 -508l168 373h251l-278 -439z" />
    <glyph glyph-name="Eng" unicode="&#x14a;" horiz-adv-x="1673" 
d="M1188 1445h299v-1445c0 -298 -204 -469 -510 -469v223c122 0 219 84 163 246l-655 1038v-1038h-298v1445h342l659 -1031v1031z" />
    <glyph glyph-name="Ntilde" unicode="&#xd1;" horiz-adv-x="1660" 
d="M715 1740c-57 0 -84 -59 -84 -137h-151c0 155 86 267 230 267c87 0 135 -36 168 -73c34 -36 56 -76 102 -76c55 0 78 53 78 135h153c0 -149 -79 -266 -231 -266c-93 0 -137 41 -170 80c-29 36 -50 70 -95 70zM1174 1445h299v-1445h-347l-640 1033v-1033h-299v1445h343
l644 -1027v1027z" />
    <glyph glyph-name="O" unicode="O" horiz-adv-x="1654" 
d="M827 -20c-425 0 -739 290 -739 743c0 454 314 742 739 742c424 0 738 -288 738 -742c0 -453 -314 -743 -738 -743zM827 255c249 0 440 175 440 468c0 292 -191 466 -440 466s-440 -174 -440 -466c0 -293 191 -468 440 -468z" />
    <glyph glyph-name="Oacute" unicode="&#xd3;" horiz-adv-x="1654" 
d="M738 1580l262 368l142 -101l-227 -267h-177zM827 -20c-425 0 -739 290 -739 743c0 454 314 742 739 742c424 0 738 -288 738 -742c0 -453 -314 -743 -738 -743zM827 255c249 0 440 175 440 468c0 292 -191 466 -440 466s-440 -174 -440 -466c0 -293 191 -468 440 -468z
" />
    <glyph glyph-name="uni01D1" unicode="&#x1d1;" horiz-adv-x="1654" 
d="M740 1580l-227 299h177l137 -167l136 167h178l-227 -299h-174zM827 -20c-425 0 -739 290 -739 743c0 454 314 742 739 742c424 0 738 -288 738 -742c0 -453 -314 -743 -738 -743zM827 255c249 0 440 175 440 468c0 292 -191 466 -440 466s-440 -174 -440 -466
c0 -293 191 -468 440 -468z" />
    <glyph glyph-name="Ocircumflex" unicode="&#xd4;" horiz-adv-x="1654" 
d="M690 1580h-177l227 299h173l227 -299h-177l-137 166zM827 -20c-425 0 -739 290 -739 743c0 454 314 742 739 742c424 0 738 -288 738 -742c0 -453 -314 -743 -738 -743zM827 255c249 0 440 175 440 468c0 292 -191 466 -440 466s-440 -174 -440 -466
c0 -293 191 -468 440 -468z" />
    <glyph glyph-name="uni1ED0" unicode="&#x1ed0;" horiz-adv-x="1654" 
d="M737 1970l262 368l142 -101l-227 -267h-177zM690 1580h-177l227 299h173l227 -299h-177l-137 166zM827 -20c-425 0 -739 290 -739 743c0 454 314 742 739 742c424 0 738 -288 738 -742c0 -453 -314 -743 -738 -743zM827 255c249 0 440 175 440 468
c0 292 -191 466 -440 466s-440 -174 -440 -466c0 -293 191 -468 440 -468z" />
    <glyph glyph-name="uni1ED8" unicode="&#x1ed8;" horiz-adv-x="1654" 
d="M690 1580h-177l227 299h173l227 -299h-177l-137 166zM827 -20c-425 0 -739 290 -739 743c0 454 314 742 739 742c424 0 738 -288 738 -742c0 -453 -314 -743 -738 -743zM827 255c249 0 440 175 440 468c0 292 -191 466 -440 466s-440 -174 -440 -466
c0 -293 191 -468 440 -468zM828 -512c-91 0 -167 73 -167 166c0 90 76 164 167 164c89 0 165 -74 165 -164c0 -93 -76 -166 -165 -166z" />
    <glyph glyph-name="uni1ED2" unicode="&#x1ed2;" horiz-adv-x="1654" 
d="M737 1970l-226 267l141 101l263 -368h-178zM690 1580h-177l227 299h173l227 -299h-177l-137 166zM827 -20c-425 0 -739 290 -739 743c0 454 314 742 739 742c424 0 738 -288 738 -742c0 -453 -314 -743 -738 -743zM827 255c249 0 440 175 440 468
c0 292 -191 466 -440 466s-440 -174 -440 -466c0 -293 191 -468 440 -468z" />
    <glyph glyph-name="uni1ED4" unicode="&#x1ed4;" horiz-adv-x="1654" 
d="M766 1926v135c75 13 111 46 111 97c0 38 -22 68 -69 68c-29 0 -59 -12 -86 -38l-67 96c41 35 97 58 169 58c124 0 196 -71 196 -176c0 -96 -59 -136 -126 -157v-83h-128zM690 1580h-177l227 299h173l227 -299h-177l-137 166zM827 -20c-425 0 -739 290 -739 743
c0 454 314 742 739 742c424 0 738 -288 738 -742c0 -453 -314 -743 -738 -743zM827 255c249 0 440 175 440 468c0 292 -191 466 -440 466s-440 -174 -440 -466c0 -293 191 -468 440 -468z" />
    <glyph glyph-name="uni1ED6" unicode="&#x1ed6;" horiz-adv-x="1654" 
d="M975 1980c-93 0 -137 41 -170 80c-29 36 -50 70 -95 70c-57 0 -84 -59 -84 -137h-151c0 155 86 267 230 267c87 0 135 -36 168 -73c34 -36 56 -76 102 -76c55 0 78 53 78 135h153c0 -149 -79 -266 -231 -266zM690 1580h-177l227 299h173l227 -299h-177l-137 166zM827 -20
c-425 0 -739 290 -739 743c0 454 314 742 739 742c424 0 738 -288 738 -742c0 -453 -314 -743 -738 -743zM827 255c249 0 440 175 440 468c0 292 -191 466 -440 466s-440 -174 -440 -466c0 -293 191 -468 440 -468z" />
    <glyph glyph-name="Odieresis" unicode="&#xd6;" horiz-adv-x="1654" 
d="M612 1536c-91 0 -167 74 -167 166c0 91 76 164 167 164c89 0 165 -73 165 -164c0 -92 -76 -166 -165 -166zM1043 1536c-92 0 -167 74 -167 166c0 91 75 164 167 164c89 0 165 -73 165 -164c0 -92 -76 -166 -165 -166zM827 -20c-425 0 -739 290 -739 743
c0 454 314 742 739 742c424 0 738 -288 738 -742c0 -453 -314 -743 -738 -743zM827 255c249 0 440 175 440 468c0 292 -191 466 -440 466s-440 -174 -440 -466c0 -293 191 -468 440 -468z" />
    <glyph glyph-name="uni1ECC" unicode="&#x1ecc;" horiz-adv-x="1654" 
d="M827 -20c-425 0 -739 290 -739 743c0 454 314 742 739 742c424 0 738 -288 738 -742c0 -453 -314 -743 -738 -743zM827 255c249 0 440 175 440 468c0 292 -191 466 -440 466s-440 -174 -440 -466c0 -293 191 -468 440 -468zM828 -512c-91 0 -167 73 -167 166
c0 90 76 164 167 164c89 0 165 -74 165 -164c0 -93 -76 -166 -165 -166z" />
    <glyph glyph-name="Ograve" unicode="&#xd2;" horiz-adv-x="1654" 
d="M738 1580l-226 267l141 101l263 -368h-178zM827 -20c-425 0 -739 290 -739 743c0 454 314 742 739 742c424 0 738 -288 738 -742c0 -453 -314 -743 -738 -743zM827 255c249 0 440 175 440 468c0 292 -191 466 -440 466s-440 -174 -440 -466c0 -293 191 -468 440 -468z
" />
    <glyph glyph-name="uni1ECE" unicode="&#x1ece;" horiz-adv-x="1654" 
d="M767 1536v135c75 13 111 46 111 97c0 38 -22 68 -69 68c-29 0 -59 -12 -86 -38l-67 96c41 35 97 58 169 58c124 0 196 -71 196 -176c0 -96 -59 -136 -126 -157v-83h-128zM827 -20c-425 0 -739 290 -739 743c0 454 314 742 739 742c424 0 738 -288 738 -742
c0 -453 -314 -743 -738 -743zM827 255c249 0 440 175 440 468c0 292 -191 466 -440 466s-440 -174 -440 -466c0 -293 191 -468 440 -468z" />
    <glyph glyph-name="Ohorn" unicode="&#x1a0;" horiz-adv-x="1654" 
d="M1498 1541h141v-166c0 -180 -88 -231 -185 -231h-2c72 -115 113 -257 113 -421c0 -453 -314 -743 -738 -743c-425 0 -739 290 -739 743c0 454 314 742 739 742c196 0 369 -62 498 -173c30 -13 57 -18 77 -18c73 0 96 34 96 140v127zM827 255c249 0 440 175 440 468
c0 292 -191 466 -440 466s-440 -174 -440 -466c0 -293 191 -468 440 -468z" />
    <glyph glyph-name="uni1EDA" unicode="&#x1eda;" horiz-adv-x="1654" 
d="M1142 1847l-227 -267h-177l262 368zM1498 1541h141v-166c0 -180 -88 -231 -185 -231h-2c72 -115 113 -257 113 -421c0 -453 -314 -743 -738 -743c-425 0 -739 290 -739 743c0 454 314 742 739 742c196 0 369 -62 498 -173c30 -13 57 -18 77 -18c73 0 96 34 96 140v127z
M827 255c249 0 440 175 440 468c0 292 -191 466 -440 466s-440 -174 -440 -466c0 -293 191 -468 440 -468z" />
    <glyph glyph-name="uni1EE2" unicode="&#x1ee2;" horiz-adv-x="1654" 
d="M1498 1541h141v-166c0 -180 -88 -231 -185 -231h-2c72 -115 113 -257 113 -421c0 -453 -314 -743 -738 -743c-425 0 -739 290 -739 743c0 454 314 742 739 742c196 0 369 -62 498 -173c30 -13 57 -18 77 -18c73 0 96 34 96 140v127zM827 255c249 0 440 175 440 468
c0 292 -191 466 -440 466s-440 -174 -440 -466c0 -293 191 -468 440 -468zM828 -182c89 0 165 -74 165 -164c0 -93 -76 -166 -165 -166c-91 0 -167 73 -167 166c0 90 76 164 167 164z" />
    <glyph glyph-name="uni1EDC" unicode="&#x1edc;" horiz-adv-x="1654" 
d="M916 1580h-178l-226 267l141 101zM1498 1541h141v-166c0 -180 -88 -231 -185 -231h-2c72 -115 113 -257 113 -421c0 -453 -314 -743 -738 -743c-425 0 -739 290 -739 743c0 454 314 742 739 742c196 0 369 -62 498 -173c30 -13 57 -18 77 -18c73 0 96 34 96 140v127z
M827 255c249 0 440 175 440 468c0 292 -191 466 -440 466s-440 -174 -440 -466c0 -293 191 -468 440 -468z" />
    <glyph glyph-name="uni1EDE" unicode="&#x1ede;" horiz-adv-x="1654" 
d="M809 1836c-29 0 -59 -12 -86 -38l-67 96c41 35 97 58 169 58c124 0 196 -71 196 -176c0 -96 -59 -136 -126 -157v-83h-128v135c75 13 111 46 111 97c0 38 -22 68 -69 68zM1498 1541h141v-166c0 -180 -88 -231 -185 -231h-2c72 -115 113 -257 113 -421
c0 -453 -314 -743 -738 -743c-425 0 -739 290 -739 743c0 454 314 742 739 742c196 0 369 -62 498 -173c30 -13 57 -18 77 -18c73 0 96 34 96 140v127zM827 255c249 0 440 175 440 468c0 292 -191 466 -440 466s-440 -174 -440 -466c0 -293 191 -468 440 -468z" />
    <glyph glyph-name="uni1EE0" unicode="&#x1ee0;" horiz-adv-x="1654" 
d="M711 1740c-57 0 -84 -59 -84 -137h-151c0 155 86 267 230 267c87 0 135 -36 168 -73c34 -36 56 -76 102 -76c55 0 78 53 78 135h153c0 -149 -79 -266 -231 -266c-93 0 -137 41 -170 80c-29 36 -50 70 -95 70zM1498 1541h141v-166c0 -180 -88 -231 -185 -231h-2
c72 -115 113 -257 113 -421c0 -453 -314 -743 -738 -743c-425 0 -739 290 -739 743c0 454 314 742 739 742c196 0 369 -62 498 -173c30 -13 57 -18 77 -18c73 0 96 34 96 140v127zM827 255c249 0 440 175 440 468c0 292 -191 466 -440 466s-440 -174 -440 -466
c0 -293 191 -468 440 -468z" />
    <glyph glyph-name="Ohungarumlaut" unicode="&#x150;" horiz-adv-x="1654" 
d="M549 1580l262 368l142 -101l-227 -267h-177zM926 1580l263 368l141 -101l-226 -267h-178zM827 -20c-425 0 -739 290 -739 743c0 454 314 742 739 742c424 0 738 -288 738 -742c0 -453 -314 -743 -738 -743zM827 255c249 0 440 175 440 468c0 292 -191 466 -440 466
s-440 -174 -440 -466c0 -293 191 -468 440 -468z" />
    <glyph glyph-name="Omacron" unicode="&#x14c;" horiz-adv-x="1654" 
d="M495 1580v170h664v-170h-664zM827 -20c-425 0 -739 290 -739 743c0 454 314 742 739 742c424 0 738 -288 738 -742c0 -453 -314 -743 -738 -743zM827 255c249 0 440 175 440 468c0 292 -191 466 -440 466s-440 -174 -440 -466c0 -293 191 -468 440 -468z" />
    <glyph glyph-name="Oslash" unicode="&#xd8;" horiz-adv-x="1654" 
d="M1313 1302c157 -129 252 -329 252 -579c0 -453 -314 -743 -738 -743c-139 0 -265 31 -373 88l-123 -176l-117 69l127 182c-157 130 -253 330 -253 580c0 454 314 742 739 742c138 0 265 -31 373 -88l123 177l117 -70zM387 723c0 -143 46 -259 122 -339l527 758
c-62 31 -133 47 -209 47c-249 0 -440 -174 -440 -466zM827 255c249 0 440 175 440 468c0 143 -46 258 -122 338l-528 -758c62 -31 133 -48 210 -48z" />
    <glyph glyph-name="Otilde" unicode="&#xd5;" horiz-adv-x="1654" 
d="M976 1590c-93 0 -137 41 -170 80c-29 36 -50 70 -95 70c-57 0 -84 -59 -84 -137h-151c0 155 86 267 230 267c87 0 135 -36 168 -73c34 -36 56 -76 102 -76c55 0 78 53 78 135h153c0 -149 -79 -266 -231 -266zM827 -20c-425 0 -739 290 -739 743c0 454 314 742 739 742
c424 0 738 -288 738 -742c0 -453 -314 -743 -738 -743zM827 255c249 0 440 175 440 468c0 292 -191 466 -440 466s-440 -174 -440 -466c0 -293 191 -468 440 -468z" />
    <glyph glyph-name="OE" unicode="&#x152;" horiz-adv-x="2000" 
d="M810 0c-512 0 -722 288 -722 726c0 437 210 719 722 719h1068v-265h-571v-321h485v-266h-485v-328h571v-265h-1068zM825 265h182v915h-182c-322 0 -423 -159 -423 -454s101 -461 423 -461z" />
    <glyph glyph-name="P" unicode="P" horiz-adv-x="1312" 
d="M788 1445c283 0 459 -210 459 -467c0 -263 -176 -460 -459 -460h-301v-518h-300v1445h601zM738 769c150 0 220 83 220 213c0 125 -70 212 -220 212h-251v-425h251z" />
    <glyph glyph-name="Thorn" unicode="&#xde;" horiz-adv-x="1239" 
d="M767 1314c228 0 409 -202 409 -458c0 -247 -181 -441 -409 -441h-290v-415h-290v1534h290v-220h290zM756 672c88 0 157 86 157 193c0 109 -69 191 -157 191h-279v-384h279z" />
    <glyph glyph-name="Q" unicode="Q" horiz-adv-x="1686" 
d="M1617 -60l-250 -95l-185 208c-102 -47 -220 -73 -348 -73c-430 0 -748 290 -748 743c0 454 318 742 748 742s748 -288 748 -742c0 -215 -71 -393 -192 -521zM385 723c0 -308 195 -482 449 -482s449 174 449 482c0 292 -195 466 -449 466s-449 -174 -449 -466z" />
    <glyph glyph-name="R" unicode="R" horiz-adv-x="1338" 
d="M950 0l-376 636h-87v-636h-300v1445h524c327 0 465 -193 465 -432c0 -194 -110 -320 -306 -362l435 -651h-355zM487 1196v-345h177c160 0 225 68 225 172c0 103 -65 173 -225 173h-177z" />
    <glyph glyph-name="Racute" unicode="&#x154;" horiz-adv-x="1338" 
d="M975 1847l-227 -267h-177l262 368zM950 0l-376 636h-87v-636h-300v1445h524c327 0 465 -193 465 -432c0 -194 -110 -320 -306 -362l435 -651h-355zM487 1196v-345h177c160 0 225 68 225 172c0 103 -65 173 -225 173h-177z" />
    <glyph glyph-name="Rcaron" unicode="&#x158;" horiz-adv-x="1338" 
d="M747 1580h-174l-227 299h177l137 -167l136 167h178zM950 0l-376 636h-87v-636h-300v1445h524c327 0 465 -193 465 -432c0 -194 -110 -320 -306 -362l435 -651h-355zM487 1196v-345h177c160 0 225 68 225 172c0 103 -65 173 -225 173h-177z" />
    <glyph glyph-name="Rcommaaccent" unicode="&#x156;" horiz-adv-x="1338" 
d="M870 651l435 -651h-355l-376 636h-87v-636h-300v1445h524c327 0 465 -193 465 -432c0 -194 -110 -320 -306 -362zM487 1196v-345h177c160 0 225 68 225 172c0 103 -65 173 -225 173h-177zM366 -508l168 373h251l-278 -439z" />
    <glyph glyph-name="S" unicode="S" horiz-adv-x="1297" 
d="M667 -20c-310 0 -552 149 -596 420l310 71c20 -162 139 -246 298 -246c122 0 219 54 218 176c-1 136 -161 179 -337 233c-212 66 -439 144 -439 410c0 269 220 421 510 421c254 0 510 -103 568 -380l-290 -72c-27 144 -124 207 -260 207c-121 0 -224 -50 -224 -169
c0 -111 142 -148 306 -197c218 -66 476 -150 476 -438c0 -307 -257 -436 -540 -436z" />
    <glyph glyph-name="Sacute" unicode="&#x15a;" horiz-adv-x="1297" 
d="M563 1580l262 368l142 -101l-227 -267h-177zM667 -20c-310 0 -552 149 -596 420l310 71c20 -162 139 -246 298 -246c122 0 219 54 218 176c-1 136 -161 179 -337 233c-212 66 -439 144 -439 410c0 269 220 421 510 421c254 0 510 -103 568 -380l-290 -72
c-27 144 -124 207 -260 207c-121 0 -224 -50 -224 -169c0 -111 142 -148 306 -197c218 -66 476 -150 476 -438c0 -307 -257 -436 -540 -436z" />
    <glyph glyph-name="Scaron" unicode="&#x160;" horiz-adv-x="1297" 
d="M565 1580l-227 299h177l137 -167l136 167h178l-227 -299h-174zM667 -20c-310 0 -552 149 -596 420l310 71c20 -162 139 -246 298 -246c122 0 219 54 218 176c-1 136 -161 179 -337 233c-212 66 -439 144 -439 410c0 269 220 421 510 421c254 0 510 -103 568 -380
l-290 -72c-27 144 -124 207 -260 207c-121 0 -224 -50 -224 -169c0 -111 142 -148 306 -197c218 -66 476 -150 476 -438c0 -307 -257 -436 -540 -436z" />
    <glyph glyph-name="Scedilla" unicode="&#x15e;" horiz-adv-x="1297" 
d="M1207 416c0 -291 -232 -422 -497 -435l-59 -104c15 3 31 6 45 6c113 0 196 -79 196 -192c0 -125 -98 -223 -223 -223c-117 0 -207 67 -239 151l127 44c20 -40 65 -64 106 -64c50 0 94 36 94 92c0 60 -44 91 -96 91c-28 0 -55 -10 -74 -31l-105 62l94 171
c-266 27 -465 172 -505 416l310 71c20 -162 139 -246 298 -246c122 0 219 54 218 176c-1 136 -161 179 -337 233c-212 66 -439 144 -439 410c0 269 220 421 510 421c254 0 510 -103 568 -380l-290 -72c-27 144 -124 207 -260 207c-121 0 -224 -50 -224 -169
c0 -111 142 -148 306 -197c218 -66 476 -150 476 -438z" />
    <glyph glyph-name="Scommaaccent" unicode="&#x218;" horiz-adv-x="1297" 
d="M667 -20c-310 0 -552 149 -596 420l310 71c20 -162 139 -246 298 -246c122 0 219 54 218 176c-1 136 -161 179 -337 233c-212 66 -439 144 -439 410c0 269 220 421 510 421c254 0 510 -103 568 -380l-290 -72c-27 144 -124 207 -260 207c-121 0 -224 -50 -224 -169
c0 -111 142 -148 306 -197c218 -66 476 -150 476 -438c0 -307 -257 -436 -540 -436zM499 -574l-141 66l168 373h251z" />
    <glyph glyph-name="T" unicode="T" horiz-adv-x="1065" 
d="M1025 1445v-264h-343v-1181h-297v1181h-345v264h985z" />
    <glyph glyph-name="Tbar" unicode="&#x166;" horiz-adv-x="1065" 
d="M1025 1181h-343v-370h196v-176h-196v-635h-297v635h-196v176h196v370h-345v264h985v-264z" />
    <glyph glyph-name="Tcaron" unicode="&#x164;" horiz-adv-x="1065" 
d="M620 1580h-174l-227 299h177l137 -167l136 167h178zM1025 1445v-264h-343v-1181h-297v1181h-345v264h985z" />
    <glyph glyph-name="uni0162" unicode="&#x162;" horiz-adv-x="1065" 
d="M682 0h-80l-70 -123c15 3 31 6 45 6c113 0 196 -79 196 -192c0 -125 -98 -223 -223 -223c-117 0 -207 67 -239 151l127 44c20 -40 65 -64 106 -64c50 0 94 36 94 92c0 60 -44 91 -96 91c-28 0 -55 -10 -74 -31l-105 62l102 187h-80v1181h-345v264h985v-264h-343v-1181z
" />
    <glyph glyph-name="uni021A" unicode="&#x21a;" horiz-adv-x="1065" 
d="M1025 1445v-264h-343v-1181h-297v1181h-345v264h985zM239 -508l168 373h251l-278 -439z" />
    <glyph glyph-name="U" unicode="U" horiz-adv-x="1446" 
d="M722 -20c-317 0 -565 162 -565 526v939h300v-898c0 -220 117 -302 265 -302c149 0 267 83 267 302v898h300v-939c0 -364 -249 -526 -567 -526z" />
    <glyph glyph-name="Uacute" unicode="&#xda;" horiz-adv-x="1446" 
d="M633 1580l262 368l142 -101l-227 -267h-177zM722 -20c-317 0 -565 162 -565 526v939h300v-898c0 -220 117 -302 265 -302c149 0 267 83 267 302v898h300v-939c0 -364 -249 -526 -567 -526z" />
    <glyph glyph-name="uni01D3" unicode="&#x1d3;" horiz-adv-x="1446" 
d="M635 1580l-227 299h177l137 -167l136 167h178l-227 -299h-174zM722 -20c-317 0 -565 162 -565 526v939h300v-898c0 -220 117 -302 265 -302c149 0 267 83 267 302v898h300v-939c0 -364 -249 -526 -567 -526z" />
    <glyph glyph-name="Ucircumflex" unicode="&#xdb;" horiz-adv-x="1446" 
d="M585 1580h-177l227 299h173l227 -299h-177l-137 166zM722 -20c-317 0 -565 162 -565 526v939h300v-898c0 -220 117 -302 265 -302c149 0 267 83 267 302v898h300v-939c0 -364 -249 -526 -567 -526z" />
    <glyph glyph-name="Udieresis" unicode="&#xdc;" horiz-adv-x="1446" 
d="M507 1536c-91 0 -167 74 -167 166c0 91 76 164 167 164c89 0 165 -73 165 -164c0 -92 -76 -166 -165 -166zM938 1536c-92 0 -167 74 -167 166c0 91 75 164 167 164c89 0 165 -73 165 -164c0 -92 -76 -166 -165 -166zM722 -20c-317 0 -565 162 -565 526v939h300v-898
c0 -220 117 -302 265 -302c149 0 267 83 267 302v898h300v-939c0 -364 -249 -526 -567 -526z" />
    <glyph glyph-name="uni01D7" unicode="&#x1d7;" horiz-adv-x="1446" 
d="M633 2001l262 368l142 -101l-227 -267h-177zM507 1536c-91 0 -167 74 -167 166c0 91 76 164 167 164c89 0 165 -73 165 -164c0 -92 -76 -166 -165 -166zM938 1536c-92 0 -167 74 -167 166c0 91 75 164 167 164c89 0 165 -73 165 -164c0 -92 -76 -166 -165 -166zM722 -20
c-317 0 -565 162 -565 526v939h300v-898c0 -220 117 -302 265 -302c149 0 267 83 267 302v898h300v-939c0 -364 -249 -526 -567 -526z" />
    <glyph glyph-name="uni01D9" unicode="&#x1d9;" horiz-adv-x="1446" 
d="M635 2001l-227 299h177l137 -167l136 167h178l-227 -299h-174zM507 1536c-91 0 -167 74 -167 166c0 91 76 164 167 164c89 0 165 -73 165 -164c0 -92 -76 -166 -165 -166zM938 1536c-92 0 -167 74 -167 166c0 91 75 164 167 164c89 0 165 -73 165 -164
c0 -92 -76 -166 -165 -166zM722 -20c-317 0 -565 162 -565 526v939h300v-898c0 -220 117 -302 265 -302c149 0 267 83 267 302v898h300v-939c0 -364 -249 -526 -567 -526z" />
    <glyph glyph-name="uni01DB" unicode="&#x1db;" horiz-adv-x="1446" 
d="M633 2001l-226 267l141 101l263 -368h-178zM507 1536c-91 0 -167 74 -167 166c0 91 76 164 167 164c89 0 165 -73 165 -164c0 -92 -76 -166 -165 -166zM938 1536c-92 0 -167 74 -167 166c0 91 75 164 167 164c89 0 165 -73 165 -164c0 -92 -76 -166 -165 -166zM722 -20
c-317 0 -565 162 -565 526v939h300v-898c0 -220 117 -302 265 -302c149 0 267 83 267 302v898h300v-939c0 -364 -249 -526 -567 -526z" />
    <glyph glyph-name="uni01D5" unicode="&#x1d5;" horiz-adv-x="1446" 
d="M390 2001v170h664v-170h-664zM507 1536c-91 0 -167 74 -167 166c0 91 76 164 167 164c89 0 165 -73 165 -164c0 -92 -76 -166 -165 -166zM938 1536c-92 0 -167 74 -167 166c0 91 75 164 167 164c89 0 165 -73 165 -164c0 -92 -76 -166 -165 -166zM722 -20
c-317 0 -565 162 -565 526v939h300v-898c0 -220 117 -302 265 -302c149 0 267 83 267 302v898h300v-939c0 -364 -249 -526 -567 -526z" />
    <glyph glyph-name="uni1EE4" unicode="&#x1ee4;" horiz-adv-x="1446" 
d="M722 -20c-317 0 -565 162 -565 526v939h300v-898c0 -220 117 -302 265 -302c149 0 267 83 267 302v898h300v-939c0 -364 -249 -526 -567 -526zM723 -512c-91 0 -167 73 -167 166c0 90 76 164 167 164c89 0 165 -74 165 -164c0 -93 -76 -166 -165 -166z" />
    <glyph glyph-name="Ugrave" unicode="&#xd9;" horiz-adv-x="1446" 
d="M633 1580l-226 267l141 101l263 -368h-178zM722 -20c-317 0 -565 162 -565 526v939h300v-898c0 -220 117 -302 265 -302c149 0 267 83 267 302v898h300v-939c0 -364 -249 -526 -567 -526z" />
    <glyph glyph-name="uni1EE6" unicode="&#x1ee6;" horiz-adv-x="1446" 
d="M662 1536v135c75 13 111 46 111 97c0 38 -22 68 -69 68c-29 0 -59 -12 -86 -38l-67 96c41 35 97 58 169 58c124 0 196 -71 196 -176c0 -96 -59 -136 -126 -157v-83h-128zM722 -20c-317 0 -565 162 -565 526v939h300v-898c0 -220 117 -302 265 -302c149 0 267 83 267 302
v898h300v-939c0 -364 -249 -526 -567 -526z" />
    <glyph glyph-name="Uhorn" unicode="&#x1af;" horiz-adv-x="1446" 
d="M1442 1615h141v-166c0 -180 -88 -231 -185 -231c-32 0 -70 7 -109 20v-732c0 -364 -249 -526 -567 -526c-317 0 -565 162 -565 526v939h300v-898c0 -220 117 -302 265 -302c149 0 267 83 267 302v898h300v-87c22 -7 42 -10 57 -10c73 0 96 34 96 140v127z" />
    <glyph glyph-name="uni1EE8" unicode="&#x1ee8;" horiz-adv-x="1446" 
d="M1037 1847l-227 -267h-177l262 368zM1442 1615h141v-166c0 -180 -88 -231 -185 -231c-32 0 -70 7 -109 20v-732c0 -364 -249 -526 -567 -526c-317 0 -565 162 -565 526v939h300v-898c0 -220 117 -302 265 -302c149 0 267 83 267 302v898h300v-87c22 -7 42 -10 57 -10
c73 0 96 34 96 140v127z" />
    <glyph glyph-name="uni1EF0" unicode="&#x1ef0;" horiz-adv-x="1446" 
d="M1442 1615h141v-166c0 -180 -88 -231 -185 -231c-32 0 -70 7 -109 20v-732c0 -364 -249 -526 -567 -526c-317 0 -565 162 -565 526v939h300v-898c0 -220 117 -302 265 -302c149 0 267 83 267 302v898h300v-87c22 -7 42 -10 57 -10c73 0 96 34 96 140v127zM723 -182
c89 0 165 -74 165 -164c0 -93 -76 -166 -165 -166c-91 0 -167 73 -167 166c0 90 76 164 167 164z" />
    <glyph glyph-name="uni1EEA" unicode="&#x1eea;" horiz-adv-x="1446" 
d="M811 1580h-178l-226 267l141 101zM1442 1615h141v-166c0 -180 -88 -231 -185 -231c-32 0 -70 7 -109 20v-732c0 -364 -249 -526 -567 -526c-317 0 -565 162 -565 526v939h300v-898c0 -220 117 -302 265 -302c149 0 267 83 267 302v898h300v-87c22 -7 42 -10 57 -10
c73 0 96 34 96 140v127z" />
    <glyph glyph-name="uni1EEC" unicode="&#x1eec;" horiz-adv-x="1446" 
d="M704 1836c-29 0 -59 -12 -86 -38l-67 96c41 35 97 58 169 58c124 0 196 -71 196 -176c0 -96 -59 -136 -126 -157v-83h-128v135c75 13 111 46 111 97c0 38 -22 68 -69 68zM1442 1615h141v-166c0 -180 -88 -231 -185 -231c-32 0 -70 7 -109 20v-732
c0 -364 -249 -526 -567 -526c-317 0 -565 162 -565 526v939h300v-898c0 -220 117 -302 265 -302c149 0 267 83 267 302v898h300v-87c22 -7 42 -10 57 -10c73 0 96 34 96 140v127z" />
    <glyph glyph-name="uni1EEE" unicode="&#x1eee;" horiz-adv-x="1446" 
d="M606 1740c-57 0 -84 -59 -84 -137h-151c0 155 86 267 230 267c87 0 135 -36 168 -73c34 -36 56 -76 102 -76c55 0 78 53 78 135h153c0 -149 -79 -266 -231 -266c-93 0 -137 41 -170 80c-29 36 -50 70 -95 70zM1442 1615h141v-166c0 -180 -88 -231 -185 -231
c-32 0 -70 7 -109 20v-732c0 -364 -249 -526 -567 -526c-317 0 -565 162 -565 526v939h300v-898c0 -220 117 -302 265 -302c149 0 267 83 267 302v898h300v-87c22 -7 42 -10 57 -10c73 0 96 34 96 140v127z" />
    <glyph glyph-name="Uhungarumlaut" unicode="&#x170;" horiz-adv-x="1446" 
d="M444 1580l262 368l142 -101l-227 -267h-177zM821 1580l263 368l141 -101l-226 -267h-178zM722 -20c-317 0 -565 162 -565 526v939h300v-898c0 -220 117 -302 265 -302c149 0 267 83 267 302v898h300v-939c0 -364 -249 -526 -567 -526z" />
    <glyph glyph-name="Umacron" unicode="&#x16a;" horiz-adv-x="1446" 
d="M390 1580v170h664v-170h-664zM722 -20c-317 0 -565 162 -565 526v939h300v-898c0 -220 117 -302 265 -302c149 0 267 83 267 302v898h300v-939c0 -364 -249 -526 -567 -526z" />
    <glyph glyph-name="Uogonek" unicode="&#x172;" horiz-adv-x="1446" 
d="M989 1445h300v-939c0 -236 -105 -387 -265 -464c-67 -63 -148 -149 -148 -198c0 -25 21 -36 60 -36c37 0 85 16 112 40v-182c-41 -17 -93 -27 -144 -27c-110 0 -193 36 -193 109c0 66 63 156 143 242c-42 -7 -86 -10 -132 -10c-317 0 -565 162 -565 526v939h300v-898
c0 -220 117 -302 265 -302c149 0 267 83 267 302v898z" />
    <glyph glyph-name="Uring" unicode="&#x16e;" horiz-adv-x="1446" 
d="M722 1580c-133 0 -241 108 -241 240c0 130 108 237 241 237c130 0 237 -107 237 -237c0 -132 -107 -240 -237 -240zM722 1701c66 0 118 48 118 119c0 64 -52 120 -118 120s-116 -56 -116 -120c0 -71 50 -119 116 -119zM722 -20c-317 0 -565 162 -565 526v939h300v-898
c0 -220 117 -302 265 -302c149 0 267 83 267 302v898h300v-939c0 -364 -249 -526 -567 -526z" />
    <glyph glyph-name="Utilde" unicode="&#x168;" horiz-adv-x="1446" 
d="M871 1590c-93 0 -137 41 -170 80c-29 36 -50 70 -95 70c-57 0 -84 -59 -84 -137h-151c0 155 86 267 230 267c87 0 135 -36 168 -73c34 -36 56 -76 102 -76c55 0 78 53 78 135h153c0 -149 -79 -266 -231 -266zM722 -20c-317 0 -565 162 -565 526v939h300v-898
c0 -220 117 -302 265 -302c149 0 267 83 267 302v898h300v-939c0 -364 -249 -526 -567 -526z" />
    <glyph glyph-name="V" unicode="V" horiz-adv-x="1455" 
d="M1106 1445h319l-534 -1445h-330l-531 1445h318l379 -1095z" />
    <glyph glyph-name="W" unicode="W" horiz-adv-x="2175" 
d="M422 0l-378 1445h312l282 -1094l323 1094h253l321 -1094l285 1094h311l-378 -1445h-386l-280 893l-279 -893h-386z" />
    <glyph glyph-name="Wacute" unicode="&#x1e82;" horiz-adv-x="2175" 
d="M998 1580l262 368l142 -101l-227 -267h-177zM422 0l-378 1445h312l282 -1094l323 1094h253l321 -1094l285 1094h311l-378 -1445h-386l-280 893l-279 -893h-386z" />
    <glyph glyph-name="Wcircumflex" unicode="&#x174;" horiz-adv-x="2175" 
d="M950 1580h-177l227 299h173l227 -299h-177l-137 166zM422 0l-378 1445h312l282 -1094l323 1094h253l321 -1094l285 1094h311l-378 -1445h-386l-280 893l-279 -893h-386z" />
    <glyph glyph-name="Wdieresis" unicode="&#x1e84;" horiz-adv-x="2175" 
d="M872 1536c-91 0 -167 74 -167 166c0 91 76 164 167 164c89 0 165 -73 165 -164c0 -92 -76 -166 -165 -166zM1303 1536c-92 0 -167 74 -167 166c0 91 75 164 167 164c89 0 165 -73 165 -164c0 -92 -76 -166 -165 -166zM422 0l-378 1445h312l282 -1094l323 1094h253
l321 -1094l285 1094h311l-378 -1445h-386l-280 893l-279 -893h-386z" />
    <glyph glyph-name="Wgrave" unicode="&#x1e80;" horiz-adv-x="2175" 
d="M998 1580l-226 267l141 101l263 -368h-178zM422 0l-378 1445h312l282 -1094l323 1094h253l321 -1094l285 1094h311l-378 -1445h-386l-280 893l-279 -893h-386z" />
    <glyph glyph-name="X" unicode="X" horiz-adv-x="1540" 
d="M29 0l563 754l-547 691h365l360 -474l360 474h365l-547 -691l563 -754h-382l-359 511l-359 -511h-382z" />
    <glyph glyph-name="Y" unicode="Y" horiz-adv-x="1287" 
d="M1271 1445l-475 -753v-692h-301v685l-478 760h332l295 -492l296 492h331z" />
    <glyph glyph-name="Yacute" unicode="&#xdd;" horiz-adv-x="1287" 
d="M959 1847l-227 -267h-177l262 368zM1271 1445l-475 -753v-692h-301v685l-478 760h332l295 -492l296 492h331z" />
    <glyph glyph-name="Ycircumflex" unicode="&#x176;" horiz-adv-x="1287" 
d="M643 1746l-136 -166h-177l227 299h173l227 -299h-177zM1271 1445l-475 -753v-692h-301v685l-478 760h332l295 -492l296 492h331z" />
    <glyph glyph-name="Ydieresis" unicode="&#x178;" horiz-adv-x="1287" 
d="M429 1536c-91 0 -167 74 -167 166c0 91 76 164 167 164c89 0 165 -73 165 -164c0 -92 -76 -166 -165 -166zM860 1536c-92 0 -167 74 -167 166c0 91 75 164 167 164c89 0 165 -73 165 -164c0 -92 -76 -166 -165 -166zM1271 1445l-475 -753v-692h-301v685l-478 760h332
l295 -492l296 492h331z" />
    <glyph glyph-name="uni1EF4" unicode="&#x1ef4;" horiz-adv-x="1287" 
d="M495 0v685l-478 760h332l295 -492l296 492h331l-475 -753v-692h-301zM646 -182c89 0 165 -74 165 -164c0 -93 -76 -166 -165 -166c-91 0 -167 73 -167 166c0 90 76 164 167 164z" />
    <glyph glyph-name="Ygrave" unicode="&#x1ef2;" horiz-adv-x="1287" 
d="M733 1580h-178l-226 267l141 101zM1271 1445l-475 -753v-692h-301v685l-478 760h332l295 -492l296 492h331z" />
    <glyph glyph-name="uni1EF6" unicode="&#x1ef6;" horiz-adv-x="1287" 
d="M626 1836c-29 0 -59 -12 -86 -38l-67 96c41 35 97 58 169 58c124 0 196 -71 196 -176c0 -96 -59 -136 -126 -157v-83h-128v135c75 13 111 46 111 97c0 38 -22 68 -69 68zM1271 1445l-475 -753v-692h-301v685l-478 760h332l295 -492l296 492h331z" />
    <glyph glyph-name="uni1EF8" unicode="&#x1ef8;" horiz-adv-x="1287" 
d="M528 1740c-57 0 -84 -59 -84 -137h-151c0 155 86 267 230 267c87 0 135 -36 168 -73c34 -36 56 -76 102 -76c55 0 78 53 78 135h153c0 -149 -79 -266 -231 -266c-93 0 -137 41 -170 80c-29 36 -50 70 -95 70zM1271 1445l-475 -753v-692h-301v685l-478 760h332l295 -492
l296 492h331z" />
    <glyph glyph-name="Z" unicode="Z" horiz-adv-x="1232" 
d="M450 265h694v-265h-1053v237l685 944h-684v264h1039v-237z" />
    <glyph glyph-name="Zacute" unicode="&#x179;" horiz-adv-x="1232" 
d="M956 1847l-227 -267h-177l262 368zM450 265h694v-265h-1053v237l685 944h-684v264h1039v-237z" />
    <glyph glyph-name="Zcaron" unicode="&#x17d;" horiz-adv-x="1232" 
d="M728 1580h-174l-227 299h177l137 -167l136 167h178zM450 265h694v-265h-1053v237l685 944h-684v264h1039v-237z" />
    <glyph glyph-name="Zdotaccent" unicode="&#x17b;" horiz-adv-x="1232" 
d="M642 1536c-91 0 -167 74 -167 166c0 91 76 164 167 164c89 0 165 -73 165 -164c0 -92 -76 -166 -165 -166zM450 265h694v-265h-1053v237l685 944h-684v264h1039v-237z" />
    <glyph glyph-name="G.ss02" horiz-adv-x="1606" 
d="M832 -20c-438 0 -744 288 -744 739c0 457 314 746 739 746c279 0 510 -123 636 -340l-263 -140c-76 148 -212 219 -373 219c-250 0 -438 -172 -438 -477c0 -296 176 -486 462 -486c202 0 365 106 384 303h-396v241h680c6 -59 8 -115 5 -168c-15 -446 -338 -637 -692 -637
z" />
    <glyph glyph-name="Gbreve.ss02" horiz-adv-x="1606" 
d="M820 1580c-215 0 -364 77 -364 295h166c0 -112 78 -161 198 -161c122 0 200 49 200 161h166c0 -218 -150 -295 -366 -295zM832 -20c-438 0 -744 288 -744 739c0 457 314 746 739 746c279 0 510 -123 636 -340l-263 -140c-76 148 -212 219 -373 219
c-250 0 -438 -172 -438 -477c0 -296 176 -486 462 -486c202 0 365 106 384 303h-396v241h680c6 -59 8 -115 5 -168c-15 -446 -338 -637 -692 -637z" />
    <glyph glyph-name="Gcommaaccent.ss02" horiz-adv-x="1606" 
d="M832 -20c-438 0 -744 288 -744 739c0 457 314 746 739 746c279 0 510 -123 636 -340l-263 -140c-76 148 -212 219 -373 219c-250 0 -438 -172 -438 -477c0 -296 176 -486 462 -486c202 0 365 106 384 303h-396v241h680c6 -59 8 -115 5 -168c-15 -446 -338 -637 -692 -637
zM668 -574l-141 66l168 373h251z" />
    <glyph glyph-name="Gdotaccent.ss02" horiz-adv-x="1606" 
d="M822 1536c-91 0 -167 74 -167 166c0 91 76 164 167 164c89 0 165 -73 165 -164c0 -92 -76 -166 -165 -166zM832 -20c-438 0 -744 288 -744 739c0 457 314 746 739 746c279 0 510 -123 636 -340l-263 -140c-76 148 -212 219 -373 219c-250 0 -438 -172 -438 -477
c0 -296 176 -486 462 -486c202 0 365 106 384 303h-396v241h680c6 -59 8 -115 5 -168c-15 -446 -338 -637 -692 -637z" />
    <glyph glyph-name="G.ss03" horiz-adv-x="1606" 
d="M832 -20c-438 0 -744 288 -744 739c0 457 314 746 739 746c279 0 510 -123 636 -340l-263 -140c-76 148 -212 219 -373 219c-250 0 -438 -172 -438 -477c0 -296 176 -486 462 -486c202 0 365 106 384 303h-396v241h680c6 -59 8 -115 5 -168c-15 -446 -338 -637 -692 -637
z" />
    <glyph glyph-name="Gbreve.ss03" horiz-adv-x="1606" 
d="M820 1580c-215 0 -364 77 -364 295h166c0 -112 78 -161 198 -161c122 0 200 49 200 161h166c0 -218 -150 -295 -366 -295zM832 -20c-438 0 -744 288 -744 739c0 457 314 746 739 746c279 0 510 -123 636 -340l-263 -140c-76 148 -212 219 -373 219
c-250 0 -438 -172 -438 -477c0 -296 176 -486 462 -486c202 0 365 106 384 303h-396v241h680c6 -59 8 -115 5 -168c-15 -446 -338 -637 -692 -637z" />
    <glyph glyph-name="Gcommaaccent.ss03" horiz-adv-x="1606" 
d="M832 -20c-438 0 -744 288 -744 739c0 457 314 746 739 746c279 0 510 -123 636 -340l-263 -140c-76 148 -212 219 -373 219c-250 0 -438 -172 -438 -477c0 -296 176 -486 462 -486c202 0 365 106 384 303h-396v241h680c6 -59 8 -115 5 -168c-15 -446 -338 -637 -692 -637
zM668 -574l-141 66l168 373h251z" />
    <glyph glyph-name="Gdotaccent.ss03" horiz-adv-x="1606" 
d="M822 1536c-91 0 -167 74 -167 166c0 91 76 164 167 164c89 0 165 -73 165 -164c0 -92 -76 -166 -165 -166zM832 -20c-438 0 -744 288 -744 739c0 457 314 746 739 746c279 0 510 -123 636 -340l-263 -140c-76 148 -212 219 -373 219c-250 0 -438 -172 -438 -477
c0 -296 176 -486 462 -486c202 0 365 106 384 303h-396v241h680c6 -59 8 -115 5 -168c-15 -446 -338 -637 -692 -637z" />
    <glyph glyph-name="a" unicode="a" horiz-adv-x="1123" 
d="M992 279c0 -126 12 -206 25 -251v-28h-269l-23 112c-77 -93 -210 -132 -330 -132c-162 0 -320 72 -320 286c0 213 159 285 374 332l169 38c73 17 99 42 99 84c0 101 -92 129 -173 129c-104 0 -183 -41 -201 -157l-255 46c43 213 199 310 472 310c206 0 432 -61 432 -371
v-398zM485 175c137 0 247 91 247 295l-244 -69c-80 -19 -138 -47 -138 -116c0 -74 61 -110 135 -110z" />
    <glyph glyph-name="aacute" unicode="&#xe1;" horiz-adv-x="1123" 
d="M880 1437l-227 -268h-177l262 368zM992 279c0 -126 12 -206 25 -251v-28h-269l-23 112c-77 -93 -210 -132 -330 -132c-162 0 -320 72 -320 286c0 213 159 285 374 332l169 38c73 17 99 42 99 84c0 101 -92 129 -173 129c-104 0 -183 -41 -201 -157l-255 46
c43 213 199 310 472 310c206 0 432 -61 432 -371v-398zM485 175c137 0 247 91 247 295l-244 -69c-80 -19 -138 -47 -138 -116c0 -74 61 -110 135 -110z" />
    <glyph glyph-name="abreve" unicode="&#x103;" horiz-adv-x="1123" 
d="M565 1154c-215 0 -364 119 -364 351h180c0 -126 64 -216 184 -216c122 0 185 90 185 216h181c0 -232 -150 -351 -366 -351zM992 279c0 -126 12 -206 25 -251v-28h-269l-23 112c-77 -93 -210 -132 -330 -132c-162 0 -320 72 -320 286c0 213 159 285 374 332l169 38
c73 17 99 42 99 84c0 101 -92 129 -173 129c-104 0 -183 -41 -201 -157l-255 46c43 213 199 310 472 310c206 0 432 -61 432 -371v-398zM485 175c137 0 247 91 247 295l-244 -69c-80 -19 -138 -47 -138 -116c0 -74 61 -110 135 -110z" />
    <glyph glyph-name="uni1EAF" unicode="&#x1eaf;" horiz-adv-x="1123" 
d="M880 1914l-227 -268h-177l262 368zM565 1154c-215 0 -364 119 -364 351h180c0 -126 64 -216 184 -216c122 0 185 90 185 216h181c0 -232 -150 -351 -366 -351zM992 279c0 -126 12 -206 25 -251v-28h-269l-23 112c-77 -93 -210 -132 -330 -132c-162 0 -320 72 -320 286
c0 213 159 285 374 332l169 38c73 17 99 42 99 84c0 101 -92 129 -173 129c-104 0 -183 -41 -201 -157l-255 46c43 213 199 310 472 310c206 0 432 -61 432 -371v-398zM485 175c137 0 247 91 247 295l-244 -69c-80 -19 -138 -47 -138 -116c0 -74 61 -110 135 -110z" />
    <glyph glyph-name="uni1EB7" unicode="&#x1eb7;" horiz-adv-x="1123" 
d="M565 1154c-215 0 -364 119 -364 351h180c0 -126 64 -216 184 -216c122 0 185 90 185 216h181c0 -232 -150 -351 -366 -351zM992 279c0 -126 12 -206 25 -251v-28h-269l-23 112c-77 -93 -210 -132 -330 -132c-162 0 -320 72 -320 286c0 213 159 285 374 332l169 38
c73 17 99 42 99 84c0 101 -92 129 -173 129c-104 0 -183 -41 -201 -157l-255 46c43 213 199 310 472 310c206 0 432 -61 432 -371v-398zM485 175c137 0 247 91 247 295l-244 -69c-80 -19 -138 -47 -138 -116c0 -74 61 -110 135 -110zM617 -182c89 0 165 -74 165 -164
c0 -93 -76 -166 -165 -166c-91 0 -167 73 -167 166c0 90 76 164 167 164z" />
    <glyph glyph-name="uni1EB1" unicode="&#x1eb1;" horiz-adv-x="1123" 
d="M654 1646h-178l-226 268l141 100zM565 1154c-215 0 -364 119 -364 351h180c0 -126 64 -216 184 -216c122 0 185 90 185 216h181c0 -232 -150 -351 -366 -351zM992 279c0 -126 12 -206 25 -251v-28h-269l-23 112c-77 -93 -210 -132 -330 -132c-162 0 -320 72 -320 286
c0 213 159 285 374 332l169 38c73 17 99 42 99 84c0 101 -92 129 -173 129c-104 0 -183 -41 -201 -157l-255 46c43 213 199 310 472 310c206 0 432 -61 432 -371v-398zM485 175c137 0 247 91 247 295l-244 -69c-80 -19 -138 -47 -138 -116c0 -74 61 -110 135 -110z" />
    <glyph glyph-name="uni1EB3" unicode="&#x1eb3;" horiz-adv-x="1123" 
d="M547 1887c-29 0 -59 -12 -86 -39l-67 97c41 34 97 57 169 57c124 0 196 -71 196 -175c0 -97 -59 -136 -126 -157v-84h-128v135c75 14 111 47 111 97c0 39 -22 69 -69 69zM565 1154c-215 0 -364 119 -364 351h180c0 -126 64 -216 184 -216c122 0 185 90 185 216h181
c0 -232 -150 -351 -366 -351zM992 279c0 -126 12 -206 25 -251v-28h-269l-23 112c-77 -93 -210 -132 -330 -132c-162 0 -320 72 -320 286c0 213 159 285 374 332l169 38c73 17 99 42 99 84c0 101 -92 129 -173 129c-104 0 -183 -41 -201 -157l-255 46
c43 213 199 310 472 310c206 0 432 -61 432 -371v-398zM485 175c137 0 247 91 247 295l-244 -69c-80 -19 -138 -47 -138 -116c0 -74 61 -110 135 -110z" />
    <glyph glyph-name="uni1EB5" unicode="&#x1eb5;" horiz-adv-x="1123" 
d="M465 1780c-47 0 -70 -54 -70 -128h-137c0 152 76 262 202 262c79 0 139 -44 175 -103c14 -22 30 -38 60 -38c47 0 67 50 67 128h138c0 -148 -71 -262 -202 -262c-75 0 -133 35 -176 102c-18 28 -35 39 -57 39zM565 1154c-215 0 -364 119 -364 351h180
c0 -126 64 -216 184 -216c122 0 185 90 185 216h181c0 -232 -150 -351 -366 -351zM992 279c0 -126 12 -206 25 -251v-28h-269l-23 112c-77 -93 -210 -132 -330 -132c-162 0 -320 72 -320 286c0 213 159 285 374 332l169 38c73 17 99 42 99 84c0 101 -92 129 -173 129
c-104 0 -183 -41 -201 -157l-255 46c43 213 199 310 472 310c206 0 432 -61 432 -371v-398zM485 175c137 0 247 91 247 295l-244 -69c-80 -19 -138 -47 -138 -116c0 -74 61 -110 135 -110z" />
    <glyph glyph-name="uni01CE" unicode="&#x1ce;" horiz-adv-x="1123" 
d="M652 1206h-174l-227 299h177l137 -167l136 167h178zM992 279c0 -126 12 -206 25 -251v-28h-269l-23 112c-77 -93 -210 -132 -330 -132c-162 0 -320 72 -320 286c0 213 159 285 374 332l169 38c73 17 99 42 99 84c0 101 -92 129 -173 129c-104 0 -183 -41 -201 -157
l-255 46c43 213 199 310 472 310c206 0 432 -61 432 -371v-398zM485 175c137 0 247 91 247 295l-244 -69c-80 -19 -138 -47 -138 -116c0 -74 61 -110 135 -110z" />
    <glyph glyph-name="acircumflex" unicode="&#xe2;" horiz-adv-x="1123" 
d="M564 1372l-136 -166h-177l227 299h173l227 -299h-177zM992 279c0 -126 12 -206 25 -251v-28h-269l-23 112c-77 -93 -210 -132 -330 -132c-162 0 -320 72 -320 286c0 213 159 285 374 332l169 38c73 17 99 42 99 84c0 101 -92 129 -173 129c-104 0 -183 -41 -201 -157
l-255 46c43 213 199 310 472 310c206 0 432 -61 432 -371v-398zM485 175c137 0 247 91 247 295l-244 -69c-80 -19 -138 -47 -138 -116c0 -74 61 -110 135 -110z" />
    <glyph glyph-name="uni1EA5" unicode="&#x1ea5;" horiz-adv-x="1123" 
d="M879 1914l-227 -268h-177l262 368zM564 1372l-136 -166h-177l227 299h173l227 -299h-177zM992 279c0 -126 12 -206 25 -251v-28h-269l-23 112c-77 -93 -210 -132 -330 -132c-162 0 -320 72 -320 286c0 213 159 285 374 332l169 38c73 17 99 42 99 84
c0 101 -92 129 -173 129c-104 0 -183 -41 -201 -157l-255 46c43 213 199 310 472 310c206 0 432 -61 432 -371v-398zM485 175c137 0 247 91 247 295l-244 -69c-80 -19 -138 -47 -138 -116c0 -74 61 -110 135 -110z" />
    <glyph glyph-name="uni1EAD" unicode="&#x1ead;" horiz-adv-x="1123" 
d="M564 1372l-136 -166h-177l227 299h173l227 -299h-177zM992 279c0 -126 12 -206 25 -251v-28h-269l-23 112c-77 -93 -210 -132 -330 -132c-162 0 -320 72 -320 286c0 213 159 285 374 332l169 38c73 17 99 42 99 84c0 101 -92 129 -173 129c-104 0 -183 -41 -201 -157
l-255 46c43 213 199 310 472 310c206 0 432 -61 432 -371v-398zM485 175c137 0 247 91 247 295l-244 -69c-80 -19 -138 -47 -138 -116c0 -74 61 -110 135 -110zM617 -182c89 0 165 -74 165 -164c0 -93 -76 -166 -165 -166c-91 0 -167 73 -167 166c0 90 76 164 167 164z" />
    <glyph glyph-name="uni1EA7" unicode="&#x1ea7;" horiz-adv-x="1123" 
d="M653 1646h-178l-226 268l141 100zM478 1505h173l227 -299h-177l-137 166l-136 -166h-177zM992 279c0 -126 12 -206 25 -251v-28h-269l-23 112c-77 -93 -210 -132 -330 -132c-162 0 -320 72 -320 286c0 213 159 285 374 332l169 38c73 17 99 42 99 84
c0 101 -92 129 -173 129c-104 0 -183 -41 -201 -157l-255 46c43 213 199 310 472 310c206 0 432 -61 432 -371v-398zM485 175c137 0 247 91 247 295l-244 -69c-80 -19 -138 -47 -138 -116c0 -74 61 -110 135 -110z" />
    <glyph glyph-name="uni1EA9" unicode="&#x1ea9;" horiz-adv-x="1123" 
d="M546 1887c-29 0 -59 -12 -86 -39l-67 97c41 34 97 57 169 57c124 0 196 -71 196 -175c0 -97 -59 -136 -126 -157v-84h-128v135c75 14 111 47 111 97c0 39 -22 69 -69 69zM564 1372l-136 -166h-177l227 299h173l227 -299h-177zM992 279c0 -126 12 -206 25 -251v-28h-269
l-23 112c-77 -93 -210 -132 -330 -132c-162 0 -320 72 -320 286c0 213 159 285 374 332l169 38c73 17 99 42 99 84c0 101 -92 129 -173 129c-104 0 -183 -41 -201 -157l-255 46c43 213 199 310 472 310c206 0 432 -61 432 -371v-398zM485 175c137 0 247 91 247 295l-244 -69
c-80 -19 -138 -47 -138 -116c0 -74 61 -110 135 -110z" />
    <glyph glyph-name="uni1EAB" unicode="&#x1eab;" horiz-adv-x="1123" 
d="M464 1780c-47 0 -70 -54 -70 -128h-137c0 152 76 262 202 262c79 0 139 -44 175 -103c14 -22 30 -38 60 -38c47 0 67 50 67 128h138c0 -148 -71 -262 -202 -262c-75 0 -133 35 -176 102c-18 28 -35 39 -57 39zM564 1372l-136 -166h-177l227 299h173l227 -299h-177z
M992 279c0 -126 12 -206 25 -251v-28h-269l-23 112c-77 -93 -210 -132 -330 -132c-162 0 -320 72 -320 286c0 213 159 285 374 332l169 38c73 17 99 42 99 84c0 101 -92 129 -173 129c-104 0 -183 -41 -201 -157l-255 46c43 213 199 310 472 310c206 0 432 -61 432 -371
v-398zM485 175c137 0 247 91 247 295l-244 -69c-80 -19 -138 -47 -138 -116c0 -74 61 -110 135 -110z" />
    <glyph glyph-name="adieresis" unicode="&#xe4;" horiz-adv-x="1123" 
d="M350 1182c-91 0 -167 74 -167 166c0 91 76 165 167 165c89 0 165 -74 165 -165c0 -92 -76 -166 -165 -166zM781 1182c-92 0 -167 74 -167 166c0 91 75 165 167 165c89 0 165 -74 165 -165c0 -92 -76 -166 -165 -166zM992 279c0 -126 12 -206 25 -251v-28h-269l-23 112
c-77 -93 -210 -132 -330 -132c-162 0 -320 72 -320 286c0 213 159 285 374 332l169 38c73 17 99 42 99 84c0 101 -92 129 -173 129c-104 0 -183 -41 -201 -157l-255 46c43 213 199 310 472 310c206 0 432 -61 432 -371v-398zM485 175c137 0 247 91 247 295l-244 -69
c-80 -19 -138 -47 -138 -116c0 -74 61 -110 135 -110z" />
    <glyph glyph-name="uni1EA1" unicode="&#x1ea1;" horiz-adv-x="1123" 
d="M992 279c0 -126 12 -206 25 -251v-28h-269l-23 112c-77 -93 -210 -132 -330 -132c-162 0 -320 72 -320 286c0 213 159 285 374 332l169 38c73 17 99 42 99 84c0 101 -92 129 -173 129c-104 0 -183 -41 -201 -157l-255 46c43 213 199 310 472 310c206 0 432 -61 432 -371
v-398zM485 175c137 0 247 91 247 295l-244 -69c-80 -19 -138 -47 -138 -116c0 -74 61 -110 135 -110zM617 -182c89 0 165 -74 165 -164c0 -93 -76 -166 -165 -166c-91 0 -167 73 -167 166c0 90 76 164 167 164z" />
    <glyph glyph-name="agrave" unicode="&#xe0;" horiz-adv-x="1123" 
d="M654 1169h-178l-226 268l141 100zM992 279c0 -126 12 -206 25 -251v-28h-269l-23 112c-77 -93 -210 -132 -330 -132c-162 0 -320 72 -320 286c0 213 159 285 374 332l169 38c73 17 99 42 99 84c0 101 -92 129 -173 129c-104 0 -183 -41 -201 -157l-255 46
c43 213 199 310 472 310c206 0 432 -61 432 -371v-398zM485 175c137 0 247 91 247 295l-244 -69c-80 -19 -138 -47 -138 -116c0 -74 61 -110 135 -110z" />
    <glyph glyph-name="uni1EA3" unicode="&#x1ea3;" horiz-adv-x="1123" 
d="M547 1410c-29 0 -59 -12 -86 -39l-67 97c41 34 97 57 169 57c124 0 196 -71 196 -175c0 -97 -59 -136 -126 -157v-84h-128v135c75 14 111 47 111 97c0 39 -22 69 -69 69zM992 279c0 -126 12 -206 25 -251v-28h-269l-23 112c-77 -93 -210 -132 -330 -132
c-162 0 -320 72 -320 286c0 213 159 285 374 332l169 38c73 17 99 42 99 84c0 101 -92 129 -173 129c-104 0 -183 -41 -201 -157l-255 46c43 213 199 310 472 310c206 0 432 -61 432 -371v-398zM485 175c137 0 247 91 247 295l-244 -69c-80 -19 -138 -47 -138 -116
c0 -74 61 -110 135 -110z" />
    <glyph glyph-name="amacron" unicode="&#x101;" horiz-adv-x="1123" 
d="M897 1367v-170h-664v170h664zM992 279c0 -126 12 -206 25 -251v-28h-269l-23 112c-77 -93 -210 -132 -330 -132c-162 0 -320 72 -320 286c0 213 159 285 374 332l169 38c73 17 99 42 99 84c0 101 -92 129 -173 129c-104 0 -183 -41 -201 -157l-255 46
c43 213 199 310 472 310c206 0 432 -61 432 -371v-398zM485 175c137 0 247 91 247 295l-244 -69c-80 -19 -138 -47 -138 -116c0 -74 61 -110 135 -110z" />
    <glyph glyph-name="aogonek" unicode="&#x105;" horiz-adv-x="1123" 
d="M1017 0c-70 -63 -172 -165 -172 -220c0 -25 21 -36 60 -36c37 0 85 16 112 40v-182c-41 -17 -93 -27 -144 -27c-110 0 -193 36 -193 109c0 86 105 210 217 316h-149l-23 112c-77 -93 -210 -132 -330 -132c-162 0 -320 72 -320 286c0 213 159 285 374 332l169 38
c73 17 99 42 99 84c0 101 -92 129 -173 129c-104 0 -183 -41 -201 -157l-255 46c43 213 199 310 472 310c206 0 432 -61 432 -371v-398c0 -126 12 -206 25 -251v-28zM485 175c137 0 247 91 247 295l-244 -69c-80 -19 -138 -47 -138 -116c0 -74 61 -110 135 -110z" />
    <glyph glyph-name="aring" unicode="&#xe5;" horiz-adv-x="1123" 
d="M565 1140c-133 0 -241 109 -241 241c0 129 108 237 241 237c130 0 237 -108 237 -237c0 -132 -107 -241 -237 -241zM565 1501c-66 0 -116 -57 -116 -120c0 -71 50 -119 116 -119s118 48 118 119c0 63 -52 120 -118 120zM992 279c0 -126 12 -206 25 -251v-28h-269l-23 112
c-77 -93 -210 -132 -330 -132c-162 0 -320 72 -320 286c0 213 159 285 374 332l169 38c73 17 99 42 99 84c0 101 -92 129 -173 129c-104 0 -183 -41 -201 -157l-255 46c43 213 199 310 472 310c206 0 432 -61 432 -371v-398zM485 175c137 0 247 91 247 295l-244 -69
c-80 -19 -138 -47 -138 -116c0 -74 61 -110 135 -110z" />
    <glyph glyph-name="atilde" unicode="&#xe3;" horiz-adv-x="1123" 
d="M465 1303c-47 0 -70 -54 -70 -128h-137c0 152 76 262 202 262c79 0 139 -44 175 -103c14 -22 30 -38 60 -38c47 0 67 50 67 128h138c0 -148 -71 -262 -202 -262c-75 0 -133 35 -176 102c-18 28 -35 39 -57 39zM992 279c0 -126 12 -206 25 -251v-28h-269l-23 112
c-77 -93 -210 -132 -330 -132c-162 0 -320 72 -320 286c0 213 159 285 374 332l169 38c73 17 99 42 99 84c0 101 -92 129 -173 129c-104 0 -183 -41 -201 -157l-255 46c43 213 199 310 472 310c206 0 432 -61 432 -371v-398zM485 175c137 0 247 91 247 295l-244 -69
c-80 -19 -138 -47 -138 -116c0 -74 61 -110 135 -110z" />
    <glyph glyph-name="ae" unicode="&#xe6;" horiz-adv-x="1817" 
d="M1748 529l-3 -77h-761c15 -165 127 -245 264 -245c101 0 181 48 221 139l264 -39c-71 -213 -252 -327 -492 -327c-177 0 -323 60 -418 169h-4c-117 -119 -256 -169 -409 -169c-181 0 -333 77 -333 280c0 228 194 291 398 332l145 29c73 16 99 45 99 92
c0 105 -91 136 -177 136c-104 0 -185 -44 -199 -171l-257 42c40 226 195 328 475 328c124 0 249 -22 329 -105c92 70 213 107 351 107c289 0 506 -161 507 -521zM1233 849c-120 0 -212 -60 -241 -198h472c-16 128 -99 198 -231 198zM491 203c90 0 182 52 231 136
c-11 37 -18 78 -21 120l-190 -43c-98 -20 -152 -51 -152 -115c0 -67 58 -98 132 -98z" />
    <glyph glyph-name="b" unicode="b" horiz-adv-x="1315" 
d="M753 1048c270 0 494 -200 494 -536s-224 -536 -494 -536c-142 0 -266 57 -324 158l-7 -134h-273v1536h288v-633c60 93 180 145 316 145zM686 215c153 0 273 113 273 297c0 185 -120 298 -273 298c-152 0 -272 -118 -272 -298s119 -297 272 -297z" />
    <glyph glyph-name="c" unicode="c" horiz-adv-x="1175" 
d="M614 -19c-323 0 -551 215 -551 534c0 320 228 533 551 533c260 0 455 -135 505 -378l-266 -29c-32 123 -121 180 -242 180c-155 0 -260 -122 -260 -306c0 -183 105 -306 260 -306c121 0 210 58 242 180l266 -29c-50 -243 -250 -379 -505 -379z" />
    <glyph glyph-name="cacute" unicode="&#x107;" horiz-adv-x="1175" 
d="M511 1169l262 368l142 -100l-227 -268h-177zM614 -19c-323 0 -551 215 -551 534c0 320 228 533 551 533c260 0 455 -135 505 -378l-266 -29c-32 123 -121 180 -242 180c-155 0 -260 -122 -260 -306c0 -183 105 -306 260 -306c121 0 210 58 242 180l266 -29
c-50 -243 -250 -379 -505 -379z" />
    <glyph glyph-name="ccaron" unicode="&#x10d;" horiz-adv-x="1175" 
d="M513 1206l-227 299h177l137 -167l136 167h178l-227 -299h-174zM614 -19c-323 0 -551 215 -551 534c0 320 228 533 551 533c260 0 455 -135 505 -378l-266 -29c-32 123 -121 180 -242 180c-155 0 -260 -122 -260 -306c0 -183 105 -306 260 -306c121 0 210 58 242 180
l266 -29c-50 -243 -250 -379 -505 -379z" />
    <glyph glyph-name="ccedilla" unicode="&#xe7;" horiz-adv-x="1175" 
d="M611 209c121 0 210 58 242 180l266 -29c-47 -229 -227 -363 -460 -378l-60 -105c15 3 31 6 45 6c113 0 196 -79 196 -192c0 -125 -98 -223 -223 -223c-117 0 -207 67 -239 151l127 44c20 -40 65 -64 106 -64c50 0 94 36 94 92c0 60 -44 91 -96 91c-28 0 -55 -10 -74 -31
l-105 62l95 174c-275 36 -462 239 -462 528c0 320 228 533 551 533c260 0 455 -135 505 -378l-266 -29c-32 123 -121 180 -242 180c-155 0 -260 -122 -260 -306c0 -183 105 -306 260 -306z" />
    <glyph glyph-name="cdotaccent" unicode="&#x10b;" horiz-adv-x="1175" 
d="M601 1182c-91 0 -167 74 -167 166c0 91 76 165 167 165c89 0 165 -74 165 -165c0 -92 -76 -166 -165 -166zM614 -19c-323 0 -551 215 -551 534c0 320 228 533 551 533c260 0 455 -135 505 -378l-266 -29c-32 123 -121 180 -242 180c-155 0 -260 -122 -260 -306
c0 -183 105 -306 260 -306c121 0 210 58 242 180l266 -29c-50 -243 -250 -379 -505 -379z" />
    <glyph glyph-name="d" unicode="d" horiz-adv-x="1315" 
d="M878 1536h288v-1536h-273l-7 134c-59 -101 -183 -158 -323 -158c-271 0 -495 200 -495 536s225 536 495 536c135 0 254 -51 315 -144v632zM629 215c153 0 272 117 272 297s-120 298 -272 298c-153 0 -273 -113 -273 -298c0 -184 120 -297 273 -297z" />
    <glyph glyph-name="eth" unicode="&#xf0;" horiz-adv-x="1187" 
d="M999 874c89 -128 127 -246 127 -367c-2 -302 -231 -526 -529 -526c-285 0 -534 217 -534 527c0 316 196 498 444 531c20 2 43 2 70 -2l-139 191l-242 -62l-23 85l209 53l-169 232h321l115 -164l214 55l23 -85l-183 -47zM606 238c156 0 252 113 251 280
c-1 158 -103 281 -255 281c-156 0 -256 -116 -256 -284c0 -166 109 -277 260 -277z" />
    <glyph glyph-name="dcaron" unicode="&#x10f;" horiz-adv-x="1540" 
d="M526 -20c-257 0 -454 201 -454 537c0 335 197 536 454 536c136 0 253 -59 330 -161l1 644h287v-1536h-288v141c-77 -102 -194 -161 -330 -161zM1286 882l126 654h296l-216 -654h-206zM629 219c150 0 265 118 265 298s-117 297 -265 297c-152 0 -269 -113 -269 -297
c0 -185 117 -298 269 -298z" />
    <glyph glyph-name="dcroat" unicode="&#x111;" horiz-adv-x="1315" 
d="M1304 1364v-176h-138v-1188h-273l-7 134c-59 -101 -183 -158 -323 -158c-271 0 -495 200 -495 536s225 536 495 536c135 0 254 -51 315 -144v284h-263v176h263v172h288v-172h138zM629 215c153 0 272 117 272 297s-120 298 -272 298c-153 0 -273 -113 -273 -298
c0 -184 120 -297 273 -297z" />
    <glyph glyph-name="e" unicode="e" horiz-adv-x="1186" 
d="M1116 529l-3 -69h-762c12 -171 126 -253 263 -253c103 0 183 48 222 139l264 -39c-68 -208 -253 -327 -484 -327c-332 0 -549 196 -549 534s223 536 540 536c291 0 508 -161 509 -521zM609 846c-131 0 -222 -61 -250 -198h472c-15 131 -104 198 -222 198z" />
    <glyph glyph-name="eacute" unicode="&#xe9;" horiz-adv-x="1186" 
d="M931 1440l-227 -268h-177l262 368zM1116 529l-3 -69h-762c12 -171 126 -253 263 -253c103 0 183 48 222 139l264 -39c-68 -208 -253 -327 -484 -327c-332 0 -549 196 -549 534s223 536 540 536c291 0 508 -161 509 -521zM609 846c-131 0 -222 -61 -250 -198h472
c-15 131 -104 198 -222 198z" />
    <glyph glyph-name="ecaron" unicode="&#x11b;" horiz-adv-x="1186" 
d="M703 1209h-174l-227 299h177l137 -167l136 167h178zM1116 529l-3 -69h-762c12 -171 126 -253 263 -253c103 0 183 48 222 139l264 -39c-68 -208 -253 -327 -484 -327c-332 0 -549 196 -549 534s223 536 540 536c291 0 508 -161 509 -521zM609 846
c-131 0 -222 -61 -250 -198h472c-15 131 -104 198 -222 198z" />
    <glyph glyph-name="ecircumflex" unicode="&#xea;" horiz-adv-x="1186" 
d="M615 1375l-136 -166h-177l227 299h173l227 -299h-177zM1116 529l-3 -69h-762c12 -171 126 -253 263 -253c103 0 183 48 222 139l264 -39c-68 -208 -253 -327 -484 -327c-332 0 -549 196 -549 534s223 536 540 536c291 0 508 -161 509 -521zM609 846
c-131 0 -222 -61 -250 -198h472c-15 131 -104 198 -222 198z" />
    <glyph glyph-name="uni1EBF" unicode="&#x1ebf;" horiz-adv-x="1186" 
d="M930 1917l-227 -268h-177l262 368zM615 1375l-136 -166h-177l227 299h173l227 -299h-177zM1116 529l-3 -69h-762c12 -171 126 -253 263 -253c103 0 183 48 222 139l264 -39c-68 -208 -253 -327 -484 -327c-332 0 -549 196 -549 534s223 536 540 536
c291 0 508 -161 509 -521zM609 846c-131 0 -222 -61 -250 -198h472c-15 131 -104 198 -222 198z" />
    <glyph glyph-name="uni1EC7" unicode="&#x1ec7;" horiz-adv-x="1186" 
d="M615 1375l-136 -166h-177l227 299h173l227 -299h-177zM1116 529l-3 -69h-762c12 -171 126 -253 263 -253c103 0 183 48 222 139l264 -39c-68 -208 -253 -327 -484 -327c-332 0 -549 196 -549 534s223 536 540 536c291 0 508 -161 509 -521zM609 846
c-131 0 -222 -61 -250 -198h472c-15 131 -104 198 -222 198zM629 -183c89 0 165 -74 165 -164c0 -93 -76 -166 -165 -166c-91 0 -167 73 -167 166c0 90 76 164 167 164z" />
    <glyph glyph-name="uni1EC1" unicode="&#x1ec1;" horiz-adv-x="1186" 
d="M704 1649h-178l-226 268l141 100zM529 1508h173l227 -299h-177l-137 166l-136 -166h-177zM1116 529l-3 -69h-762c12 -171 126 -253 263 -253c103 0 183 48 222 139l264 -39c-68 -208 -253 -327 -484 -327c-332 0 -549 196 -549 534s223 536 540 536
c291 0 508 -161 509 -521zM609 846c-131 0 -222 -61 -250 -198h472c-15 131 -104 198 -222 198z" />
    <glyph glyph-name="uni1EC3" unicode="&#x1ec3;" horiz-adv-x="1186" 
d="M597 1890c-29 0 -59 -12 -86 -39l-67 97c41 34 97 57 169 57c124 0 196 -71 196 -175c0 -97 -59 -136 -126 -157v-84h-128v135c75 14 111 47 111 97c0 39 -22 69 -69 69zM615 1375l-136 -166h-177l227 299h173l227 -299h-177zM1116 529l-3 -69h-762
c12 -171 126 -253 263 -253c103 0 183 48 222 139l264 -39c-68 -208 -253 -327 -484 -327c-332 0 -549 196 -549 534s223 536 540 536c291 0 508 -161 509 -521zM609 846c-131 0 -222 -61 -250 -198h472c-15 131 -104 198 -222 198z" />
    <glyph glyph-name="uni1EC5" unicode="&#x1ec5;" horiz-adv-x="1186" 
d="M515 1783c-47 0 -70 -54 -70 -128h-137c0 152 76 262 202 262c79 0 139 -44 175 -103c14 -22 30 -38 60 -38c47 0 67 50 67 128h138c0 -148 -71 -262 -202 -262c-75 0 -133 35 -176 102c-18 28 -35 39 -57 39zM615 1375l-136 -166h-177l227 299h173l227 -299h-177z
M1116 529l-3 -69h-762c12 -171 126 -253 263 -253c103 0 183 48 222 139l264 -39c-68 -208 -253 -327 -484 -327c-332 0 -549 196 -549 534s223 536 540 536c291 0 508 -161 509 -521zM609 846c-131 0 -222 -61 -250 -198h472c-15 131 -104 198 -222 198z" />
    <glyph glyph-name="edieresis" unicode="&#xeb;" horiz-adv-x="1186" 
d="M401 1185c-91 0 -167 74 -167 166c0 91 76 165 167 165c89 0 165 -74 165 -165c0 -92 -76 -166 -165 -166zM832 1185c-92 0 -167 74 -167 166c0 91 75 165 167 165c89 0 165 -74 165 -165c0 -92 -76 -166 -165 -166zM1116 529l-3 -69h-762c12 -171 126 -253 263 -253
c103 0 183 48 222 139l264 -39c-68 -208 -253 -327 -484 -327c-332 0 -549 196 -549 534s223 536 540 536c291 0 508 -161 509 -521zM609 846c-131 0 -222 -61 -250 -198h472c-15 131 -104 198 -222 198z" />
    <glyph glyph-name="edotaccent" unicode="&#x117;" horiz-adv-x="1186" 
d="M617 1185c-91 0 -167 74 -167 166c0 91 76 165 167 165c89 0 165 -74 165 -165c0 -92 -76 -166 -165 -166zM1116 529l-3 -69h-762c12 -171 126 -253 263 -253c103 0 183 48 222 139l264 -39c-68 -208 -253 -327 -484 -327c-332 0 -549 196 -549 534s223 536 540 536
c291 0 508 -161 509 -521zM609 846c-131 0 -222 -61 -250 -198h472c-15 131 -104 198 -222 198z" />
    <glyph glyph-name="uni1EB9" unicode="&#x1eb9;" horiz-adv-x="1186" 
d="M1116 529l-3 -69h-762c12 -171 126 -253 263 -253c103 0 183 48 222 139l264 -39c-68 -208 -253 -327 -484 -327c-332 0 -549 196 -549 534s223 536 540 536c291 0 508 -161 509 -521zM609 846c-131 0 -222 -61 -250 -198h472c-15 131 -104 198 -222 198zM629 -183
c89 0 165 -74 165 -164c0 -93 -76 -166 -165 -166c-91 0 -167 73 -167 166c0 90 76 164 167 164z" />
    <glyph glyph-name="egrave" unicode="&#xe8;" horiz-adv-x="1186" 
d="M705 1172h-178l-226 268l141 100zM1116 529l-3 -69h-762c12 -171 126 -253 263 -253c103 0 183 48 222 139l264 -39c-68 -208 -253 -327 -484 -327c-332 0 -549 196 -549 534s223 536 540 536c291 0 508 -161 509 -521zM609 846c-131 0 -222 -61 -250 -198h472
c-15 131 -104 198 -222 198z" />
    <glyph glyph-name="uni1EBB" unicode="&#x1ebb;" horiz-adv-x="1186" 
d="M598 1413c-29 0 -59 -12 -86 -39l-67 97c41 34 97 57 169 57c124 0 196 -71 196 -175c0 -97 -59 -136 -126 -157v-84h-128v135c75 14 111 47 111 97c0 39 -22 69 -69 69zM1116 529l-3 -69h-762c12 -171 126 -253 263 -253c103 0 183 48 222 139l264 -39
c-68 -208 -253 -327 -484 -327c-332 0 -549 196 -549 534s223 536 540 536c291 0 508 -161 509 -521zM609 846c-131 0 -222 -61 -250 -198h472c-15 131 -104 198 -222 198z" />
    <glyph glyph-name="emacron" unicode="&#x113;" horiz-adv-x="1186" 
d="M948 1370v-170h-664v170h664zM1116 529l-3 -69h-762c12 -171 126 -253 263 -253c103 0 183 48 222 139l264 -39c-68 -208 -253 -327 -484 -327c-332 0 -549 196 -549 534s223 536 540 536c291 0 508 -161 509 -521zM609 846c-131 0 -222 -61 -250 -198h472
c-15 131 -104 198 -222 198z" />
    <glyph glyph-name="eogonek" unicode="&#x119;" horiz-adv-x="1186" 
d="M1116 529l-3 -69h-762c12 -171 126 -253 263 -253c103 0 183 48 222 139l264 -39c-20 -61 -50 -115 -89 -160l2 -1l-15 -13c-12 -13 -24 -25 -38 -37c-59 -58 -119 -128 -119 -170c0 -25 21 -36 60 -36c37 0 85 16 112 40v-182c-41 -17 -93 -27 -144 -27
c-110 0 -193 36 -193 109c0 47 31 105 77 165c-43 -10 -89 -15 -137 -15c-332 0 -549 196 -549 534s223 536 540 536c291 0 508 -161 509 -521zM609 846c-131 0 -222 -61 -250 -198h472c-15 131 -104 198 -222 198z" />
    <glyph glyph-name="uni1EBD" unicode="&#x1ebd;" horiz-adv-x="1186" 
d="M516 1306c-47 0 -70 -54 -70 -128h-137c0 152 76 262 202 262c79 0 139 -44 175 -103c14 -22 30 -38 60 -38c47 0 67 50 67 128h138c0 -148 -71 -262 -202 -262c-75 0 -133 35 -176 102c-18 28 -35 39 -57 39zM1116 529l-3 -69h-762c12 -171 126 -253 263 -253
c103 0 183 48 222 139l264 -39c-68 -208 -253 -327 -484 -327c-332 0 -549 196 -549 534s223 536 540 536c291 0 508 -161 509 -521zM609 846c-131 0 -222 -61 -250 -198h472c-15 131 -104 198 -222 198z" />
    <glyph glyph-name="f" unicode="f" horiz-adv-x="743" 
d="M729 1306c-95 0 -221 4 -221 -168v-110h221v-221h-221v-807h-287v807h-201v221h201v111c0 347 210 397 508 397v-230z" />
    <glyph glyph-name="g" unicode="g" horiz-adv-x="1281" 
d="M857 1028h274v-951c0 -400 -217 -562 -545 -562c-295 0 -455 124 -530 319l239 102c58 -133 142 -197 280 -197c182 0 267 114 267 317v120c-60 -82 -178 -140 -312 -140c-255 0 -469 201 -469 508c0 308 215 504 471 504c144 0 262 -64 318 -156zM604 269
c150 0 266 122 266 275c0 154 -114 276 -266 276c-151 0 -265 -117 -265 -276c0 -157 116 -275 265 -275z" />
    <glyph glyph-name="gbreve" unicode="&#x11f;" horiz-adv-x="1281" 
d="M626 1154c-215 0 -364 119 -364 351h180c0 -126 64 -216 184 -216c122 0 185 90 185 216h181c0 -232 -150 -351 -366 -351zM857 1028h274v-951c0 -400 -217 -562 -545 -562c-295 0 -455 124 -530 319l239 102c58 -133 142 -197 280 -197c182 0 267 114 267 317v120
c-60 -82 -178 -140 -312 -140c-255 0 -469 201 -469 508c0 308 215 504 471 504c144 0 262 -64 318 -156zM604 269c150 0 266 122 266 275c0 154 -114 276 -266 276c-151 0 -265 -117 -265 -276c0 -157 116 -275 265 -275z" />
    <glyph glyph-name="gcommaaccent" unicode="&#x123;" horiz-adv-x="1281" 
d="M843 1502l-125 -327h-296l215 327h206zM857 1028h274v-951c0 -400 -217 -562 -545 -562c-295 0 -455 124 -530 319l239 102c58 -133 142 -197 280 -197c182 0 267 114 267 317v120c-60 -82 -178 -140 -312 -140c-255 0 -469 201 -469 508c0 308 215 504 471 504
c144 0 262 -64 318 -156zM604 269c150 0 266 122 266 275c0 154 -114 276 -266 276c-151 0 -265 -117 -265 -276c0 -157 116 -275 265 -275z" />
    <glyph glyph-name="gdotaccent" unicode="&#x121;" horiz-adv-x="1281" 
d="M627 1182c-91 0 -167 74 -167 166c0 91 76 165 167 165c89 0 165 -74 165 -165c0 -92 -76 -166 -165 -166zM857 1028h274v-951c0 -400 -217 -562 -545 -562c-295 0 -455 124 -530 319l239 102c58 -133 142 -197 280 -197c182 0 267 114 267 317v120
c-60 -82 -178 -140 -312 -140c-255 0 -469 201 -469 508c0 308 215 504 471 504c144 0 262 -64 318 -156zM604 269c150 0 266 122 266 275c0 154 -114 276 -266 276c-151 0 -265 -117 -265 -276c0 -157 116 -275 265 -275z" />
    <glyph glyph-name="h" unicode="h" horiz-adv-x="1267" 
d="M771 1048c230 0 368 -128 368 -385v-663h-289v616c0 151 -84 201 -187 201c-107 0 -224 -53 -226 -250v-567h-288v1536h288v-631c73 89 188 143 334 143z" />
    <glyph glyph-name="hbar" unicode="&#x127;" horiz-adv-x="1267" 
d="M771 1048c230 0 368 -128 368 -385v-663h-289v616c0 151 -84 201 -187 201c-107 0 -224 -53 -226 -250v-567h-288v1189h-122v176h122v171h288v-171h279v-176h-279v-284c73 89 188 143 334 143z" />
    <glyph glyph-name="i" unicode="i" horiz-adv-x="588" 
d="M296 1182c-91 0 -167 74 -167 166c0 91 76 165 167 165c89 0 165 -74 165 -165c0 -92 -76 -166 -165 -166zM149 0v1028h290v-1028h-290z" />
    <glyph glyph-name="dotlessi" unicode="&#x131;" horiz-adv-x="588" 
d="M149 0v1028h290v-1028h-290z" />
    <glyph glyph-name="iacute" unicode="&#xed;" horiz-adv-x="588" 
d="M206 1169l262 368l142 -100l-227 -268h-177zM149 0v1028h290v-1028h-290z" />
    <glyph glyph-name="uni01D0" unicode="&#x1d0;" horiz-adv-x="588" 
d="M208 1206l-227 299h177l137 -167l136 167h178l-227 -299h-174zM149 0v1028h290v-1028h-290z" />
    <glyph glyph-name="icircumflex" unicode="&#xee;" horiz-adv-x="588" 
d="M158 1206h-177l227 299h173l227 -299h-177l-137 166zM149 0v1028h290v-1028h-290z" />
    <glyph glyph-name="idieresis" unicode="&#xef;" horiz-adv-x="588" 
d="M80 1182c-91 0 -167 74 -167 166c0 91 76 165 167 165c89 0 165 -74 165 -165c0 -92 -76 -166 -165 -166zM511 1182c-92 0 -167 74 -167 166c0 91 75 165 167 165c89 0 165 -74 165 -165c0 -92 -76 -166 -165 -166zM149 0v1028h290v-1028h-290z" />
    <glyph glyph-name="i.loclTRK" horiz-adv-x="588" 
d="M296 1182c-91 0 -167 74 -167 166c0 91 76 165 167 165c89 0 165 -74 165 -165c0 -92 -76 -166 -165 -166zM149 0v1028h290v-1028h-290z" />
    <glyph glyph-name="uni1ECB" unicode="&#x1ecb;" horiz-adv-x="588" 
d="M296 1182c-91 0 -167 74 -167 166c0 91 76 165 167 165c89 0 165 -74 165 -165c0 -92 -76 -166 -165 -166zM149 0v1028h290v-1028h-290zM296 -512c-91 0 -167 73 -167 166c0 90 76 164 167 164c89 0 165 -74 165 -164c0 -93 -76 -166 -165 -166z" />
    <glyph glyph-name="igrave" unicode="&#xec;" horiz-adv-x="588" 
d="M206 1169l-226 268l141 100l263 -368h-178zM149 0v1028h290v-1028h-290z" />
    <glyph glyph-name="uni1EC9" unicode="&#x1ec9;" horiz-adv-x="588" 
d="M235 1109v135c75 14 111 47 111 97c0 39 -22 69 -69 69c-29 0 -59 -12 -86 -39l-67 97c41 34 97 57 169 57c124 0 196 -71 196 -175c0 -97 -59 -136 -126 -157v-84h-128zM149 0v1028h290v-1028h-290z" />
    <glyph glyph-name="imacron" unicode="&#x12b;" horiz-adv-x="588" 
d="M-37 1197v170h664v-170h-664zM149 0v1028h290v-1028h-290z" />
    <glyph glyph-name="iogonek" unicode="&#x12f;" horiz-adv-x="588" 
d="M296 1182c-91 0 -167 74 -167 166c0 91 76 165 167 165c89 0 165 -74 165 -165c0 -92 -76 -166 -165 -166zM149 0v1028h290v-1028c-70 -63 -172 -165 -172 -220c0 -25 21 -36 60 -36c37 0 85 16 112 40v-182c-41 -17 -93 -27 -144 -27c-110 0 -193 36 -193 109
c0 86 105 210 217 316h-170z" />
    <glyph glyph-name="itilde" unicode="&#x129;" horiz-adv-x="588" 
d="M428 1162c-75 0 -133 35 -176 102c-18 28 -35 39 -57 39c-47 0 -70 -54 -70 -128h-137c0 152 76 262 202 262c79 0 139 -44 175 -103c14 -22 30 -38 60 -38c47 0 67 50 67 128h138c0 -148 -71 -262 -202 -262zM149 0v1028h290v-1028h-290z" />
    <glyph glyph-name="j" unicode="j" horiz-adv-x="591" 
d="M297 1182c-91 0 -167 74 -167 166c0 91 76 165 167 165c89 0 165 -74 165 -165c0 -92 -76 -166 -165 -166zM-61 -482v225c178 0 210 77 210 292v993h292v-993c0 -354 -140 -517 -502 -517z" />
    <glyph glyph-name="uni0237" unicode="&#x237;" horiz-adv-x="591" 
d="M-61 -482v225c178 0 210 77 210 292v993h292v-993c0 -354 -140 -517 -502 -517z" />
    <glyph glyph-name="k" unicode="k" horiz-adv-x="1179" 
d="M831 0l-331 432h-60v-432h-291v1536h291v-904h54l323 396h326l-405 -477l443 -551h-350z" />
    <glyph glyph-name="kcommaaccent" unicode="&#x137;" horiz-adv-x="1179" 
d="M738 551l443 -551h-350l-331 432h-60v-432h-291v1536h291v-904h54l323 396h326zM295 -508l168 373h251l-278 -439z" />
    <glyph glyph-name="l" unicode="l" horiz-adv-x="589" 
d="M149 0v1536h291v-1536h-291z" />
    <glyph glyph-name="lacute" unicode="&#x13a;" horiz-adv-x="589" 
d="M206 1677l262 368l142 -100l-227 -268h-177zM149 0v1536h291v-1536h-291z" />
    <glyph glyph-name="lcaron" unicode="&#x13e;" horiz-adv-x="812" 
d="M149 0v1536h290v-1536h-290zM559 882l126 654h296l-216 -654h-206z" />
    <glyph glyph-name="lcommaaccent" unicode="&#x13c;" horiz-adv-x="589" 
d="M149 0v1536h291v-1536h-291zM141 -574l-141 66l168 373h251z" />
    <glyph glyph-name="lslash" unicode="&#x142;" horiz-adv-x="589" 
d="M610 1108v-183l-170 -126v-799h-291v584l-174 -129v181l174 129v771h291v-554z" />
    <glyph glyph-name="m" unicode="m" horiz-adv-x="1860" 
d="M1367 1048c220 0 362 -112 362 -323v-725h-288v643c0 121 -76 174 -162 174c-103 0 -194 -59 -194 -237v-580h-291v640c0 123 -74 177 -165 177c-100 0 -193 -59 -193 -252v-565h-287v1028h287v-121c68 91 172 141 298 141c149 0 261 -54 315 -154
c72 103 182 154 318 154z" />
    <glyph glyph-name="n" unicode="n" horiz-adv-x="1269" 
d="M756 1048c247 0 383 -128 383 -356v-692h-289v630c0 137 -85 187 -184 187c-119 0 -227 -60 -229 -250v-567h-288v1028h288v-114c72 85 183 134 319 134z" />
    <glyph glyph-name="nacute" unicode="&#x144;" horiz-adv-x="1269" 
d="M946 1437l-227 -268h-177l262 368zM756 1048c247 0 383 -128 383 -356v-692h-289v630c0 137 -85 187 -184 187c-119 0 -227 -60 -229 -250v-567h-288v1028h288v-114c72 85 183 134 319 134z" />
    <glyph glyph-name="ncaron" unicode="&#x148;" horiz-adv-x="1269" 
d="M718 1206h-174l-227 299h177l137 -167l136 167h178zM756 1048c247 0 383 -128 383 -356v-692h-289v630c0 137 -85 187 -184 187c-119 0 -227 -60 -229 -250v-567h-288v1028h288v-114c72 85 183 134 319 134z" />
    <glyph glyph-name="ncommaaccent" unicode="&#x146;" horiz-adv-x="1269" 
d="M756 1048c247 0 383 -128 383 -356v-692h-289v630c0 137 -85 187 -184 187c-119 0 -227 -60 -229 -250v-567h-288v1028h288v-114c72 85 183 134 319 134zM337 -508l168 373h251l-278 -439z" />
    <glyph glyph-name="eng" unicode="&#x14b;" horiz-adv-x="1269" 
d="M769 1048c235 0 371 -128 371 -360v-830c0 -205 -126 -342 -339 -342h-180v203h100c73 0 130 30 130 123v788c0 137 -85 187 -187 187c-116 0 -225 -56 -227 -245v-572h-288v1028h288v-119c74 87 189 139 332 139z" />
    <glyph glyph-name="ntilde" unicode="&#xf1;" horiz-adv-x="1269" 
d="M531 1303c-47 0 -70 -54 -70 -128h-137c0 152 76 262 202 262c79 0 139 -44 175 -103c14 -22 30 -38 60 -38c47 0 67 50 67 128h138c0 -148 -71 -262 -202 -262c-75 0 -133 35 -176 102c-18 28 -35 39 -57 39zM756 1048c247 0 383 -128 383 -356v-692h-289v630
c0 137 -85 187 -184 187c-119 0 -227 -60 -229 -250v-567h-288v1028h288v-114c72 85 183 134 319 134z" />
    <glyph glyph-name="o" unicode="o" horiz-adv-x="1257" 
d="M628 -20c-327 0 -563 199 -563 535c0 334 234 533 563 533c331 0 564 -199 564 -533c0 -336 -234 -535 -564 -535zM625 209c167 0 281 122 281 306s-114 306 -281 306c-161 0 -274 -122 -274 -306s113 -306 274 -306z" />
    <glyph glyph-name="oacute" unicode="&#xf3;" horiz-adv-x="1257" 
d="M539 1168l262 368l142 -100l-227 -268h-177zM628 -20c-327 0 -563 199 -563 535c0 334 234 533 563 533c331 0 564 -199 564 -533c0 -336 -234 -535 -564 -535zM625 209c167 0 281 122 281 306s-114 306 -281 306c-161 0 -274 -122 -274 -306s113 -306 274 -306z" />
    <glyph glyph-name="uni01D2" unicode="&#x1d2;" horiz-adv-x="1257" 
d="M541 1205l-227 299h177l137 -167l136 167h178l-227 -299h-174zM628 -20c-327 0 -563 199 -563 535c0 334 234 533 563 533c331 0 564 -199 564 -533c0 -336 -234 -535 -564 -535zM625 209c167 0 281 122 281 306s-114 306 -281 306c-161 0 -274 -122 -274 -306
s113 -306 274 -306z" />
    <glyph glyph-name="ocircumflex" unicode="&#xf4;" horiz-adv-x="1257" 
d="M491 1205h-177l227 299h173l227 -299h-177l-137 166zM628 -20c-327 0 -563 199 -563 535c0 334 234 533 563 533c331 0 564 -199 564 -533c0 -336 -234 -535 -564 -535zM625 209c167 0 281 122 281 306s-114 306 -281 306c-161 0 -274 -122 -274 -306s113 -306 274 -306z
" />
    <glyph glyph-name="uni1ED1" unicode="&#x1ed1;" horiz-adv-x="1257" 
d="M538 1645l262 368l142 -100l-227 -268h-177zM491 1205h-177l227 299h173l227 -299h-177l-137 166zM628 -20c-327 0 -563 199 -563 535c0 334 234 533 563 533c331 0 564 -199 564 -533c0 -336 -234 -535 -564 -535zM625 209c167 0 281 122 281 306s-114 306 -281 306
c-161 0 -274 -122 -274 -306s113 -306 274 -306z" />
    <glyph glyph-name="uni1ED9" unicode="&#x1ed9;" horiz-adv-x="1257" 
d="M491 1205h-177l227 299h173l227 -299h-177l-137 166zM628 -20c-327 0 -563 199 -563 535c0 334 234 533 563 533c331 0 564 -199 564 -533c0 -336 -234 -535 -564 -535zM625 209c167 0 281 122 281 306s-114 306 -281 306c-161 0 -274 -122 -274 -306s113 -306 274 -306z
M629 -512c-91 0 -167 73 -167 166c0 90 76 164 167 164c89 0 165 -74 165 -164c0 -93 -76 -166 -165 -166z" />
    <glyph glyph-name="uni1ED3" unicode="&#x1ed3;" horiz-adv-x="1257" 
d="M538 1645l-226 268l141 100l263 -368h-178zM491 1205h-177l227 299h173l227 -299h-177l-137 166zM628 -20c-327 0 -563 199 -563 535c0 334 234 533 563 533c331 0 564 -199 564 -533c0 -336 -234 -535 -564 -535zM625 209c167 0 281 122 281 306s-114 306 -281 306
c-161 0 -274 -122 -274 -306s113 -306 274 -306z" />
    <glyph glyph-name="uni1ED5" unicode="&#x1ed5;" horiz-adv-x="1257" 
d="M567 1585v135c75 14 111 47 111 97c0 39 -22 69 -69 69c-29 0 -59 -12 -86 -39l-67 97c41 34 97 57 169 57c124 0 196 -71 196 -175c0 -97 -59 -136 -126 -157v-84h-128zM491 1205h-177l227 299h173l227 -299h-177l-137 166zM628 -20c-327 0 -563 199 -563 535
c0 334 234 533 563 533c331 0 564 -199 564 -533c0 -336 -234 -535 -564 -535zM625 209c167 0 281 122 281 306s-114 306 -281 306c-161 0 -274 -122 -274 -306s113 -306 274 -306z" />
    <glyph glyph-name="uni1ED7" unicode="&#x1ed7;" horiz-adv-x="1257" 
d="M760 1638c-75 0 -133 35 -176 102c-18 28 -35 39 -57 39c-47 0 -70 -54 -70 -128h-137c0 152 76 262 202 262c79 0 139 -44 175 -103c14 -22 30 -38 60 -38c47 0 67 50 67 128h138c0 -148 -71 -262 -202 -262zM491 1205h-177l227 299h173l227 -299h-177l-137 166z
M628 -20c-327 0 -563 199 -563 535c0 334 234 533 563 533c331 0 564 -199 564 -533c0 -336 -234 -535 -564 -535zM625 209c167 0 281 122 281 306s-114 306 -281 306c-161 0 -274 -122 -274 -306s113 -306 274 -306z" />
    <glyph glyph-name="odieresis" unicode="&#xf6;" horiz-adv-x="1257" 
d="M413 1181c-91 0 -167 74 -167 166c0 91 76 165 167 165c89 0 165 -74 165 -165c0 -92 -76 -166 -165 -166zM844 1181c-92 0 -167 74 -167 166c0 91 75 165 167 165c89 0 165 -74 165 -165c0 -92 -76 -166 -165 -166zM628 -20c-327 0 -563 199 -563 535
c0 334 234 533 563 533c331 0 564 -199 564 -533c0 -336 -234 -535 -564 -535zM625 209c167 0 281 122 281 306s-114 306 -281 306c-161 0 -274 -122 -274 -306s113 -306 274 -306z" />
    <glyph glyph-name="uni1ECD" unicode="&#x1ecd;" horiz-adv-x="1257" 
d="M628 -20c-327 0 -563 199 -563 535c0 334 234 533 563 533c331 0 564 -199 564 -533c0 -336 -234 -535 -564 -535zM625 209c167 0 281 122 281 306s-114 306 -281 306c-161 0 -274 -122 -274 -306s113 -306 274 -306zM629 -512c-91 0 -167 73 -167 166
c0 90 76 164 167 164c89 0 165 -74 165 -164c0 -93 -76 -166 -165 -166z" />
    <glyph glyph-name="ograve" unicode="&#xf2;" horiz-adv-x="1257" 
d="M539 1168l-226 268l141 100l263 -368h-178zM628 -20c-327 0 -563 199 -563 535c0 334 234 533 563 533c331 0 564 -199 564 -533c0 -336 -234 -535 -564 -535zM625 209c167 0 281 122 281 306s-114 306 -281 306c-161 0 -274 -122 -274 -306s113 -306 274 -306z" />
    <glyph glyph-name="uni1ECF" unicode="&#x1ecf;" horiz-adv-x="1257" 
d="M568 1108v135c75 14 111 47 111 97c0 39 -22 69 -69 69c-29 0 -59 -12 -86 -39l-67 97c41 34 97 57 169 57c124 0 196 -71 196 -175c0 -97 -59 -136 -126 -157v-84h-128zM628 -20c-327 0 -563 199 -563 535c0 334 234 533 563 533c331 0 564 -199 564 -533
c0 -336 -234 -535 -564 -535zM625 209c167 0 281 122 281 306s-114 306 -281 306c-161 0 -274 -122 -274 -306s113 -306 274 -306z" />
    <glyph glyph-name="ohorn" unicode="&#x1a1;" horiz-adv-x="1257" 
d="M1143 1192h141v-166c0 -165 -74 -222 -161 -230c44 -78 69 -172 69 -281c0 -336 -234 -535 -564 -535c-327 0 -563 199 -563 535c0 334 234 533 563 533c151 0 281 -41 378 -118c16 -3 30 -5 41 -5c73 0 96 34 96 140v127zM625 209c167 0 281 122 281 306
s-114 306 -281 306c-161 0 -274 -122 -274 -306s113 -306 274 -306z" />
    <glyph glyph-name="uni1EDB" unicode="&#x1edb;" horiz-adv-x="1257" 
d="M943 1436l-227 -268h-177l262 368zM1143 1192h141v-166c0 -165 -74 -222 -161 -230c44 -78 69 -172 69 -281c0 -336 -234 -535 -564 -535c-327 0 -563 199 -563 535c0 334 234 533 563 533c151 0 281 -41 378 -118c16 -3 30 -5 41 -5c73 0 96 34 96 140v127zM625 209
c167 0 281 122 281 306s-114 306 -281 306c-161 0 -274 -122 -274 -306s113 -306 274 -306z" />
    <glyph glyph-name="uni1EE3" unicode="&#x1ee3;" horiz-adv-x="1257" 
d="M1143 1192h141v-166c0 -165 -74 -222 -161 -230c44 -78 69 -172 69 -281c0 -336 -234 -535 -564 -535c-327 0 -563 199 -563 535c0 334 234 533 563 533c151 0 281 -41 378 -118c16 -3 30 -5 41 -5c73 0 96 34 96 140v127zM625 209c167 0 281 122 281 306
s-114 306 -281 306c-161 0 -274 -122 -274 -306s113 -306 274 -306zM629 -182c89 0 165 -74 165 -164c0 -93 -76 -166 -165 -166c-91 0 -167 73 -167 166c0 90 76 164 167 164z" />
    <glyph glyph-name="uni1EDD" unicode="&#x1edd;" horiz-adv-x="1257" 
d="M717 1168h-178l-226 268l141 100zM1143 1192h141v-166c0 -165 -74 -222 -161 -230c44 -78 69 -172 69 -281c0 -336 -234 -535 -564 -535c-327 0 -563 199 -563 535c0 334 234 533 563 533c151 0 281 -41 378 -118c16 -3 30 -5 41 -5c73 0 96 34 96 140v127zM625 209
c167 0 281 122 281 306s-114 306 -281 306c-161 0 -274 -122 -274 -306s113 -306 274 -306z" />
    <glyph glyph-name="uni1EDF" unicode="&#x1edf;" horiz-adv-x="1257" 
d="M610 1409c-29 0 -59 -12 -86 -39l-67 97c41 34 97 57 169 57c124 0 196 -71 196 -175c0 -97 -59 -136 -126 -157v-84h-128v135c75 14 111 47 111 97c0 39 -22 69 -69 69zM1143 1192h141v-166c0 -165 -74 -222 -161 -230c44 -78 69 -172 69 -281
c0 -336 -234 -535 -564 -535c-327 0 -563 199 -563 535c0 334 234 533 563 533c151 0 281 -41 378 -118c16 -3 30 -5 41 -5c73 0 96 34 96 140v127zM625 209c167 0 281 122 281 306s-114 306 -281 306c-161 0 -274 -122 -274 -306s113 -306 274 -306z" />
    <glyph glyph-name="uni1EE1" unicode="&#x1ee1;" horiz-adv-x="1257" 
d="M528 1302c-47 0 -70 -54 -70 -128h-137c0 152 76 262 202 262c79 0 139 -44 175 -103c14 -22 30 -38 60 -38c47 0 67 50 67 128h138c0 -148 -71 -262 -202 -262c-75 0 -133 35 -176 102c-18 28 -35 39 -57 39zM1143 1192h141v-166c0 -165 -74 -222 -161 -230
c44 -78 69 -172 69 -281c0 -336 -234 -535 -564 -535c-327 0 -563 199 -563 535c0 334 234 533 563 533c151 0 281 -41 378 -118c16 -3 30 -5 41 -5c73 0 96 34 96 140v127zM625 209c167 0 281 122 281 306s-114 306 -281 306c-161 0 -274 -122 -274 -306s113 -306 274 -306
z" />
    <glyph glyph-name="ohungarumlaut" unicode="&#x151;" horiz-adv-x="1257" 
d="M350 1168l262 368l142 -100l-227 -268h-177zM727 1168l263 368l141 -100l-226 -268h-178zM628 -20c-327 0 -563 199 -563 535c0 334 234 533 563 533c331 0 564 -199 564 -533c0 -336 -234 -535 -564 -535zM625 209c167 0 281 122 281 306s-114 306 -281 306
c-161 0 -274 -122 -274 -306s113 -306 274 -306z" />
    <glyph glyph-name="omacron" unicode="&#x14d;" horiz-adv-x="1257" 
d="M296 1196v170h664v-170h-664zM628 -20c-327 0 -563 199 -563 535c0 334 234 533 563 533c331 0 564 -199 564 -533c0 -336 -234 -535 -564 -535zM625 209c167 0 281 122 281 306s-114 306 -281 306c-161 0 -274 -122 -274 -306s113 -306 274 -306z" />
    <glyph glyph-name="oslash" unicode="&#xf8;" horiz-adv-x="1257" 
d="M1001 935c120 -92 191 -235 191 -420c0 -336 -234 -535 -564 -535c-95 0 -182 17 -258 49l-89 -128l-115 69l88 126c-118 92 -189 235 -189 419c0 334 234 533 563 533c94 0 181 -16 256 -47l88 126l115 -69zM351 515c0 -79 21 -146 57 -198l335 481
c-35 15 -75 23 -118 23c-161 0 -274 -122 -274 -306zM625 209c167 0 281 122 281 306c0 79 -21 147 -59 199l-335 -482c34 -15 72 -23 113 -23z" />
    <glyph glyph-name="otilde" unicode="&#xf5;" horiz-adv-x="1257" 
d="M761 1161c-75 0 -133 35 -176 102c-18 28 -35 39 -57 39c-47 0 -70 -54 -70 -128h-137c0 152 76 262 202 262c79 0 139 -44 175 -103c14 -22 30 -38 60 -38c47 0 67 50 67 128h138c0 -148 -71 -262 -202 -262zM628 -20c-327 0 -563 199 -563 535c0 334 234 533 563 533
c331 0 564 -199 564 -533c0 -336 -234 -535 -564 -535zM625 209c167 0 281 122 281 306s-114 306 -281 306c-161 0 -274 -122 -274 -306s113 -306 274 -306z" />
    <glyph glyph-name="oe" unicode="&#x153;" horiz-adv-x="2027" 
d="M1958 529l-3 -69h-762c12 -171 126 -253 263 -253c103 0 183 48 222 139l264 -39c-68 -208 -253 -327 -484 -327c-174 0 -316 54 -412 153c-100 -99 -246 -153 -418 -153c-327 0 -563 199 -563 535c0 334 234 533 563 533c172 0 318 -54 418 -153c96 101 237 155 403 155
c291 0 508 -161 509 -521zM1451 846c-131 0 -222 -61 -250 -198h472c-15 131 -104 198 -222 198zM625 209c167 0 281 122 281 306s-114 306 -281 306c-161 0 -274 -122 -274 -306s113 -306 274 -306z" />
    <glyph glyph-name="p" unicode="p" horiz-adv-x="1315" 
d="M752 1048c271 0 495 -199 495 -536s-224 -536 -495 -536c-134 0 -254 52 -315 146v-622h-288v1528h273l8 -138c57 102 182 158 322 158zM687 215c151 0 272 110 272 297s-121 297 -272 297c-154 0 -274 -117 -274 -297s120 -297 274 -297z" />
    <glyph glyph-name="thorn" unicode="&#xfe;" horiz-adv-x="1315" 
d="M752 1048c271 0 495 -199 495 -536s-224 -536 -495 -536c-134 0 -254 52 -315 146v-622h-288v2036h288v-633c61 93 181 145 315 145zM687 215c151 0 272 110 272 297s-121 297 -272 297c-154 0 -274 -117 -274 -297s120 -297 274 -297z" />
    <glyph glyph-name="q" unicode="q" horiz-adv-x="1315" 
d="M892 1028h273v-1528h-288v620c-61 -92 -181 -144 -314 -144c-271 0 -495 199 -495 536s224 536 495 536c139 0 264 -55 322 -155zM628 215c154 0 273 117 273 297s-120 297 -273 297c-151 0 -272 -110 -272 -297s121 -297 272 -297z" />
    <glyph glyph-name="r" unicode="r" horiz-adv-x="781" 
d="M425 865c52 91 187 175 336 175v-257c-218 0 -322 -64 -322 -282v-501h-290v1028h276v-163z" />
    <glyph glyph-name="racute" unicode="&#x155;" horiz-adv-x="781" 
d="M683 1437l-227 -268h-177l262 368zM425 865c52 91 187 175 336 175v-257c-218 0 -322 -64 -322 -282v-501h-290v1028h276v-163z" />
    <glyph glyph-name="rcaron" unicode="&#x159;" horiz-adv-x="781" 
d="M455 1206h-174l-227 299h177l137 -167l136 167h178zM425 865c52 91 187 175 336 175v-257c-218 0 -322 -64 -322 -282v-501h-290v1028h276v-163z" />
    <glyph glyph-name="rcommaaccent" unicode="&#x157;" horiz-adv-x="781" 
d="M425 865c52 91 187 175 336 175v-257c-218 0 -322 -64 -322 -282v-501h-290v1028h276v-163zM-1 -508l168 373h251l-278 -439z" />
    <glyph glyph-name="s" unicode="s" horiz-adv-x="992" 
d="M511 -20c-231 0 -410 91 -447 286l241 68c31 -110 109 -153 206 -153c71 0 148 22 146 103c-1 107 -163 116 -326 174c-123 43 -241 109 -241 282c0 211 175 308 403 308c200 0 367 -76 407 -272l-223 -50c-31 96 -99 130 -183 130c-76 0 -141 -27 -141 -91
c0 -81 119 -97 248 -132c159 -43 333 -112 333 -332c0 -236 -201 -321 -423 -321z" />
    <glyph glyph-name="sacute" unicode="&#x15b;" horiz-adv-x="992" 
d="M411 1171l262 368l142 -100l-227 -268h-177zM511 -20c-231 0 -410 91 -447 286l241 68c31 -110 109 -153 206 -153c71 0 148 22 146 103c-1 107 -163 116 -326 174c-123 43 -241 109 -241 282c0 211 175 308 403 308c200 0 367 -76 407 -272l-223 -50
c-31 96 -99 130 -183 130c-76 0 -141 -27 -141 -91c0 -81 119 -97 248 -132c159 -43 333 -112 333 -332c0 -236 -201 -321 -423 -321z" />
    <glyph glyph-name="scaron" unicode="&#x161;" horiz-adv-x="992" 
d="M413 1208l-227 299h177l137 -167l136 167h178l-227 -299h-174zM511 -20c-231 0 -410 91 -447 286l241 68c31 -110 109 -153 206 -153c71 0 148 22 146 103c-1 107 -163 116 -326 174c-123 43 -241 109 -241 282c0 211 175 308 403 308c200 0 367 -76 407 -272l-223 -50
c-31 96 -99 130 -183 130c-76 0 -141 -27 -141 -91c0 -81 119 -97 248 -132c159 -43 333 -112 333 -332c0 -236 -201 -321 -423 -321z" />
    <glyph glyph-name="scedilla" unicode="&#x15f;" horiz-adv-x="992" 
d="M934 301c0 -219 -174 -308 -377 -320l-58 -103c15 3 31 6 45 6c113 0 196 -79 196 -192c0 -125 -98 -223 -223 -223c-117 0 -207 67 -239 151l127 44c20 -40 65 -64 106 -64c50 0 94 36 94 92c0 60 -44 91 -96 91c-28 0 -55 -10 -74 -31l-105 62l93 171
c-187 21 -327 111 -359 281l241 68c31 -110 109 -153 206 -153c71 0 148 22 146 103c-1 107 -163 116 -326 174c-123 43 -241 109 -241 282c0 211 175 308 403 308c200 0 367 -76 407 -272l-223 -50c-31 96 -99 130 -183 130c-76 0 -141 -27 -141 -91
c0 -81 119 -97 248 -132c159 -43 333 -112 333 -332z" />
    <glyph glyph-name="scommaaccent" unicode="&#x219;" horiz-adv-x="992" 
d="M511 -20c-231 0 -410 91 -447 286l241 68c31 -110 109 -153 206 -153c71 0 148 22 146 103c-1 107 -163 116 -326 174c-123 43 -241 109 -241 282c0 211 175 308 403 308c200 0 367 -76 407 -272l-223 -50c-31 96 -99 130 -183 130c-76 0 -141 -27 -141 -91
c0 -81 119 -97 248 -132c159 -43 333 -112 333 -332c0 -236 -201 -321 -423 -321zM347 -573l-141 66l168 373h251z" />
    <glyph glyph-name="germandbls" unicode="&#xdf;" horiz-adv-x="1289" 
d="M149 0v962c0 465 258 594 517 594c293 0 486 -168 486 -392c0 -219 -176 -238 -176 -345c0 -122 260 -116 260 -433c0 -189 -108 -386 -400 -386h-199v212h116c141 0 196 90 196 181c0 222 -241 171 -241 397c0 212 173 199 173 363c0 107 -77 176 -210 176
c-141 0 -236 -73 -236 -309v-1020h-286z" />
    <glyph glyph-name="t" unicode="t" horiz-adv-x="796" 
d="M532 0c-200 0 -314 116 -314 321v486h-202v221h65c109 0 169 42 169 196v136h260v-332h212v-221h-212v-455c0 -92 45 -133 119 -133h93v-219h-190z" />
    <glyph glyph-name="tbar" unicode="&#x167;" horiz-adv-x="796" 
d="M722 807h-212v-204h149v-176h-149v-75c0 -92 45 -133 119 -133h93v-219h-190c-200 0 -314 116 -314 321v106h-142v176h142v204h-202v221h65c109 0 169 42 169 196v136h260v-332h212v-221z" />
    <glyph glyph-name="tcaron" unicode="&#x165;" horiz-adv-x="759" 
d="M620 1200l125 653h297l-216 -653h-206zM508 0c-199 0 -313 116 -313 321v486h-203v221h66c108 0 169 42 169 196v136h259v-332h212v-221h-212v-455c0 -92 45 -133 120 -133h92v-219h-190z" />
    <glyph glyph-name="uni0163" unicode="&#x163;" horiz-adv-x="796" 
d="M629 -117c113 0 196 -79 196 -192c0 -125 -98 -223 -223 -223c-117 0 -207 67 -239 151l127 44c20 -40 65 -64 106 -64c50 0 94 36 94 92c0 60 -44 91 -96 91c-28 0 -55 -10 -74 -31l-105 62l102 187c-191 6 -299 121 -299 321v486h-202v221h65c109 0 169 42 169 196v136
h260v-332h212v-221h-212v-455c0 -92 45 -133 119 -133h93v-219h-68l-70 -123c15 3 31 6 45 6z" />
    <glyph glyph-name="uni021B" unicode="&#x21b;" horiz-adv-x="796" 
d="M532 0c-200 0 -314 116 -314 321v486h-202v221h65c109 0 169 42 169 196v136h260v-332h212v-221h-212v-455c0 -92 45 -133 119 -133h93v-219h-190zM432 -574l-141 66l168 373h251z" />
    <glyph glyph-name="u" unicode="u" horiz-adv-x="1267" 
d="M830 1028h288v-1028h-273l-7 124c-72 -91 -186 -144 -327 -144c-247 0 -383 129 -383 356v692h289v-630c0 -136 85 -186 185 -186c119 0 227 60 228 249v567z" />
    <glyph glyph-name="uacute" unicode="&#xfa;" horiz-adv-x="1267" 
d="M950 1437l-227 -268h-177l262 368zM830 1028h288v-1028h-273l-7 124c-72 -91 -186 -144 -327 -144c-247 0 -383 129 -383 356v692h289v-630c0 -136 85 -186 185 -186c119 0 227 60 228 249v567z" />
    <glyph glyph-name="uni01D4" unicode="&#x1d4;" horiz-adv-x="1267" 
d="M722 1206h-174l-227 299h177l137 -167l136 167h178zM830 1028h288v-1028h-273l-7 124c-72 -91 -186 -144 -327 -144c-247 0 -383 129 -383 356v692h289v-630c0 -136 85 -186 185 -186c119 0 227 60 228 249v567z" />
    <glyph glyph-name="ucircumflex" unicode="&#xfb;" horiz-adv-x="1267" 
d="M634 1372l-136 -166h-177l227 299h173l227 -299h-177zM830 1028h288v-1028h-273l-7 124c-72 -91 -186 -144 -327 -144c-247 0 -383 129 -383 356v692h289v-630c0 -136 85 -186 185 -186c119 0 227 60 228 249v567z" />
    <glyph glyph-name="udieresis" unicode="&#xfc;" horiz-adv-x="1267" 
d="M420 1182c-91 0 -167 74 -167 166c0 91 76 165 167 165c89 0 165 -74 165 -165c0 -92 -76 -166 -165 -166zM851 1182c-92 0 -167 74 -167 166c0 91 75 165 167 165c89 0 165 -74 165 -165c0 -92 -76 -166 -165 -166zM830 1028h288v-1028h-273l-7 124
c-72 -91 -186 -144 -327 -144c-247 0 -383 129 -383 356v692h289v-630c0 -136 85 -186 185 -186c119 0 227 60 228 249v567z" />
    <glyph glyph-name="uni01D8" unicode="&#x1d8;" horiz-adv-x="1267" 
d="M950 1901l-227 -268h-177l262 368zM420 1182c-91 0 -167 74 -167 166c0 91 76 165 167 165c89 0 165 -74 165 -165c0 -92 -76 -166 -165 -166zM684 1348c0 91 75 165 167 165c89 0 165 -74 165 -165c0 -92 -76 -166 -165 -166c-92 0 -167 74 -167 166zM830 1028h288
v-1028h-273l-7 124c-72 -91 -186 -144 -327 -144c-247 0 -383 129 -383 356v692h289v-630c0 -136 85 -186 185 -186c119 0 227 60 228 249v567z" />
    <glyph glyph-name="uni01DA" unicode="&#x1da;" horiz-adv-x="1267" 
d="M722 1670h-174l-227 299h177l137 -167l136 167h178zM420 1182c-91 0 -167 74 -167 166c0 91 76 165 167 165c89 0 165 -74 165 -165c0 -92 -76 -166 -165 -166zM684 1348c0 91 75 165 167 165c89 0 165 -74 165 -165c0 -92 -76 -166 -165 -166c-92 0 -167 74 -167 166z
M830 1028h288v-1028h-273l-7 124c-72 -91 -186 -144 -327 -144c-247 0 -383 129 -383 356v692h289v-630c0 -136 85 -186 185 -186c119 0 227 60 228 249v567z" />
    <glyph glyph-name="uni01DC" unicode="&#x1dc;" horiz-adv-x="1267" 
d="M724 1633h-178l-226 268l141 100zM420 1182c-91 0 -167 74 -167 166c0 91 76 165 167 165c89 0 165 -74 165 -165c0 -92 -76 -166 -165 -166zM851 1182c-92 0 -167 74 -167 166c0 91 75 165 167 165c89 0 165 -74 165 -165c0 -92 -76 -166 -165 -166zM830 1028h288v-1028
h-273l-7 124c-72 -91 -186 -144 -327 -144c-247 0 -383 129 -383 356v692h289v-630c0 -136 85 -186 185 -186c119 0 227 60 228 249v567z" />
    <glyph glyph-name="uni01D6" unicode="&#x1d6;" horiz-adv-x="1267" 
d="M967 1831v-170h-664v170h664zM420 1182c-91 0 -167 74 -167 166c0 91 76 165 167 165c89 0 165 -74 165 -165c0 -92 -76 -166 -165 -166zM684 1348c0 91 75 165 167 165c89 0 165 -74 165 -165c0 -92 -76 -166 -165 -166c-92 0 -167 74 -167 166zM830 1028h288v-1028
h-273l-7 124c-72 -91 -186 -144 -327 -144c-247 0 -383 129 -383 356v692h289v-630c0 -136 85 -186 185 -186c119 0 227 60 228 249v567z" />
    <glyph glyph-name="uni1EE5" unicode="&#x1ee5;" horiz-adv-x="1267" 
d="M830 1028h288v-1028h-273l-7 124c-72 -91 -186 -144 -327 -144c-247 0 -383 129 -383 356v692h289v-630c0 -136 85 -186 185 -186c119 0 227 60 228 249v567zM636 -182c89 0 165 -74 165 -164c0 -93 -76 -166 -165 -166c-91 0 -167 73 -167 166c0 90 76 164 167 164z" />
    <glyph glyph-name="ugrave" unicode="&#xf9;" horiz-adv-x="1267" 
d="M724 1169h-178l-226 268l141 100zM830 1028h288v-1028h-273l-7 124c-72 -91 -186 -144 -327 -144c-247 0 -383 129 -383 356v692h289v-630c0 -136 85 -186 185 -186c119 0 227 60 228 249v567z" />
    <glyph glyph-name="uni1EE7" unicode="&#x1ee7;" horiz-adv-x="1267" 
d="M617 1410c-29 0 -59 -12 -86 -39l-67 97c41 34 97 57 169 57c124 0 196 -71 196 -175c0 -97 -59 -136 -126 -157v-84h-128v135c75 14 111 47 111 97c0 39 -22 69 -69 69zM830 1028h288v-1028h-273l-7 124c-72 -91 -186 -144 -327 -144c-247 0 -383 129 -383 356v692h289
v-630c0 -136 85 -186 185 -186c119 0 227 60 228 249v567z" />
    <glyph glyph-name="uhorn" unicode="&#x1b0;" horiz-adv-x="1267" 
d="M1266 1198h141v-166c0 -180 -88 -231 -185 -231c-31 0 -67 6 -104 18v-819h-273l-7 124c-72 -91 -186 -144 -327 -144c-247 0 -383 129 -383 356v692h289v-630c0 -136 85 -186 185 -186c119 0 227 60 228 249v567h288v-88c20 -7 38 -9 52 -9c73 0 96 34 96 140v127z" />
    <glyph glyph-name="uni1EE9" unicode="&#x1ee9;" horiz-adv-x="1267" 
d="M950 1437l-227 -268h-177l262 368zM1266 1198h141v-166c0 -180 -88 -231 -185 -231c-31 0 -67 6 -104 18v-819h-273l-7 124c-72 -91 -186 -144 -327 -144c-247 0 -383 129 -383 356v692h289v-630c0 -136 85 -186 185 -186c119 0 227 60 228 249v567h288v-88
c20 -7 38 -9 52 -9c73 0 96 34 96 140v127z" />
    <glyph glyph-name="uni1EF1" unicode="&#x1ef1;" horiz-adv-x="1267" 
d="M1266 1198h141v-166c0 -180 -88 -231 -185 -231c-31 0 -67 6 -104 18v-819h-273l-7 124c-72 -91 -186 -144 -327 -144c-247 0 -383 129 -383 356v692h289v-630c0 -136 85 -186 185 -186c119 0 227 60 228 249v567h288v-88c20 -7 38 -9 52 -9c73 0 96 34 96 140v127z
M636 -182c89 0 165 -74 165 -164c0 -93 -76 -166 -165 -166c-91 0 -167 73 -167 166c0 90 76 164 167 164z" />
    <glyph glyph-name="uni1EEB" unicode="&#x1eeb;" horiz-adv-x="1267" 
d="M724 1169h-178l-226 268l141 100zM1266 1198h141v-166c0 -180 -88 -231 -185 -231c-31 0 -67 6 -104 18v-819h-273l-7 124c-72 -91 -186 -144 -327 -144c-247 0 -383 129 -383 356v692h289v-630c0 -136 85 -186 185 -186c119 0 227 60 228 249v567h288v-88
c20 -7 38 -9 52 -9c73 0 96 34 96 140v127z" />
    <glyph glyph-name="uni1EED" unicode="&#x1eed;" horiz-adv-x="1267" 
d="M617 1410c-29 0 -59 -12 -86 -39l-67 97c41 34 97 57 169 57c124 0 196 -71 196 -175c0 -97 -59 -136 -126 -157v-84h-128v135c75 14 111 47 111 97c0 39 -22 69 -69 69zM1266 1198h141v-166c0 -180 -88 -231 -185 -231c-31 0 -67 6 -104 18v-819h-273l-7 124
c-72 -91 -186 -144 -327 -144c-247 0 -383 129 -383 356v692h289v-630c0 -136 85 -186 185 -186c119 0 227 60 228 249v567h288v-88c20 -7 38 -9 52 -9c73 0 96 34 96 140v127z" />
    <glyph glyph-name="uni1EEF" unicode="&#x1eef;" horiz-adv-x="1267" 
d="M535 1303c-47 0 -70 -54 -70 -128h-137c0 152 76 262 202 262c79 0 139 -44 175 -103c14 -22 30 -38 60 -38c47 0 67 50 67 128h138c0 -148 -71 -262 -202 -262c-75 0 -133 35 -176 102c-18 28 -35 39 -57 39zM1266 1198h141v-166c0 -180 -88 -231 -185 -231
c-31 0 -67 6 -104 18v-819h-273l-7 124c-72 -91 -186 -144 -327 -144c-247 0 -383 129 -383 356v692h289v-630c0 -136 85 -186 185 -186c119 0 227 60 228 249v567h288v-88c20 -7 38 -9 52 -9c73 0 96 34 96 140v127z" />
    <glyph glyph-name="uhungarumlaut" unicode="&#x171;" horiz-adv-x="1267" 
d="M761 1437l-227 -268h-177l262 368zM912 1169h-178l263 368l141 -100zM830 461v567h288v-1028h-273l-7 124c-72 -91 -186 -144 -327 -144c-247 0 -383 129 -383 356v692h289v-630c0 -136 85 -186 185 -186c119 0 227 60 228 249z" />
    <glyph glyph-name="umacron" unicode="&#x16b;" horiz-adv-x="1267" 
d="M967 1367v-170h-664v170h664zM830 1028h288v-1028h-273l-7 124c-72 -91 -186 -144 -327 -144c-247 0 -383 129 -383 356v692h289v-630c0 -136 85 -186 185 -186c119 0 227 60 228 249v567z" />
    <glyph glyph-name="uogonek" unicode="&#x173;" horiz-adv-x="1267" 
d="M1118 0c-70 -63 -172 -165 -172 -220c0 -25 21 -36 60 -36c37 0 85 16 112 40v-182c-41 -17 -93 -27 -144 -27c-110 0 -193 36 -193 109c0 86 105 210 217 316h-153l-7 124c-72 -91 -186 -144 -327 -144c-247 0 -383 129 -383 356v692h289v-630c0 -136 85 -186 185 -186
c119 0 227 60 228 249v567h288v-1028z" />
    <glyph glyph-name="uring" unicode="&#x16f;" horiz-adv-x="1267" 
d="M635 1140c-133 0 -241 109 -241 241c0 129 108 237 241 237c130 0 237 -108 237 -237c0 -132 -107 -241 -237 -241zM635 1501c-66 0 -116 -57 -116 -120c0 -71 50 -119 116 -119s118 48 118 119c0 63 -52 120 -118 120zM830 1028h288v-1028h-273l-7 124
c-72 -91 -186 -144 -327 -144c-247 0 -383 129 -383 356v692h289v-630c0 -136 85 -186 185 -186c119 0 227 60 228 249v567z" />
    <glyph glyph-name="utilde" unicode="&#x169;" horiz-adv-x="1267" 
d="M535 1303c-47 0 -70 -54 -70 -128h-137c0 152 76 262 202 262c79 0 139 -44 175 -103c14 -22 30 -38 60 -38c47 0 67 50 67 128h138c0 -148 -71 -262 -202 -262c-75 0 -133 35 -176 102c-18 28 -35 39 -57 39zM830 1028h288v-1028h-273l-7 124
c-72 -91 -186 -144 -327 -144c-247 0 -383 129 -383 356v692h289v-630c0 -136 85 -186 185 -186c119 0 227 60 228 249v567z" />
    <glyph glyph-name="v" unicode="v" horiz-adv-x="1125" 
d="M818 1028h305l-438 -1028h-250l-433 1028h303l256 -703z" />
    <glyph glyph-name="w" unicode="w" horiz-adv-x="1752" 
d="M1443 1028h298l-360 -1029h-267l-238 679l-240 -679h-271l-353 1029h297l212 -669l243 669h221l242 -667z" />
    <glyph glyph-name="wacute" unicode="&#x1e83;" horiz-adv-x="1752" 
d="M1202 1437l-227 -268h-177l262 368zM1443 1028h298l-360 -1029h-267l-238 679l-240 -679h-271l-353 1029h297l212 -669l243 669h221l242 -667z" />
    <glyph glyph-name="wcircumflex" unicode="&#x175;" horiz-adv-x="1752" 
d="M886 1372l-136 -166h-177l227 299h173l227 -299h-177zM1443 1028h298l-360 -1029h-267l-238 679l-240 -679h-271l-353 1029h297l212 -669l243 669h221l242 -667z" />
    <glyph glyph-name="wdieresis" unicode="&#x1e85;" horiz-adv-x="1752" 
d="M672 1182c-91 0 -167 74 -167 166c0 91 76 165 167 165c89 0 165 -74 165 -165c0 -92 -76 -166 -165 -166zM1103 1182c-92 0 -167 74 -167 166c0 91 75 165 167 165c89 0 165 -74 165 -165c0 -92 -76 -166 -165 -166zM1443 1028h298l-360 -1029h-267l-238 679l-240 -679
h-271l-353 1029h297l212 -669l243 669h221l242 -667z" />
    <glyph glyph-name="wgrave" unicode="&#x1e81;" horiz-adv-x="1752" 
d="M976 1169h-178l-226 268l141 100zM1443 1028h298l-360 -1029h-267l-238 679l-240 -679h-271l-353 1029h297l212 -669l243 669h221l242 -667z" />
    <glyph glyph-name="x" unicode="x" horiz-adv-x="1208" 
d="M8 0l422 515l-422 513h360l236 -324l238 324h357l-423 -514l423 -514h-357l-236 322l-237 -322h-361z" />
    <glyph glyph-name="y" unicode="y" horiz-adv-x="1120" 
d="M822 1028h295l-634 -1512h-292l235 526l-423 986h314l245 -676z" />
    <glyph glyph-name="yacute" unicode="&#xfd;" horiz-adv-x="1120" 
d="M876 1437l-227 -268h-177l262 368zM822 1028h295l-634 -1512h-292l235 526l-423 986h314l245 -676z" />
    <glyph glyph-name="ycircumflex" unicode="&#x177;" horiz-adv-x="1120" 
d="M560 1372l-136 -166h-177l227 299h173l227 -299h-177zM822 1028h295l-634 -1512h-292l235 526l-423 986h314l245 -676z" />
    <glyph glyph-name="ydieresis" unicode="&#xff;" horiz-adv-x="1120" 
d="M346 1182c-91 0 -167 74 -167 166c0 91 76 165 167 165c89 0 165 -74 165 -165c0 -92 -76 -166 -165 -166zM777 1182c-92 0 -167 74 -167 166c0 91 75 165 167 165c89 0 165 -74 165 -165c0 -92 -76 -166 -165 -166zM822 1028h295l-634 -1512h-292l235 526l-423 986h314
l245 -676z" />
    <glyph glyph-name="uni1EF5" unicode="&#x1ef5;" horiz-adv-x="1120" 
d="M822 1028h295l-634 -1512h-292l235 526l-423 986h314l245 -676zM956 -182c89 0 165 -74 165 -164c0 -93 -76 -166 -165 -166c-91 0 -167 73 -167 166c0 90 76 164 167 164z" />
    <glyph glyph-name="ygrave" unicode="&#x1ef3;" horiz-adv-x="1120" 
d="M650 1169h-178l-226 268l141 100zM822 1028h295l-634 -1512h-292l235 526l-423 986h314l245 -676z" />
    <glyph glyph-name="uni1EF7" unicode="&#x1ef7;" horiz-adv-x="1120" 
d="M543 1410c-29 0 -59 -12 -86 -39l-67 97c41 34 97 57 169 57c124 0 196 -71 196 -175c0 -97 -59 -136 -126 -157v-84h-128v135c75 14 111 47 111 97c0 39 -22 69 -69 69zM822 1028h295l-634 -1512h-292l235 526l-423 986h314l245 -676z" />
    <glyph glyph-name="uni1EF9" unicode="&#x1ef9;" horiz-adv-x="1120" 
d="M461 1303c-47 0 -70 -54 -70 -128h-137c0 152 76 262 202 262c79 0 139 -44 175 -103c14 -22 30 -38 60 -38c47 0 67 50 67 128h138c0 -148 -71 -262 -202 -262c-75 0 -133 35 -176 102c-18 28 -35 39 -57 39zM822 1028h295l-634 -1512h-292l235 526l-423 986h314
l245 -676z" />
    <glyph glyph-name="z" unicode="z" horiz-adv-x="947" 
d="M899 1028l-452 -806h438v-222h-847l450 806h-415v222h826z" />
    <glyph glyph-name="zacute" unicode="&#x17a;" horiz-adv-x="947" 
d="M804 1437l-227 -268h-177l262 368zM899 1028l-452 -806h438v-222h-847l450 806h-415v222h826z" />
    <glyph glyph-name="zcaron" unicode="&#x17e;" horiz-adv-x="947" 
d="M576 1206h-174l-227 299h177l137 -167l136 167h178zM899 1028l-452 -806h438v-222h-847l450 806h-415v222h826z" />
    <glyph glyph-name="zdotaccent" unicode="&#x17c;" horiz-adv-x="947" 
d="M490 1182c-91 0 -167 74 -167 166c0 91 76 165 167 165c89 0 165 -74 165 -165c0 -92 -76 -166 -165 -166zM899 1028l-452 -806h438v-222h-847l450 806h-415v222h826z" />
    <glyph glyph-name="g.ss01" horiz-adv-x="1150" 
d="M1104 1028v-200h-141c26 -51 41 -110 41 -175c0 -243 -200 -348 -434 -348c-76 0 -146 11 -208 32c-12 -21 -18 -40 -18 -59c0 -95 140 -101 316 -120c228 -24 441 -66 441 -299c0 -237 -220 -348 -513 -348c-313 0 -495 126 -495 282c0 70 35 147 113 223
c-68 39 -113 101 -113 199c0 87 35 164 103 225c-56 60 -88 138 -88 232c0 240 207 377 442 377c55 0 107 -7 156 -21h398zM561 508c114 0 176 69 176 165c0 98 -63 170 -176 170s-178 -72 -178 -171c0 -96 63 -164 178 -164zM823 -183c0 96 -127 104 -307 123
c-43 4 -88 10 -132 17c-30 -40 -44 -76 -44 -109c0 -88 106 -143 280 -143c106 0 203 25 203 112z" />
    <glyph glyph-name="gbreve.ss01" horiz-adv-x="1150" 
d="M574 1154c-215 0 -364 119 -364 351h180c0 -126 64 -216 184 -216c122 0 185 90 185 216h181c0 -232 -150 -351 -366 -351zM1104 1028v-200h-141c26 -51 41 -110 41 -175c0 -243 -200 -348 -434 -348c-76 0 -146 11 -208 32c-12 -21 -18 -40 -18 -59
c0 -95 140 -101 316 -120c228 -24 441 -66 441 -299c0 -237 -220 -348 -513 -348c-313 0 -495 126 -495 282c0 70 35 147 113 223c-68 39 -113 101 -113 199c0 87 35 164 103 225c-56 60 -88 138 -88 232c0 240 207 377 442 377c55 0 107 -7 156 -21h398zM561 508
c114 0 176 69 176 165c0 98 -63 170 -176 170s-178 -72 -178 -171c0 -96 63 -164 178 -164zM823 -183c0 96 -127 104 -307 123c-43 4 -88 10 -132 17c-30 -40 -44 -76 -44 -109c0 -88 106 -143 280 -143c106 0 203 25 203 112z" />
    <glyph glyph-name="gcommaaccent.ss01" horiz-adv-x="1150" 
d="M791 1502l-125 -327h-296l215 327h206zM1104 1028v-200h-141c26 -51 41 -110 41 -175c0 -243 -200 -348 -434 -348c-76 0 -146 11 -208 32c-12 -21 -18 -40 -18 -59c0 -95 140 -101 316 -120c228 -24 441 -66 441 -299c0 -237 -220 -348 -513 -348
c-313 0 -495 126 -495 282c0 70 35 147 113 223c-68 39 -113 101 -113 199c0 87 35 164 103 225c-56 60 -88 138 -88 232c0 240 207 377 442 377c55 0 107 -7 156 -21h398zM561 508c114 0 176 69 176 165c0 98 -63 170 -176 170s-178 -72 -178 -171c0 -96 63 -164 178 -164z
M823 -183c0 96 -127 104 -307 123c-43 4 -88 10 -132 17c-30 -40 -44 -76 -44 -109c0 -88 106 -143 280 -143c106 0 203 25 203 112z" />
    <glyph glyph-name="gdotaccent.ss01" horiz-adv-x="1150" 
d="M575 1182c-91 0 -167 74 -167 166c0 91 76 165 167 165c89 0 165 -74 165 -165c0 -92 -76 -166 -165 -166zM1104 1028v-200h-141c26 -51 41 -110 41 -175c0 -243 -200 -348 -434 -348c-76 0 -146 11 -208 32c-12 -21 -18 -40 -18 -59c0 -95 140 -101 316 -120
c228 -24 441 -66 441 -299c0 -237 -220 -348 -513 -348c-313 0 -495 126 -495 282c0 70 35 147 113 223c-68 39 -113 101 -113 199c0 87 35 164 103 225c-56 60 -88 138 -88 232c0 240 207 377 442 377c55 0 107 -7 156 -21h398zM561 508c114 0 176 69 176 165
c0 98 -63 170 -176 170s-178 -72 -178 -171c0 -96 63 -164 178 -164zM823 -183c0 96 -127 104 -307 123c-43 4 -88 10 -132 17c-30 -40 -44 -76 -44 -109c0 -88 106 -143 280 -143c106 0 203 25 203 112z" />
    <glyph glyph-name="a.ss02" horiz-adv-x="1315" 
d="M893 1028h273v-1028h-273l-7 134c-59 -101 -183 -158 -323 -158c-271 0 -495 200 -495 536s225 536 495 536c147 0 275 -61 330 -170v150zM629 215c153 0 272 117 272 297s-120 298 -272 298c-153 0 -273 -113 -273 -298c0 -184 120 -297 273 -297z" />
    <glyph glyph-name="aacute.ss02" horiz-adv-x="1315" 
d="M973 1437l-227 -268h-177l262 368zM893 1028h273v-1028h-273l-7 134c-59 -101 -183 -158 -323 -158c-271 0 -495 200 -495 536s225 536 495 536c147 0 275 -61 330 -170v150zM629 215c153 0 272 117 272 297s-120 298 -272 298c-153 0 -273 -113 -273 -298
c0 -184 120 -297 273 -297z" />
    <glyph glyph-name="abreve.ss02" horiz-adv-x="1315" 
d="M658 1154c-215 0 -364 119 -364 351h180c0 -126 64 -216 184 -216c122 0 185 90 185 216h181c0 -232 -150 -351 -366 -351zM893 1028h273v-1028h-273l-7 134c-59 -101 -183 -158 -323 -158c-271 0 -495 200 -495 536s225 536 495 536c147 0 275 -61 330 -170v150z
M629 215c153 0 272 117 272 297s-120 298 -272 298c-153 0 -273 -113 -273 -298c0 -184 120 -297 273 -297z" />
    <glyph glyph-name="uni1EAF.ss02" horiz-adv-x="1315" 
d="M973 1914l-227 -268h-177l262 368zM658 1154c-215 0 -364 119 -364 351h180c0 -126 64 -216 184 -216c122 0 185 90 185 216h181c0 -232 -150 -351 -366 -351zM893 1028h273v-1028h-273l-7 134c-59 -101 -183 -158 -323 -158c-271 0 -495 200 -495 536s225 536 495 536
c147 0 275 -61 330 -170v150zM629 215c153 0 272 117 272 297s-120 298 -272 298c-153 0 -273 -113 -273 -298c0 -184 120 -297 273 -297z" />
    <glyph glyph-name="uni1EB7.ss02" horiz-adv-x="1315" 
d="M658 1154c-215 0 -364 119 -364 351h180c0 -126 64 -216 184 -216c122 0 185 90 185 216h181c0 -232 -150 -351 -366 -351zM893 1028h273v-1028h-273l-7 134c-59 -101 -183 -158 -323 -158c-271 0 -495 200 -495 536s225 536 495 536c147 0 275 -61 330 -170v150z
M629 215c153 0 272 117 272 297s-120 298 -272 298c-153 0 -273 -113 -273 -298c0 -184 120 -297 273 -297zM659 -182c89 0 165 -74 165 -164c0 -93 -76 -166 -165 -166c-91 0 -167 73 -167 166c0 90 76 164 167 164z" />
    <glyph glyph-name="uni1EB1.ss02" horiz-adv-x="1315" 
d="M747 1646h-178l-226 268l141 100zM658 1154c-215 0 -364 119 -364 351h180c0 -126 64 -216 184 -216c122 0 185 90 185 216h181c0 -232 -150 -351 -366 -351zM893 1028h273v-1028h-273l-7 134c-59 -101 -183 -158 -323 -158c-271 0 -495 200 -495 536s225 536 495 536
c147 0 275 -61 330 -170v150zM629 215c153 0 272 117 272 297s-120 298 -272 298c-153 0 -273 -113 -273 -298c0 -184 120 -297 273 -297z" />
    <glyph glyph-name="uni1EB3.ss02" horiz-adv-x="1315" 
d="M640 1887c-29 0 -59 -12 -86 -39l-67 97c41 34 97 57 169 57c124 0 196 -71 196 -175c0 -97 -59 -136 -126 -157v-84h-128v135c75 14 111 47 111 97c0 39 -22 69 -69 69zM658 1154c-215 0 -364 119 -364 351h180c0 -126 64 -216 184 -216c122 0 185 90 185 216h181
c0 -232 -150 -351 -366 -351zM893 1028h273v-1028h-273l-7 134c-59 -101 -183 -158 -323 -158c-271 0 -495 200 -495 536s225 536 495 536c147 0 275 -61 330 -170v150zM629 215c153 0 272 117 272 297s-120 298 -272 298c-153 0 -273 -113 -273 -298
c0 -184 120 -297 273 -297z" />
    <glyph glyph-name="uni1EB5.ss02" horiz-adv-x="1315" 
d="M558 1780c-47 0 -70 -54 -70 -128h-137c0 152 76 262 202 262c79 0 139 -44 175 -103c14 -22 30 -38 60 -38c47 0 67 50 67 128h138c0 -148 -71 -262 -202 -262c-75 0 -133 35 -176 102c-18 28 -35 39 -57 39zM658 1154c-215 0 -364 119 -364 351h180
c0 -126 64 -216 184 -216c122 0 185 90 185 216h181c0 -232 -150 -351 -366 -351zM893 1028h273v-1028h-273l-7 134c-59 -101 -183 -158 -323 -158c-271 0 -495 200 -495 536s225 536 495 536c147 0 275 -61 330 -170v150zM629 215c153 0 272 117 272 297s-120 298 -272 298
c-153 0 -273 -113 -273 -298c0 -184 120 -297 273 -297z" />
    <glyph glyph-name="uni01CE.ss02" horiz-adv-x="1315" 
d="M745 1206h-174l-227 299h177l137 -167l136 167h178zM893 1028h273v-1028h-273l-7 134c-59 -101 -183 -158 -323 -158c-271 0 -495 200 -495 536s225 536 495 536c147 0 275 -61 330 -170v150zM629 215c153 0 272 117 272 297s-120 298 -272 298
c-153 0 -273 -113 -273 -298c0 -184 120 -297 273 -297z" />
    <glyph glyph-name="acircumflex.ss02" horiz-adv-x="1315" 
d="M657 1372l-136 -166h-177l227 299h173l227 -299h-177zM893 1028h273v-1028h-273l-7 134c-59 -101 -183 -158 -323 -158c-271 0 -495 200 -495 536s225 536 495 536c147 0 275 -61 330 -170v150zM629 215c153 0 272 117 272 297s-120 298 -272 298
c-153 0 -273 -113 -273 -298c0 -184 120 -297 273 -297z" />
    <glyph glyph-name="uni1EA5.ss02" horiz-adv-x="1315" 
d="M972 1914l-227 -268h-177l262 368zM657 1372l-136 -166h-177l227 299h173l227 -299h-177zM893 1028h273v-1028h-273l-7 134c-59 -101 -183 -158 -323 -158c-271 0 -495 200 -495 536s225 536 495 536c147 0 275 -61 330 -170v150zM629 215c153 0 272 117 272 297
s-120 298 -272 298c-153 0 -273 -113 -273 -298c0 -184 120 -297 273 -297z" />
    <glyph glyph-name="uni1EAD.ss02" horiz-adv-x="1315" 
d="M657 1372l-136 -166h-177l227 299h173l227 -299h-177zM893 1028h273v-1028h-273l-7 134c-59 -101 -183 -158 -323 -158c-271 0 -495 200 -495 536s225 536 495 536c147 0 275 -61 330 -170v150zM629 215c153 0 272 117 272 297s-120 298 -272 298
c-153 0 -273 -113 -273 -298c0 -184 120 -297 273 -297zM659 -182c89 0 165 -74 165 -164c0 -93 -76 -166 -165 -166c-91 0 -167 73 -167 166c0 90 76 164 167 164z" />
    <glyph glyph-name="uni1EA7.ss02" horiz-adv-x="1315" 
d="M746 1646h-178l-226 268l141 100zM571 1505h173l227 -299h-177l-137 166l-136 -166h-177zM893 1028h273v-1028h-273l-7 134c-59 -101 -183 -158 -323 -158c-271 0 -495 200 -495 536s225 536 495 536c147 0 275 -61 330 -170v150zM629 215c153 0 272 117 272 297
s-120 298 -272 298c-153 0 -273 -113 -273 -298c0 -184 120 -297 273 -297z" />
    <glyph glyph-name="uni1EA9.ss02" horiz-adv-x="1315" 
d="M639 1887c-29 0 -59 -12 -86 -39l-67 97c41 34 97 57 169 57c124 0 196 -71 196 -175c0 -97 -59 -136 -126 -157v-84h-128v135c75 14 111 47 111 97c0 39 -22 69 -69 69zM657 1372l-136 -166h-177l227 299h173l227 -299h-177zM893 1028h273v-1028h-273l-7 134
c-59 -101 -183 -158 -323 -158c-271 0 -495 200 -495 536s225 536 495 536c147 0 275 -61 330 -170v150zM629 215c153 0 272 117 272 297s-120 298 -272 298c-153 0 -273 -113 -273 -298c0 -184 120 -297 273 -297z" />
    <glyph glyph-name="uni1EAB.ss02" horiz-adv-x="1315" 
d="M557 1780c-47 0 -70 -54 -70 -128h-137c0 152 76 262 202 262c79 0 139 -44 175 -103c14 -22 30 -38 60 -38c47 0 67 50 67 128h138c0 -148 -71 -262 -202 -262c-75 0 -133 35 -176 102c-18 28 -35 39 -57 39zM657 1372l-136 -166h-177l227 299h173l227 -299h-177z
M893 1028h273v-1028h-273l-7 134c-59 -101 -183 -158 -323 -158c-271 0 -495 200 -495 536s225 536 495 536c147 0 275 -61 330 -170v150zM629 215c153 0 272 117 272 297s-120 298 -272 298c-153 0 -273 -113 -273 -298c0 -184 120 -297 273 -297z" />
    <glyph glyph-name="adieresis.ss02" horiz-adv-x="1315" 
d="M443 1182c-91 0 -167 74 -167 166c0 91 76 165 167 165c89 0 165 -74 165 -165c0 -92 -76 -166 -165 -166zM874 1182c-92 0 -167 74 -167 166c0 91 75 165 167 165c89 0 165 -74 165 -165c0 -92 -76 -166 -165 -166zM893 1028h273v-1028h-273l-7 134
c-59 -101 -183 -158 -323 -158c-271 0 -495 200 -495 536s225 536 495 536c147 0 275 -61 330 -170v150zM629 215c153 0 272 117 272 297s-120 298 -272 298c-153 0 -273 -113 -273 -298c0 -184 120 -297 273 -297z" />
    <glyph glyph-name="uni1EA1.ss02" horiz-adv-x="1315" 
d="M893 1028h273v-1028h-273l-7 134c-59 -101 -183 -158 -323 -158c-271 0 -495 200 -495 536s225 536 495 536c147 0 275 -61 330 -170v150zM629 215c153 0 272 117 272 297s-120 298 -272 298c-153 0 -273 -113 -273 -298c0 -184 120 -297 273 -297zM659 -182
c89 0 165 -74 165 -164c0 -93 -76 -166 -165 -166c-91 0 -167 73 -167 166c0 90 76 164 167 164z" />
    <glyph glyph-name="agrave.ss02" horiz-adv-x="1315" 
d="M747 1169h-178l-226 268l141 100zM893 1028h273v-1028h-273l-7 134c-59 -101 -183 -158 -323 -158c-271 0 -495 200 -495 536s225 536 495 536c147 0 275 -61 330 -170v150zM629 215c153 0 272 117 272 297s-120 298 -272 298c-153 0 -273 -113 -273 -298
c0 -184 120 -297 273 -297z" />
    <glyph glyph-name="uni1EA3.ss02" horiz-adv-x="1315" 
d="M640 1410c-29 0 -59 -12 -86 -39l-67 97c41 34 97 57 169 57c124 0 196 -71 196 -175c0 -97 -59 -136 -126 -157v-84h-128v135c75 14 111 47 111 97c0 39 -22 69 -69 69zM893 1028h273v-1028h-273l-7 134c-59 -101 -183 -158 -323 -158c-271 0 -495 200 -495 536
s225 536 495 536c147 0 275 -61 330 -170v150zM629 215c153 0 272 117 272 297s-120 298 -272 298c-153 0 -273 -113 -273 -298c0 -184 120 -297 273 -297z" />
    <glyph glyph-name="amacron.ss02" horiz-adv-x="1315" 
d="M990 1367v-170h-664v170h664zM893 1028h273v-1028h-273l-7 134c-59 -101 -183 -158 -323 -158c-271 0 -495 200 -495 536s225 536 495 536c147 0 275 -61 330 -170v150zM629 215c153 0 272 117 272 297s-120 298 -272 298c-153 0 -273 -113 -273 -298
c0 -184 120 -297 273 -297z" />
    <glyph glyph-name="aogonek.ss02" horiz-adv-x="1315" 
d="M1166 0c-70 -63 -172 -165 -172 -220c0 -25 21 -36 60 -36c37 0 85 16 112 40v-182c-41 -17 -93 -27 -144 -27c-110 0 -193 36 -193 109c0 86 105 210 217 316h-153l-7 134c-59 -101 -183 -158 -323 -158c-271 0 -495 200 -495 536s225 536 495 536
c147 0 275 -61 330 -170v150h273v-1028zM629 215c153 0 272 117 272 297s-120 298 -272 298c-153 0 -273 -113 -273 -298c0 -184 120 -297 273 -297z" />
    <glyph glyph-name="aring.ss02" horiz-adv-x="1315" 
d="M658 1140c-133 0 -241 109 -241 241c0 129 108 237 241 237c130 0 237 -108 237 -237c0 -132 -107 -241 -237 -241zM658 1501c-66 0 -116 -57 -116 -120c0 -71 50 -119 116 -119s118 48 118 119c0 63 -52 120 -118 120zM893 1028h273v-1028h-273l-7 134
c-59 -101 -183 -158 -323 -158c-271 0 -495 200 -495 536s225 536 495 536c147 0 275 -61 330 -170v150zM629 215c153 0 272 117 272 297s-120 298 -272 298c-153 0 -273 -113 -273 -298c0 -184 120 -297 273 -297z" />
    <glyph glyph-name="atilde.ss02" horiz-adv-x="1315" 
d="M558 1303c-47 0 -70 -54 -70 -128h-137c0 152 76 262 202 262c79 0 139 -44 175 -103c14 -22 30 -38 60 -38c47 0 67 50 67 128h138c0 -148 -71 -262 -202 -262c-75 0 -133 35 -176 102c-18 28 -35 39 -57 39zM893 1028h273v-1028h-273l-7 134
c-59 -101 -183 -158 -323 -158c-271 0 -495 200 -495 536s225 536 495 536c147 0 275 -61 330 -170v150zM629 215c153 0 272 117 272 297s-120 298 -272 298c-153 0 -273 -113 -273 -298c0 -184 120 -297 273 -297z" />
    <glyph glyph-name="f_t" horiz-adv-x="1446" 
d="M221 0v807h-201v221h201v111c0 347 210 397 508 397v-230c-95 0 -221 4 -221 -168v-110h227c119 0 181 49 181 167v165h245v-332h212v-221h-212v-455c0 -92 45 -133 119 -133h88v-219h-185c-200 0 -314 116 -314 321v486h-361v-807h-287z" />
    <glyph glyph-name="t_t" horiz-adv-x="1491" 
d="M532 0c-200 0 -314 116 -314 321v486h-202v221h80c102 0 151 49 151 137v148h263v-285h281c103 0 152 49 152 137v148h262v-285h213v-221h-213v-455c0 -92 45 -133 120 -133h88v-219h-186c-199 0 -313 116 -313 321v486h-404v-455c0 -92 45 -133 119 -133h88v-219h-185z
" />
    <glyph glyph-name="ordfeminine" unicode="&#xaa;" horiz-adv-x="953" 
d="M618 1445h164v-614h-164v88c-49 -62 -122 -100 -211 -100c-169 0 -305 141 -305 319s136 320 305 320c89 0 162 -39 211 -101v88zM441 962c97 0 177 79 177 176c0 98 -80 175 -177 175s-176 -77 -176 -175c0 -97 79 -176 176 -176z" />
    <glyph glyph-name="ordmasculine" unicode="&#xba;" horiz-adv-x="875" 
d="M436 827c-190 0 -339 141 -339 319s149 320 339 320s341 -142 341 -320s-151 -319 -341 -319zM436 970c97 0 177 79 177 176c0 98 -80 176 -177 176s-176 -78 -176 -176c0 -97 79 -176 176 -176z" />
    <glyph glyph-name="uni0394" unicode="&#x394;" horiz-adv-x="1598" 
d="M954 1536l617 -1536h-1543l616 1536h310zM431 269h737l-368 957z" />
    <glyph glyph-name="uni03A9" unicode="&#x3a9;" horiz-adv-x="1776" 
d="M104 0v248h273v3c-107 104 -234 325 -234 583c0 401 298 713 749 713c483 0 741 -353 741 -711c0 -238 -110 -464 -242 -586v-2h279v-248h-670v190c168 97 307 297 307 599c0 296 -149 506 -413 506c-245 0 -426 -188 -426 -507c0 -301 146 -516 310 -598v-190h-674z" />
    <glyph glyph-name="uni03BC" unicode="&#x3bc;" horiz-adv-x="1236" 
d="M802 978h289v-978h-289v107c-71 -78 -169 -125 -278 -125c-61 0 -118 14 -169 40v-487h-210v1443h290v-568c0 -98 77 -176 174 -176c108 0 193 78 193 176v568z" />
    <glyph glyph-name="pi" unicode="&#x3c0;" horiz-adv-x="1306" 
d="M136 0c68 204 128 550 131 755c-101 0 -168 -5 -216 -19l-29 165c52 38 163 63 349 63h906l-22 -209h-152v-464c0 -136 12 -231 27 -291h-262c-26 37 -35 145 -35 276v479l-301 -1c-9 -208 -62 -583 -133 -754h-263z" />
    <glyph glyph-name="zero" unicode="0" horiz-adv-x="1223" 
d="M613 -20c-333 0 -524 244 -524 743c0 500 190 742 524 742c332 0 523 -242 523 -742c0 -499 -192 -743 -523 -743zM613 240c145 0 235 146 235 483c0 340 -93 483 -235 483c-145 0 -236 -143 -236 -483c0 -337 89 -483 236 -483z" />
    <glyph glyph-name="one" unicode="1" horiz-adv-x="1223" 
d="M572 1445h274v-1445h-287v1149l-332 -309v296z" />
    <glyph glyph-name="two" unicode="2" horiz-adv-x="1223" 
d="M503 257h616v-257h-1019v217l575 587c93 94 125 176 125 249c0 113 -71 183 -197 183c-119 0 -205 -61 -205 -233v-107l-287 29v72c0 305 194 470 490 470c278 0 483 -151 483 -416c0 -149 -64 -260 -190 -391z" />
    <glyph glyph-name="three" unicode="3" horiz-adv-x="1223" 
d="M609 -20c-365 0 -518 179 -518 536l295 13c0 -194 29 -298 223 -298c153 0 230 90 230 210c0 141 -86 210 -210 210h-56v224h52c96 0 167 75 167 180c0 107 -80 162 -189 162c-155 0 -180 -116 -180 -234l-291 14c0 307 179 468 468 468c269 0 460 -169 460 -385
c0 -157 -101 -260 -182 -296c123 -35 254 -141 254 -355c0 -272 -207 -449 -523 -449z" />
    <glyph glyph-name="four" unicode="4" horiz-adv-x="1223" 
d="M1171 531v-257h-174v-274h-288v274h-665v258l512 913h441v-914h174zM311 531h398v741z" />
    <glyph glyph-name="five" unicode="5" horiz-adv-x="1223" 
d="M583 937c376 0 555 -160 555 -456c0 -307 -205 -502 -509 -502c-281 0 -517 171 -517 456c0 23 2 47 6 72l286 13c-4 -24 -7 -45 -7 -64c0 -150 109 -213 226 -213c149 0 227 92 227 227c0 137 -76 228 -314 228h-379l60 747h853v-257h-594l-19 -251h126z" />
    <glyph glyph-name="six" unicode="6" horiz-adv-x="1223" 
d="M1143 485c2 -295 -249 -504 -536 -504c-299 0 -530 217 -530 503c0 114 37 227 128 353l450 608h327l-375 -489c22 3 44 4 66 4c247 0 468 -185 470 -475zM861 492c2 151 -102 259 -259 259c-152 0 -253 -112 -256 -255c-2 -152 96 -256 253 -256c153 0 261 103 262 252z
" />
    <glyph glyph-name="seven" unicode="7" horiz-adv-x="1223" 
d="M111 1445h1017v-222l-653 -1223h-326l655 1189h-693v256z" />
    <glyph glyph-name="eight" unicode="8" horiz-adv-x="1223" 
d="M614 -20c-299 0 -526 168 -526 446c0 172 89 301 228 371c-99 64 -163 164 -163 287c0 228 192 381 461 381c263 0 456 -153 456 -381c0 -123 -63 -223 -158 -287c137 -70 226 -199 226 -371c0 -277 -226 -446 -524 -446zM614 881c106 0 194 81 194 186
c0 103 -88 183 -194 183c-109 0 -195 -80 -195 -183c0 -105 86 -186 195 -186zM614 238c132 0 236 84 236 225c0 136 -104 221 -236 221c-135 0 -238 -85 -238 -221c0 -141 104 -225 238 -225z" />
    <glyph glyph-name="nine" unicode="9" horiz-adv-x="1223" 
d="M614 1464c299 0 531 -216 531 -503c0 -113 -37 -227 -129 -352l-450 -609h-328l374 489c-22 -3 -43 -4 -65 -4c-245 0 -467 186 -468 475c-2 296 248 504 535 504zM874 950c3 151 -95 255 -252 255c-152 0 -261 -103 -262 -252c-2 -150 102 -259 259 -259
c153 0 253 112 255 256z" />
    <glyph glyph-name="zero.subs" horiz-adv-x="783" 
d="M391 -381c-203 0 -341 193 -341 473c0 281 138 473 341 473c204 0 343 -192 343 -473c0 -280 -139 -473 -343 -473zM393 -212c97 0 168 117 168 304s-71 305 -168 305c-98 0 -169 -118 -169 -305s71 -304 169 -304z" />
    <glyph glyph-name="one.subs" horiz-adv-x="480" 
d="M203 553h158v-922h-169v762l-193 -150v162z" />
    <glyph glyph-name="two.subs" horiz-adv-x="720" 
d="M217 -235h451v-134h-631v161c397 270 448 387 448 480c0 124 -70 157 -134 154c-96 -6 -131 -79 -128 -159h-177c-4 175 132 300 315 300c172 0 288 -112 290 -276c2 -172 -124 -350 -434 -526z" />
    <glyph glyph-name="three.subs" horiz-adv-x="697" 
d="M516 137c84 -45 136 -122 136 -223c0 -163 -131 -295 -315 -295c-173 0 -309 115 -309 270h167c4 -85 70 -128 147 -128c87 0 143 53 143 146c0 91 -54 142 -152 142h-59v131h48c81 0 128 46 128 128s-47 121 -117 121c-64 0 -118 -34 -122 -127h-162
c0 160 122 263 281 263c158 0 271 -103 271 -250c0 -76 -31 -138 -85 -178z" />
    <glyph glyph-name="four.subs" horiz-adv-x="731" 
d="M688 -46v-128h-97v-195h-164v195h-423v147l365 580h222v-599h97zM144 -46h283v469z" />
    <glyph glyph-name="five.subs" horiz-adv-x="765" 
d="M382 229c239 0 331 -124 331 -297c0 -195 -144 -310 -326 -310c-177 0 -329 92 -337 290h172c8 -107 84 -150 161 -150c97 0 160 65 160 165c0 110 -58 166 -192 166h-281l95 461h514v-141h-394l-36 -184h133z" />
    <glyph glyph-name="six.subs" horiz-adv-x="707" 
d="M688 -52c3 -204 -163 -325 -336 -327s-338 112 -341 316c-1 81 32 149 76 206l304 410h202l-242 -300c10 2 21 3 33 3c155 1 301 -140 304 -308zM352 -219c91 2 173 69 171 169c-3 104 -88 166 -177 164c-91 -3 -170 -67 -168 -173c3 -103 85 -162 174 -160z" />
    <glyph glyph-name="seven.subs" horiz-adv-x="640" 
d="M18 553h631v-124l-430 -798h-197l424 763h-428v159z" />
    <glyph glyph-name="eight.subs" horiz-adv-x="729" 
d="M550 140c82 -49 133 -132 133 -233c0 -162 -135 -288 -320 -288c-182 0 -318 126 -318 288c0 101 51 184 133 233c-53 42 -78 107 -78 185c0 136 111 240 265 240c151 0 263 -104 263 -240c0 -78 -25 -143 -78 -185zM365 428c-69 0 -119 -51 -119 -120
c0 -65 50 -118 119 -118c67 0 117 53 117 118c0 69 -50 120 -117 120zM363 -232c87 0 151 71 151 157s-64 151 -151 151c-86 0 -149 -65 -149 -151s63 -157 149 -157z" />
    <glyph glyph-name="nine.subs" horiz-adv-x="708" 
d="M695 248c1 -82 -32 -149 -75 -207l-304 -410h-202l243 301c-10 -2 -22 -4 -35 -4c-154 -1 -301 141 -304 308c-3 204 163 325 337 327c172 3 338 -112 340 -315zM361 71c91 2 169 67 167 172c-2 104 -84 163 -173 160c-91 -2 -174 -69 -171 -169c3 -104 88 -166 177 -163
z" />
    <glyph glyph-name="zero.dnom" horiz-adv-x="783" 
d="M391 -12c-203 0 -341 192 -341 473c0 280 138 473 341 473c204 0 343 -193 343 -473c0 -281 -139 -473 -343 -473zM393 156c97 0 168 118 168 305s-71 304 -168 304c-98 0 -169 -117 -169 -304s71 -305 169 -305z" />
    <glyph glyph-name="one.dnom" horiz-adv-x="480" 
d="M203 922h158v-922h-169v762l-193 -151v163z" />
    <glyph glyph-name="two.dnom" horiz-adv-x="720" 
d="M217 134h451v-134h-631v161c397 270 448 387 448 480c0 124 -70 156 -134 153c-96 -6 -131 -78 -128 -159h-177c-4 175 132 301 315 301c172 0 288 -112 290 -277c2 -171 -124 -349 -434 -525z" />
    <glyph glyph-name="three.dnom" horiz-adv-x="697" 
d="M516 506c84 -45 136 -122 136 -224c0 -162 -131 -294 -315 -294c-173 0 -309 115 -309 270h167c4 -85 70 -129 147 -129c87 0 143 54 143 147c0 90 -54 141 -152 141h-59v132h48c81 0 128 45 128 128c0 81 -47 121 -117 121c-64 0 -118 -35 -122 -128l-162 1
c0 160 122 263 281 263c158 0 271 -103 271 -250c0 -77 -31 -138 -85 -178z" />
    <glyph glyph-name="four.dnom" horiz-adv-x="731" 
d="M688 323v-128h-97v-195h-164v195h-423v146l365 581h222v-599h97zM145 323h282v468z" />
    <glyph glyph-name="five.dnom" horiz-adv-x="765" 
d="M382 598c239 0 331 -124 331 -297c0 -195 -144 -310 -326 -310c-177 0 -329 92 -337 290h172c8 -108 84 -150 161 -150c97 0 160 65 160 165c0 110 -58 166 -192 166h-281l95 461h514v-142h-394l-36 -183h133z" />
    <glyph glyph-name="six.dnom" horiz-adv-x="707" 
d="M688 317c3 -204 -163 -325 -336 -327c-173 -3 -338 112 -341 315c-1 82 32 149 76 207l304 410h202l-243 -301c10 2 21 4 34 4c155 1 301 -141 304 -308zM352 150c91 2 173 69 171 169c-3 104 -88 165 -177 163c-91 -2 -170 -67 -168 -172c3 -104 85 -163 174 -160z" />
    <glyph glyph-name="seven.dnom" horiz-adv-x="640" 
d="M18 922h631v-124l-430 -798h-197l424 763h-428v159z" />
    <glyph glyph-name="eight.dnom" horiz-adv-x="729" 
d="M550 509c82 -50 133 -133 133 -234c0 -161 -135 -287 -320 -287c-182 0 -318 126 -318 287c0 101 51 184 133 234c-53 42 -78 106 -78 184c0 136 111 241 265 241c151 0 263 -105 263 -241c0 -78 -25 -142 -78 -184zM365 796c-69 0 -119 -51 -119 -119
c0 -66 50 -118 119 -118c67 0 117 52 117 118c0 68 -50 119 -117 119zM363 137c87 0 151 70 151 157c0 86 -64 150 -151 150c-86 0 -149 -64 -149 -150c0 -87 63 -157 149 -157z" />
    <glyph glyph-name="nine.dnom" horiz-adv-x="708" 
d="M695 616c1 -81 -32 -149 -75 -206l-304 -410h-202l242 300c-10 -2 -22 -3 -34 -3c-154 -2 -301 140 -304 308c-3 203 163 324 337 327c172 2 338 -112 340 -316zM361 439c91 3 169 67 167 172c-2 104 -84 163 -173 161c-91 -3 -174 -69 -171 -169
c3 -105 88 -166 177 -164z" />
    <glyph glyph-name="zero.numr" horiz-adv-x="783" 
d="M391 520c-203 0 -341 192 -341 473c0 280 138 473 341 473c204 0 343 -193 343 -473c0 -281 -139 -473 -343 -473zM393 688c97 0 168 117 168 305c0 187 -71 304 -168 304c-99 0 -169 -117 -169 -304c0 -188 70 -305 169 -305z" />
    <glyph glyph-name="one.numr" horiz-adv-x="481" 
d="M205 1445h157v-921h-170l1 761l-193 -150l-1 163z" />
    <glyph glyph-name="two.numr" horiz-adv-x="720" 
d="M219 664h449v-134h-631v160c397 271 448 388 448 481c0 124 -70 156 -134 153c-96 -6 -131 -79 -128 -159h-177c-4 175 132 301 315 301c172 0 288 -113 290 -277c2 -171 -124 -349 -432 -525z" />
    <glyph glyph-name="three.numr" horiz-adv-x="697" 
d="M514 1037c86 -44 138 -121 138 -223c0 -163 -133 -294 -314 -294c-175 0 -310 115 -310 270h177c0 -85 58 -129 134 -129c83 0 139 54 139 148c0 89 -56 140 -160 140h-44v132h33c90 0 135 45 135 129c0 77 -46 120 -110 120c-65 0 -111 -35 -111 -128l-172 1
c0 160 120 263 283 263c156 0 269 -103 269 -252c0 -76 -31 -136 -87 -177z" />
    <glyph glyph-name="four.numr" horiz-adv-x="731" 
d="M688 846v-128h-97v-194h-164v194h-423v147l365 580h222v-599h97zM144 846h283v469z" />
    <glyph glyph-name="five.numr" horiz-adv-x="765" 
d="M382 1120c239 0 331 -124 331 -297c0 -195 -144 -310 -326 -310c-177 0 -329 92 -337 290h172c8 -108 84 -150 161 -150c97 0 160 65 160 165c0 109 -58 166 -192 166h-281l95 461h514v-141h-394l-36 -184h133z" />
    <glyph glyph-name="six.numr" horiz-adv-x="707" 
d="M688 840c3 -204 -163 -324 -336 -327c-173 -2 -338 112 -341 316c-1 81 32 149 76 207l304 409h202l-242 -300c10 2 21 4 33 4c155 1 301 -141 304 -309zM352 673c91 3 173 69 171 170c-3 103 -88 165 -177 163c-91 -2 -170 -67 -168 -172c3 -104 85 -163 174 -161z" />
    <glyph glyph-name="seven.numr" horiz-adv-x="640" 
d="M18 1445h631v-123l-430 -798h-197l424 763h-428v158z" />
    <glyph glyph-name="eight.numr" horiz-adv-x="729" 
d="M550 1041c82 -50 133 -133 133 -234c0 -162 -135 -287 -320 -287c-182 0 -318 125 -318 287c0 101 51 184 133 234c-53 42 -78 106 -78 184c0 136 111 241 265 241c151 0 263 -105 263 -241c0 -78 -25 -142 -78 -184zM365 1328c-69 0 -119 -51 -119 -119
c0 -66 50 -118 119 -118c67 0 117 52 117 118c0 68 -50 119 -117 119zM363 669c87 0 151 70 151 157c0 86 -64 150 -151 150c-86 0 -149 -64 -149 -150c0 -87 63 -157 149 -157z" />
    <glyph glyph-name="nine.numr" horiz-adv-x="707" 
d="M359 1466c172 0 336 -115 336 -320c0 -80 -33 -146 -75 -202l-304 -410h-202l243 301c-11 -3 -23 -4 -37 -4c-154 0 -302 143 -302 313c0 202 167 322 341 322zM357 973c91 0 171 64 171 168c0 105 -80 165 -169 165c-91 0 -175 -65 -175 -164c0 -106 84 -169 173 -169z
" />
    <glyph glyph-name="zero.sups" horiz-adv-x="783" 
d="M391 973c-203 0 -341 193 -341 473c0 281 138 473 341 473c204 0 343 -192 343 -473c0 -280 -139 -473 -343 -473zM393 1142c97 0 168 117 168 304s-71 304 -168 304c-99 0 -169 -117 -169 -304s70 -304 169 -304z" />
    <glyph glyph-name="one.sups" horiz-adv-x="481" 
d="M205 1905h157v-922h-170l1 762l-193 -150l-1 162z" />
    <glyph glyph-name="two.sups" horiz-adv-x="720" 
d="M217 1117h451v-134h-631v161c397 270 448 387 448 480c0 124 -70 156 -134 153c-96 -5 -131 -78 -128 -158h-177c-4 174 132 300 315 300c172 0 288 -112 290 -277c2 -171 -124 -349 -434 -525z" />
    <glyph glyph-name="three.sups" horiz-adv-x="697" 
d="M514 1488c86 -44 138 -121 138 -223c0 -163 -133 -294 -314 -294c-175 0 -310 115 -310 270h177c0 -85 58 -129 134 -129c83 0 139 54 139 148c0 89 -56 140 -160 140h-44v132h33c90 0 135 45 135 130c0 76 -46 119 -110 119c-65 0 -111 -35 -111 -128l-172 1
c0 160 120 263 283 263c156 0 269 -103 269 -251c0 -76 -31 -137 -87 -178z" />
    <glyph glyph-name="four.sups" horiz-adv-x="731" 
d="M688 1306v-128h-97v-195h-164v195h-423v146l365 581h222v-599h97zM145 1306h282v468z" />
    <glyph glyph-name="five.sups" horiz-adv-x="765" 
d="M382 1581c239 0 331 -124 331 -297c0 -195 -144 -310 -326 -310c-177 0 -329 92 -337 290h172c8 -108 84 -150 161 -150c97 0 160 65 160 165c0 109 -58 166 -192 166h-281l95 461h514v-142h-394l-36 -183h133z" />
    <glyph glyph-name="six.sups" horiz-adv-x="707" 
d="M688 1300c3 -204 -163 -325 -336 -327c-173 -3 -338 112 -341 315c-1 82 32 149 76 207l304 410h202l-242 -301c10 2 21 4 33 4c155 1 301 -141 304 -308zM352 1133c91 2 173 69 171 169c-3 104 -88 166 -177 163c-91 -2 -170 -67 -168 -172c3 -104 85 -163 174 -160z
" />
    <glyph glyph-name="seven.sups" horiz-adv-x="640" 
d="M18 1905h631v-124l-430 -798h-197l424 763h-428v159z" />
    <glyph glyph-name="eight.sups" horiz-adv-x="729" 
d="M550 1492c82 -50 133 -133 133 -234c0 -161 -135 -287 -320 -287c-182 0 -318 126 -318 287c0 101 51 184 133 234c-53 42 -78 106 -78 184c0 136 111 241 265 241c151 0 263 -105 263 -241c0 -78 -25 -142 -78 -184zM365 1779c-69 0 -119 -51 -119 -119
c0 -66 50 -118 119 -118c67 0 117 52 117 118c0 68 -50 119 -117 119zM363 1120c87 0 151 70 151 157c0 86 -64 150 -151 150c-86 0 -149 -64 -149 -150c0 -87 63 -157 149 -157z" />
    <glyph glyph-name="nine.sups" horiz-adv-x="708" 
d="M695 1599c1 -81 -32 -149 -75 -206l-304 -410h-202l243 300c-11 -2 -22 -3 -35 -3c-154 -1 -301 140 -304 308c-3 203 163 325 337 327c172 2 338 -112 340 -316zM361 1422c91 3 169 67 167 173c-2 103 -84 162 -173 160c-91 -2 -174 -69 -171 -169
c3 -105 88 -166 177 -164z" />
    <glyph glyph-name="fraction" unicode="&#x2044;" horiz-adv-x="449" 
d="M-275 0l815 1445h184l-815 -1445h-184z" />
    <glyph glyph-name="onehalf" unicode="&#xbd;" horiz-adv-x="1650" 
d="M362 524h-170l1 761l-193 -150l-1 163l206 147h157v-921zM1021 1445h184l-815 -1445h-184zM1147 134h451v-134h-631v161c397 270 448 387 448 480c0 124 -70 156 -134 153c-96 -6 -131 -78 -128 -159h-177c-4 175 132 301 315 301c172 0 288 -112 290 -277
c2 -171 -124 -349 -434 -525z" />
    <glyph glyph-name="onequarter" unicode="&#xbc;" horiz-adv-x="1608" 
d="M362 524h-170l1 761l-193 -150l-1 163l206 147h157v-921zM1021 1445h184l-815 -1445h-184zM1565 323v-128h-97v-195h-164v195h-423v146l365 581h222v-599h97zM1022 323h282v468z" />
    <glyph glyph-name="threequarters" unicode="&#xbe;" horiz-adv-x="1824" 
d="M652 814c0 -163 -133 -294 -314 -294c-175 0 -310 115 -310 270h177c0 -85 58 -129 134 -129c83 0 139 54 139 148c0 89 -56 140 -160 140h-44v132h33c90 0 135 45 135 129c0 77 -46 120 -110 120c-65 0 -111 -35 -111 -128l-172 1c0 160 120 263 283 263
c156 0 269 -103 269 -252c0 -76 -31 -136 -87 -177c86 -44 138 -121 138 -223zM1237 1445h184l-815 -1445h-184zM1781 323v-128h-97v-195h-164v195h-423v146l365 581h222v-599h97zM1238 323h282v468z" />
    <glyph glyph-name="asterisk" unicode="*" horiz-adv-x="1003" 
d="M373 808l-136 82l160 197c30 37 13 68 -34 60l-254 -39v158l254 -38c47 -8 64 23 34 60l-160 199l136 79l94 -239c16 -46 54 -46 70 0l93 239l139 -79l-163 -199c-31 -37 -13 -68 35 -60l253 38v-158l-253 39c-48 8 -66 -22 -34 -60l162 -197l-139 -82l-93 238
c-16 46 -54 47 -70 0z" />
    <glyph glyph-name="backslash" unicode="\" horiz-adv-x="1219" 
d="M972 -407l-997 1943h272l996 -1943h-271z" />
    <glyph glyph-name="periodcentered" unicode="&#xb7;" horiz-adv-x="591" 
d="M296 615c-66 0 -123 53 -123 122c0 66 57 122 123 122c64 0 122 -56 122 -122c0 -69 -58 -122 -122 -122z" />
    <glyph glyph-name="bullet" unicode="&#x2022;" horiz-adv-x="920" 
d="M461 352c-174 0 -323 139 -323 321c0 173 149 322 323 322c171 0 321 -149 321 -322c0 -182 -150 -321 -321 -321z" />
    <glyph glyph-name="colon" unicode=":" horiz-adv-x="638" 
d="M317 635c-89 0 -164 75 -164 166c0 89 75 164 164 164c91 0 166 -75 166 -164c0 -91 -75 -166 -166 -166zM317 -20c-89 0 -164 74 -164 164s75 166 164 166c91 0 166 -76 166 -166s-75 -164 -166 -164z" />
    <glyph glyph-name="comma" unicode="," horiz-adv-x="672" 
d="M351 -368h-206l125 654h296z" />
    <glyph glyph-name="ellipsis" unicode="&#x2026;" horiz-adv-x="2015" 
d="M329 -20c-89 0 -164 74 -164 164s75 166 164 166c91 0 166 -76 166 -166s-75 -164 -166 -164zM1009 -20c-89 0 -164 74 -164 164s75 166 164 166c91 0 166 -76 166 -166s-75 -164 -166 -164zM1684 -20c-89 0 -164 74 -164 164s75 166 164 166c91 0 166 -76 166 -166
s-75 -164 -166 -164z" />
    <glyph glyph-name="exclam" unicode="!" horiz-adv-x="669" 
d="M217 461l-29 984h290l-29 -984h-232zM333 -20c-90 0 -164 74 -164 164c0 92 74 166 164 166c92 0 166 -74 166 -166c0 -90 -74 -164 -166 -164z" />
    <glyph glyph-name="exclamdown" unicode="&#xa1;" horiz-adv-x="669" 
d="M333 1046c92 0 166 -74 166 -164c0 -92 -74 -166 -166 -166c-90 0 -164 74 -164 166c0 90 74 164 164 164zM217 565h232l29 -984h-290z" />
    <glyph glyph-name="numbersign" unicode="#" horiz-adv-x="1567" 
d="M312 0l46 327h-280l27 202h281l57 384h-284l35 200h275l49 334h200l-45 -334h333l47 334h202l-47 -334h282l-32 -200h-278l-54 -384h279l-28 -202h-278l-50 -327h-200l47 327h-338l-45 -327h-201zM589 529h334l55 384h-337z" />
    <glyph glyph-name="period" unicode="." horiz-adv-x="660" 
d="M329 -20c-89 0 -164 74 -164 164s75 166 164 166c91 0 166 -76 166 -166s-75 -164 -166 -164z" />
    <glyph glyph-name="question" unicode="?" horiz-adv-x="1070" 
d="M414 446v108c0 134 72 191 195 252c78 39 124 100 124 210c0 142 -88 212 -207 212c-126 0 -208 -83 -208 -205c0 -27 5 -58 12 -88l-258 33c-3 26 -5 48 -5 75c0 249 183 423 455 423c266 0 466 -168 466 -443c0 -229 -131 -338 -255 -385c-57 -23 -87 -54 -87 -114v-78
h-232zM534 -20c-91 0 -165 73 -165 164c0 92 75 164 165 164c89 0 163 -72 163 -164c0 -91 -73 -164 -163 -164z" />
    <glyph glyph-name="questiondown" unicode="&#xbf;" horiz-adv-x="1070" 
d="M521 1048c91 0 165 -73 165 -164c0 -92 -75 -164 -165 -164c-89 0 -163 72 -163 164c0 91 73 164 163 164zM641 582v-108c0 -134 -72 -191 -195 -252c-78 -39 -124 -100 -124 -210c0 -142 88 -212 207 -212c126 0 208 83 208 205c0 27 -5 58 -12 88l258 -33
c3 -26 5 -48 5 -75c0 -249 -183 -423 -455 -423c-266 0 -466 168 -466 443c0 229 131 338 255 385c57 23 87 54 87 114v78h232z" />
    <glyph glyph-name="quotedbl" unicode="&#x22;" horiz-adv-x="1071" 
d="M226 793l-38 652h274l-29 -652h-207zM638 793l-29 652h272l-37 -652h-206z" />
    <glyph glyph-name="quotesingle" unicode="'" horiz-adv-x="655" 
d="M222 793l-29 652h272l-37 -652h-206z" />
    <glyph glyph-name="semicolon" unicode=";" horiz-adv-x="666" 
d="M362 635c-90 0 -165 75 -165 166c0 89 75 164 165 164c89 0 166 -75 166 -164c0 -91 -77 -166 -166 -166zM109 -368l125 654h296l-215 -654h-206z" />
    <glyph glyph-name="slash" unicode="/" horiz-adv-x="1219" 
d="M-25 -407l997 1943h271l-996 -1943h-272z" />
    <glyph glyph-name="underscore" unicode="_" horiz-adv-x="1316" 
d="M146 -241v241h1024v-241h-1024z" />
    <glyph glyph-name="braceleft" unicode="{" horiz-adv-x="688" 
d="M507 -493c-197 0 -312 121 -312 276v405c0 191 -28 209 -153 253v160c125 44 153 63 153 254v405c0 155 115 276 312 276h124v-202h-69c-58 0 -99 -36 -99 -113v-366c0 -168 -30 -279 -241 -333c211 -56 241 -167 241 -333v-370c0 -79 29 -110 99 -110h69v-202h-124z" />
    <glyph glyph-name="braceright" unicode="}" horiz-adv-x="684" 
d="M177 -493h-124v202h69c70 0 99 31 99 110v370c0 166 30 277 241 333c-211 54 -241 165 -241 333v366c0 77 -41 113 -99 113h-69v202h124c197 0 312 -121 312 -276v-405c0 -191 28 -210 153 -254v-160c-125 -44 -153 -62 -153 -253v-405c0 -155 -115 -276 -312 -276z" />
    <glyph glyph-name="bracketleft" unicode="[" horiz-adv-x="708" 
d="M149 -512v2048h517v-204h-264v-1640h264v-204h-517z" />
    <glyph glyph-name="bracketright" unicode="]" horiz-adv-x="701" 
d="M552 -512h-517v204h264v1640h-264v204h517v-2048z" />
    <glyph glyph-name="parenleft" unicode="(" horiz-adv-x="700" 
d="M516 -480c-268 194 -432 616 -432 1125c0 508 164 931 432 1125l164 -195c-199 -137 -334 -495 -334 -930c0 -437 135 -792 334 -929z" />
    <glyph glyph-name="parenright" unicode=")" horiz-adv-x="700" 
d="M184 -480l-164 196c199 137 334 492 334 929c0 435 -135 793 -334 930l164 195c268 -194 432 -617 432 -1125c0 -509 -164 -931 -432 -1125z" />
    <glyph glyph-name="emdash" unicode="&#x2014;" horiz-adv-x="2340" 
d="M146 412v241h2048v-241h-2048z" />
    <glyph glyph-name="endash" unicode="&#x2013;" horiz-adv-x="1316" 
d="M146 412v241h1024v-241h-1024z" />
    <glyph glyph-name="hyphen" unicode="-" horiz-adv-x="1009" 
d="M146 412v241h717v-241h-717z" />
    <glyph glyph-name="uni00AD" unicode="&#xad;" horiz-adv-x="1009" 
d="M146 418v248h717v-248h-717z" />
    <glyph glyph-name="guillemotleft" unicode="&#xab;" horiz-adv-x="1105" 
d="M354 275l-312 377l312 376h231l-311 -376l311 -377h-231zM818 275l-311 377l311 376h233l-311 -376l311 -377h-233z" />
    <glyph glyph-name="guillemotright" unicode="&#xbb;" horiz-adv-x="1105" 
d="M54 275l311 377l-311 376h231l312 -376l-312 -377h-231zM519 275l311 377l-311 376h232l312 -376l-312 -377h-232z" />
    <glyph glyph-name="guilsinglleft" unicode="&#x2039;" horiz-adv-x="639" 
d="M354 275l-312 377l312 376h231l-311 -376l311 -377h-231z" />
    <glyph glyph-name="guilsinglright" unicode="&#x203a;" horiz-adv-x="639" 
d="M54 275l311 377l-311 376h231l312 -376l-312 -377h-231z" />
    <glyph glyph-name="quotedblbase" unicode="&#x201e;" horiz-adv-x="1071" 
d="M321 -368h-206l125 654h296zM780 -368h-206l125 654h296z" />
    <glyph glyph-name="quotedblleft" unicode="&#x201c;" horiz-adv-x="1075" 
d="M291 1445h206l-125 -654h-296zM753 1445h206l-125 -654h-296z" />
    <glyph glyph-name="quotedblright" unicode="&#x201d;" horiz-adv-x="1074" 
d="M321 792h-206l125 654h296zM783 792h-206l125 654h296z" />
    <glyph glyph-name="quoteleft" unicode="&#x2018;" horiz-adv-x="613" 
d="M291 1445h206l-125 -654h-296z" />
    <glyph glyph-name="quoteright" unicode="&#x2019;" horiz-adv-x="612" 
d="M321 792h-206l125 654h296z" />
    <glyph glyph-name="quotesinglbase" unicode="&#x201a;" horiz-adv-x="612" 
d="M321 -368h-206l125 654h296z" />
    <glyph glyph-name="space" unicode=" " horiz-adv-x="591" 
 />
    <glyph glyph-name="cent" unicode="&#xa2;" horiz-adv-x="1145" 
d="M648 463c86 0 159 46 206 122l198 -174c-83 -102 -200 -169 -336 -186v-225h-169v230c-252 45 -428 254 -428 540s176 495 428 540v226h169v-221c136 -17 253 -84 336 -186l-198 -173c-47 75 -120 121 -206 121c-141 0 -254 -121 -254 -307s113 -307 254 -307z" />
    <glyph glyph-name="currency" unicode="&#xa4;" horiz-adv-x="1394" 
d="M325 217l-152 160l108 107c-50 78 -76 168 -76 258c0 91 26 182 77 260l-106 106l151 160l111 -111c79 51 170 77 262 77c90 0 180 -25 257 -76l109 109l155 -155l-107 -108c50 -78 75 -169 75 -261c0 -89 -25 -181 -75 -261l105 -105l-151 -160l-111 111
c-77 -50 -169 -75 -260 -75s-182 25 -261 75zM697 468c157 0 274 131 274 277c0 150 -123 272 -273 272c-153 0 -274 -126 -274 -278c0 -156 127 -271 273 -271z" />
    <glyph glyph-name="dollar" unicode="$" horiz-adv-x="1371" 
d="M1246 415c0 -289 -227 -419 -492 -434v-141h-111v141c-277 17 -492 164 -533 417l310 72c16 -138 104 -218 223 -240v389c-15 5 -30 9 -45 14c-212 65 -438 144 -438 409c0 262 206 412 483 422v129h111v-133c224 -21 431 -131 483 -376l-289 -72
c-22 119 -93 183 -194 201v-355c5 -2 11 -3 16 -5c217 -65 476 -151 476 -438zM463 1049c0 -80 76 -122 180 -157v325c-101 -12 -180 -63 -180 -168zM754 226c106 11 183 65 182 173c-1 94 -77 144 -182 183v-356z" />
    <glyph glyph-name="Euro" unicode="&#x20ac;" horiz-adv-x="1553" 
d="M893 252c144 0 247 80 305 204l256 -158c-117 -191 -315 -318 -560 -318c-306 0 -553 175 -627 518h-146v156h125c-1 23 -2 47 -2 71c0 23 1 45 2 67h-125v157h145c74 344 322 517 628 517c245 0 443 -125 560 -315l-256 -158c-60 130 -166 202 -305 202
c-148 0 -272 -66 -325 -246h403v-157h-429c-1 -21 -2 -44 -2 -67c0 -25 1 -48 2 -71h429v-156h-402c53 -179 177 -246 324 -246z" />
    <glyph glyph-name="florin" unicode="&#x192;" horiz-adv-x="1060" 
d="M132 -421l195 1227h-171l34 222h173l26 170c29 206 222 358 423 358c70 0 134 -19 157 -37l-23 -204c-27 22 -69 32 -103 32c-104 0 -178 -72 -196 -187l-21 -132h277l-35 -222h-276l-197 -1227h-263z" />
    <glyph glyph-name="sterling" unicode="&#xa3;" horiz-adv-x="1333" 
d="M137 0v173l59 12c63 14 92 55 92 122v287h-151v208h151v154c0 298 201 513 493 513c203 0 414 -111 414 -382c0 -25 -2 -48 -5 -73l-249 -56c9 37 13 70 13 96c0 120 -79 175 -179 175c-139 0 -223 -94 -223 -273v-154h285v-208h-285v-348h621v-246h-1036z" />
    <glyph glyph-name="yen" unicode="&#xa5;" horiz-adv-x="1438" 
d="M571 0v209h-343v173h343v192h-343v173h304l-446 698h332l302 -492l303 492h330l-446 -698h304v-173h-340v-192h340v-173h-340v-209h-300z" />
    <glyph glyph-name="plus" unicode="+" horiz-adv-x="1195" 
d="M489 205v386h-386v219h386v385h218v-385h385v-219h-385v-386h-218z" />
    <glyph glyph-name="minus" unicode="&#x2212;" horiz-adv-x="1325" 
d="M221 591v219h883v-219h-883z" />
    <glyph glyph-name="multiply" unicode="&#xd7;" horiz-adv-x="1074" 
d="M267 266l-156 156l271 271l-271 270l156 156l271 -270l269 270l156 -156l-271 -270l271 -271l-156 -155l-269 270z" />
    <glyph glyph-name="divide" unicode="&#xf7;" horiz-adv-x="1084" 
d="M533 930c-78 0 -148 65 -148 149c0 79 70 149 148 149c80 0 150 -70 150 -149c0 -84 -70 -149 -150 -149zM100 591v219h883v-219h-883zM533 173c-78 0 -148 65 -148 149c0 79 70 149 148 149c80 0 150 -70 150 -149c0 -84 -70 -149 -150 -149z" />
    <glyph glyph-name="equal" unicode="=" horiz-adv-x="1330" 
d="M224 814v219h883v-219h-883zM224 375v219h883v-219h-883z" />
    <glyph glyph-name="notequal" unicode="&#x2260;" horiz-adv-x="1258" 
d="M150 0l192 375h-176v219h288l113 220h-401v219h512l167 323h214l-166 -323h214v-219h-326l-113 -220h439v-219h-551l-192 -375h-214z" />
    <glyph glyph-name="greater" unicode="&#x3e;" horiz-adv-x="1344" 
d="M126 1455l1130 -567v-263l-1130 -572v246l904 457l-904 457v242z" />
    <glyph glyph-name="less" unicode="&#x3c;" horiz-adv-x="1344" 
d="M1218 1455v-242l-904 -457l904 -457v-246l-1130 572v263z" />
    <glyph glyph-name="greaterequal" unicode="&#x2265;" horiz-adv-x="1401" 
d="M148 1500l1130 -494v-263l-1130 -498v244l887 386l-887 383v242zM148 0v185h1130v-185h-1130z" />
    <glyph glyph-name="lessequal" unicode="&#x2264;" horiz-adv-x="1401" 
d="M1254 1500v-242l-887 -383l887 -386v-244l-1131 498v263zM123 0v185h1131v-185h-1131z" />
    <glyph glyph-name="plusminus" unicode="&#xb1;" horiz-adv-x="1255" 
d="M522 368v385h-385v219h385v386h219v-386h385v-219h-385v-385h-219zM126 0v219h995v-219h-995z" />
    <glyph glyph-name="approxequal" unicode="&#x2248;" horiz-adv-x="1380" 
d="M901 687c-160 0 -249 108 -296 157c-40 42 -70 53 -100 53c-86 0 -130 -81 -135 -195h-204c5 240 127 401 342 401c109 0 185 -45 267 -149c24 -29 54 -68 110 -68c73 0 123 70 130 191h201c-7 -222 -115 -390 -315 -390zM901 193c-160 0 -250 109 -296 158
c-31 34 -55 54 -100 52c-89 -4 -130 -81 -135 -194h-204c5 244 132 402 342 402c104 0 179 -45 267 -148c23 -28 54 -70 110 -70c73 0 123 68 130 193h201c-7 -221 -115 -393 -315 -393z" />
    <glyph glyph-name="asciitilde" unicode="~" horiz-adv-x="1382" 
d="M899 317c-161 0 -248 110 -296 158c-40 39 -70 53 -99 53c-93 0 -134 -97 -137 -195h-204c-10 236 121 400 346 400c123 0 192 -51 263 -147c27 -34 56 -70 109 -70c74 0 137 72 131 193h202c20 -222 -116 -392 -315 -392z" />
    <glyph glyph-name="logicalnot" unicode="&#xac;" horiz-adv-x="1678" 
d="M1222 270v525h-1112v233h1344v-758h-232z" />
    <glyph glyph-name="emptyset" unicode="&#x2205;" horiz-adv-x="1499" 
d="M750 -16c-149 0 -286 54 -392 142l-89 -89l-78 78l90 89c-89 106 -143 242 -143 392c0 338 274 612 612 612c150 0 286 -54 392 -142l89 89l78 -78l-89 -89c88 -106 143 -243 143 -392c0 -338 -275 -612 -613 -612zM443 367l536 536c-63 48 -143 75 -229 75
c-212 0 -382 -170 -382 -382c0 -86 27 -166 75 -229zM750 214c213 0 382 170 382 382c0 86 -27 166 -75 229l-536 -536c64 -48 143 -75 229 -75z" />
    <glyph glyph-name="infinity" unicode="&#x221e;" horiz-adv-x="1697" 
d="M472 263c-182 0 -313 137 -319 333c6 196 137 333 319 333c120 0 251 -70 375 -196c124 127 255 196 375 196c190 0 311 -126 317 -333c-6 -207 -127 -333 -317 -333c-120 0 -251 69 -375 195c-124 -125 -255 -195 -375 -195zM472 450c69 0 159 51 249 146
c-90 95 -180 146 -249 146c-72 0 -132 -60 -133 -146c1 -86 61 -146 133 -146zM1222 450c73 0 130 55 131 146c-1 91 -58 146 -131 146c-71 0 -159 -53 -252 -146c93 -93 181 -146 252 -146z" />
    <glyph glyph-name="integral" unicode="&#x222b;" horiz-adv-x="943" 
d="M67 -457v271c199 0 252 58 252 233v1085c0 195 146 334 338 334c73 0 170 -21 232 -82l-105 -216c-32 31 -65 47 -98 47c-56 0 -93 -40 -93 -140v-1051c0 -303 -218 -481 -526 -481z" />
    <glyph glyph-name="product" unicode="&#x220f;" horiz-adv-x="1694" 
d="M247 0v1190h-112v255h1425v-255h-113v-1190h-253v1190h-690v-1190h-257z" />
    <glyph glyph-name="summation" unicode="&#x2211;" horiz-adv-x="1413" 
d="M104 1v181l594 585l-594 585v184h1197v-222h-814l538 -547l-538 -547h814v-219h-1197z" />
    <glyph glyph-name="radical" unicode="&#x221a;" horiz-adv-x="1464" 
d="M449 0l-215 662h-153v240h323l179 -542l562 1176h263l-738 -1536h-221z" />
    <glyph glyph-name="uni00B5" unicode="&#xb5;" horiz-adv-x="1352" 
d="M933 1028h249v-1028h-249v128c-76 -91 -185 -148 -309 -148c-62 0 -120 14 -172 39v-531h-228v1540h249v-607c0 -124 98 -222 222 -222c133 0 238 98 238 222v607z" />
    <glyph glyph-name="partialdiff" unicode="&#x2202;" horiz-adv-x="1209" 
d="M339 1455c411 94 752 -274 740 -783c-10 -400 -236 -669 -556 -669c-334 0 -511 267 -376 626c116 310 380 448 636 368c-68 197 -218 308 -444 255v203zM822 672c2 38 2 75 0 111c-184 105 -357 21 -437 -218c-82 -246 24 -377 152 -377c126 0 271 154 285 484z" />
    <glyph glyph-name="percent" unicode="%" horiz-adv-x="1705" 
d="M423 791c-186 0 -336 150 -336 338c0 185 151 337 336 337c188 0 337 -153 337 -337c0 -186 -149 -338 -337 -338zM350 -1l756 1447h241l-757 -1447h-240zM423 983c85 0 146 64 146 146c0 80 -66 145 -146 145s-146 -63 -146 -145c0 -83 66 -146 146 -146zM1284 -17
c-189 0 -338 150 -338 337s151 337 338 337c185 0 335 -150 335 -337c0 -185 -150 -337 -335 -337zM1284 176c80 0 146 64 146 144s-67 146 -146 146c-83 0 -147 -63 -147 -146c0 -80 64 -144 147 -144z" />
    <glyph glyph-name="perthousand" unicode="&#x2030;" horiz-adv-x="2478" 
d="M423 791c-186 0 -336 150 -336 338c0 185 151 337 336 337c188 0 337 -153 337 -337c0 -186 -149 -338 -337 -338zM350 -1l756 1447h241l-757 -1447h-240zM423 983c85 0 146 64 146 146c0 80 -66 145 -146 145s-146 -63 -146 -145c0 -83 66 -146 146 -146zM1284 -17
c-189 0 -338 150 -338 337s151 337 338 337c185 0 335 -150 335 -337c0 -185 -150 -337 -335 -337zM2058 -17c-189 0 -339 150 -339 337s152 337 339 337c185 0 334 -150 334 -337c0 -185 -149 -337 -334 -337zM1284 176c80 0 146 64 146 144s-67 146 -146 146
c-83 0 -147 -63 -147 -146c0 -80 64 -144 147 -144zM2058 176c80 0 146 64 146 144s-67 146 -146 146c-83 0 -148 -63 -148 -146c0 -80 65 -144 148 -144z" />
    <glyph glyph-name="lozenge" unicode="&#x25ca;" horiz-adv-x="1354" 
d="M677 106l-618 617l618 618l617 -616zM678 424l298 301l-298 298l-301 -300z" />
    <glyph glyph-name="uniF8FF" unicode="&#xf8ff;" horiz-adv-x="1784" 
d="M892 0c-428 0 -778 350 -778 778c0 430 350 778 778 778c430 0 778 -348 778 -778c0 -428 -348 -778 -778 -778zM892 74c389 0 705 317 705 704c0 389 -316 705 -705 705c-387 0 -704 -316 -704 -705c0 -387 317 -704 704 -704zM1300 444c-9 0 -18 5 -24 13l-297 295
c-15 16 -15 39 -1 53l297 297c14 14 37 14 51 0c15 -15 15 -39 0 -53l-270 -271l270 -270c15 -14 13 -35 0 -51c-6 -8 -16 -13 -26 -13zM484 444c-20 0 -36 17 -36 37v594c0 21 16 37 36 37c21 0 37 -16 37 -37v-594c0 -20 -16 -37 -37 -37zM892 444c-20 0 -37 17 -37 37
v594c0 21 17 37 37 37c21 0 37 -16 37 -37v-594c0 -20 -16 -37 -37 -37zM595 741c-20 0 -37 17 -37 37c0 21 17 37 37 37h186c21 0 37 -16 37 -37c0 -20 -16 -37 -37 -37h-186z" />
    <glyph glyph-name="at" unicode="@" horiz-adv-x="1776" 
d="M891 -219c-430 0 -777 344 -777 778c0 424 332 775 778 775c444 0 776 -349 776 -776c0 -295 -160 -398 -324 -398c-109 0 -202 20 -268 116h-14c-63 -81 -160 -117 -255 -117c-135 0 -257 72 -257 214c0 154 143 208 268 236l202 47v37c0 87 -54 113 -126 113
c-76 0 -130 -26 -147 -115l-189 45c32 130 149 209 336 209c158 0 327 -59 327 -282v-214c0 -93 38 -139 127 -139c92 0 154 56 154 230c0 361 -261 627 -608 627c-354 0 -612 -274 -612 -606c0 -342 273 -614 612 -614c116 0 227 32 327 94l77 -145
c-117 -74 -259 -115 -407 -115zM852 302c71 0 186 34 186 175v61l-158 -40c-98 -26 -130 -54 -130 -109c0 -54 32 -87 102 -87z" />
    <glyph glyph-name="ampersand" unicode="&#x26;" horiz-adv-x="1582" 
d="M1484 0h-330l-95 119c-131 -87 -287 -139 -458 -139c-291 0 -509 151 -509 425c0 209 128 311 372 463l-12 15c-97 123 -130 207 -130 288c0 96 42 169 112 219c68 50 164 76 274 76c243 0 394 -123 394 -300c0 -126 -78 -228 -278 -348l261 -323c74 113 114 244 114 357
h260c0 -205 -78 -405 -209 -562zM626 1248c-22 -19 -33 -48 -33 -81c0 -48 23 -88 76 -156l23 -29c105 63 155 127 155 189c0 67 -57 108 -130 108c-39 0 -69 -11 -91 -31zM613 216c112 0 212 36 295 93l-304 382c-146 -89 -246 -151 -246 -279c0 -129 103 -196 255 -196z
" />
    <glyph glyph-name="paragraph" unicode="&#xb6;" horiz-adv-x="1192" 
d="M483 -307v1066h-40c-225 0 -364 121 -364 344c0 224 139 342 364 342h186v-1752h-146zM820 -307v1752h148v-1752h-148z" />
    <glyph glyph-name="section" unicode="&#xa7;" horiz-adv-x="1301" 
d="M1058 215c60 -57 99 -134 99 -242c0 -279 -234 -396 -500 -396c-277 0 -496 136 -536 379l251 58c24 -154 144 -235 295 -235c132 0 239 54 238 185c-1 138 -159 181 -331 231c-201 58 -409 129 -409 376c0 108 40 195 110 256c-67 55 -110 131 -110 243
c0 250 203 385 464 385c237 0 466 -98 516 -343l-236 -60c-29 140 -130 200 -267 200c-120 0 -230 -50 -230 -177c0 -116 139 -153 298 -199c207 -60 447 -133 447 -401c0 -112 -38 -198 -99 -260zM412 576c0 -117 139 -154 298 -200c44 -13 90 -26 134 -42
c39 27 62 71 61 129c-1 138 -159 180 -331 231c-22 7 -44 13 -66 20c-58 -24 -96 -69 -96 -138z" />
    <glyph glyph-name="copyright" unicode="&#xa9;" horiz-adv-x="1722" 
d="M860 -20c-409 0 -744 335 -744 745s335 745 744 745c411 0 746 -335 746 -745s-335 -745 -746 -745zM860 132c332 0 593 261 593 593c0 331 -261 592 -593 592c-330 0 -592 -261 -592 -592c0 -332 262 -593 592 -593zM864 305c-229 0 -417 187 -417 418
c0 232 186 417 417 417c131 0 252 -60 327 -156l-129 -102c-46 62 -117 98 -198 98c-140 0 -250 -109 -250 -257c0 -146 110 -255 250 -255c81 0 152 35 198 97l129 -102c-75 -97 -196 -158 -327 -158z" />
    <glyph glyph-name="registered" unicode="&#xae;" horiz-adv-x="1766" 
d="M882 1470c411 0 746 -335 746 -745s-335 -745 -746 -745c-409 0 -744 335 -744 745s335 745 744 745zM882 132c332 0 593 261 593 593c0 331 -261 592 -593 592c-331 0 -592 -261 -592 -592c0 -332 261 -593 592 -593zM1207 894c0 -97 -53 -177 -131 -216l157 -367h-181
l-135 341h-129v-341h-166v827h341c137 0 244 -109 244 -244zM788 992v-203h149c63 0 110 44 110 102c0 59 -47 101 -110 101h-149z" />
    <glyph glyph-name="trademark" unicode="&#x2122;" horiz-adv-x="1602" 
d="M108 1413v123h463v-123h-163v-594h-137v594h-163zM1234 1536h144v-717h-135v490l-218 -360l-218 359v-489h-138v717h149l207 -348z" />
    <glyph glyph-name="degree" unicode="&#xb0;" horiz-adv-x="922" 
d="M461 853c-171 0 -307 135 -307 306s136 307 307 307c170 0 306 -136 306 -307s-136 -306 -306 -306zM461 1012c82 0 146 64 146 147s-64 147 -146 147c-83 0 -146 -64 -146 -147s63 -147 146 -147z" />
    <glyph glyph-name="bar" unicode="|" horiz-adv-x="627" 
d="M224 -307v1843h179v-1843h-179z" />
    <glyph glyph-name="brokenbar" unicode="&#xa6;" horiz-adv-x="627" 
d="M224 799v737h179v-737h-179zM224 -307v737h179v-737h-179z" />
    <glyph glyph-name="uni2113" unicode="&#x2113;" horiz-adv-x="1166" 
d="M638 -13c-239 0 -352 133 -387 306c0 6 0 12 -1 18c-35 -23 -67 -50 -106 -74l-74 143c61 46 120 86 174 129v464c0 361 170 514 389 514c218 0 314 -162 314 -350c0 -235 -163 -444 -430 -675l3 -63c4 -123 83 -191 185 -191c114 0 215 91 277 184l118 -121
c-118 -210 -293 -284 -462 -284zM518 705c141 146 240 305 240 436c0 96 -32 158 -111 158c-63 0 -129 -64 -129 -292v-302z" />
    <glyph glyph-name="dagger" unicode="&#x2020;" horiz-adv-x="995" 
d="M927 1084v-183h-342v-1176h-184v1176h-333v183h333v361h184v-361h342z" />
    <glyph glyph-name="daggerdbl" unicode="&#x2021;" horiz-adv-x="1077" 
d="M968 901h-342v-616h342v-183h-342v-377h-185v377h-332v183h332v616h-332v183h332v361h185v-361h342v-183z" />
    <glyph glyph-name="estimated" unicode="&#x212e;" horiz-adv-x="1942" 
d="M986 -18c-484 0 -875 352 -875 784c0 438 391 790 875 790c485 0 876 -352 876 -790v-21h-1417c-8 0 -12 -2 -12 -8v-430c0 -18 8 -35 18 -49c137 -141 328 -233 537 -233c227 0 428 102 565 262h125c-156 -185 -410 -305 -692 -305zM445 788h1087c7 0 9 9 9 15v430
c0 18 -6 39 -21 51c-137 135 -323 225 -532 225c-207 0 -396 -92 -535 -231c-12 -14 -20 -33 -20 -53v-422c0 -6 4 -15 12 -15z" />
    <glyph glyph-name="uni2116" unicode="&#x2116;" horiz-adv-x="2963" 
d="M1252 467v1069h300v-1536h-308l-722 1075v-1075h-298v1536h306zM2296 365c-318 0 -545 220 -545 551c0 329 226 549 545 549s544 -221 544 -549c0 -331 -226 -551 -544 -551zM2293 1222c-150 0 -252 -113 -252 -306c0 -195 101 -308 252 -308c154 0 258 114 258 308
c0 193 -104 306 -258 306zM1834 0v185h924v-185h-924z" />
    <glyph glyph-name="asciicircum" unicode="^" horiz-adv-x="1423" 
d="M1355 315h-243l-400 882l-400 -882h-244l512 1130h263z" />
    <glyph glyph-name="uni0308" unicode="&#x308;" 
d="M-702 1182c-91 0 -167 74 -167 166c0 91 76 165 167 165c89 0 165 -74 165 -165c0 -92 -76 -166 -165 -166zM-271 1182c-92 0 -167 74 -167 166c0 91 75 165 167 165c89 0 165 -74 165 -165c0 -92 -76 -166 -165 -166z" />
    <glyph glyph-name="uni0307" unicode="&#x307;" 
d="M-271 1182c-91 0 -167 74 -167 166c0 91 76 165 167 165c89 0 165 -74 165 -165c0 -92 -76 -166 -165 -166z" />
    <glyph glyph-name="gravecomb" unicode="&#x300;" 
d="M-210 1200l-226 268l141 100l263 -368h-178z" />
    <glyph glyph-name="acutecomb" unicode="&#x301;" 
d="M-455 1200l262 368l142 -100l-227 -268h-177z" />
    <glyph glyph-name="uni030B" unicode="&#x30b;" 
d="M-832 1200l262 368l142 -100l-227 -268h-177zM-455 1200l263 368l141 -100l-226 -268h-178z" />
    <glyph glyph-name="uni0302" unicode="&#x302;" 
d="M-492 1237h-177l227 299h173l227 -299h-177l-137 166z" />
    <glyph glyph-name="uni030C" unicode="&#x30c;" 
d="M-445 1237l-227 299h177l137 -167l136 167h178l-227 -299h-174z" />
    <glyph glyph-name="uni0306" unicode="&#x306;" 
d="M-450 1185c-215 0 -364 119 -364 351h180c0 -126 64 -216 184 -216c122 0 185 90 185 216h181c0 -232 -150 -351 -366 -351z" />
    <glyph glyph-name="uni030A" unicode="&#x30a;" 
d="M-329 1136c-133 0 -241 109 -241 241c0 129 108 237 241 237c130 0 237 -108 237 -237c0 -132 -107 -241 -237 -241zM-329 1258c66 0 118 48 118 119c0 63 -52 120 -118 120s-116 -57 -116 -120c0 -71 50 -119 116 -119z" />
    <glyph glyph-name="tildecomb" unicode="&#x303;" 
d="M-307 1162c-75 0 -133 35 -176 102c-18 28 -35 39 -57 39c-47 0 -70 -54 -70 -128h-137c0 152 76 262 202 262c79 0 139 -44 175 -103c14 -22 30 -38 60 -38c47 0 67 50 67 128h138c0 -148 -71 -262 -202 -262z" />
    <glyph glyph-name="uni0304" unicode="&#x304;" 
d="M-809 1228v170h664v-170h-664z" />
    <glyph glyph-name="hookabovecomb" unicode="&#x309;" 
d="M-348 1140v135c75 14 111 47 111 97c0 39 -22 69 -69 69c-29 0 -59 -12 -86 -39l-67 97c41 34 97 57 169 57c124 0 196 -71 196 -175c0 -97 -59 -136 -126 -157v-84h-128z" />
    <glyph glyph-name="uni0312" unicode="&#x312;" 
d="M-293 1533h206l-125 -327h-296z" />
    <glyph glyph-name="uni031B" unicode="&#x31b;" 
d="M-311 755c-57 0 -134 22 -200 63l50 95c39 -21 74 -28 98 -28c73 0 96 34 96 140v127h141v-166c0 -180 -88 -231 -185 -231z" />
    <glyph glyph-name="dotbelowcomb" unicode="&#x323;" 
d="M-271 -512c-91 0 -167 73 -167 166c0 90 76 164 167 164c89 0 165 -74 165 -164c0 -93 -76 -166 -165 -166z" />
    <glyph glyph-name="uni0326" unicode="&#x326;" 
d="M-309 -574l-141 66l168 373h251z" />
    <glyph glyph-name="uni0327" unicode="&#x327;" 
d="M-293 -532c-117 0 -207 67 -239 151l127 44c20 -40 65 -64 106 -64c50 0 94 36 94 92c0 60 -44 91 -96 91c-28 0 -55 -10 -74 -31l-105 62l122 223h137l-90 -159c15 3 31 6 45 6c113 0 196 -79 196 -192c0 -125 -98 -223 -223 -223z" />
    <glyph glyph-name="uni0328" unicode="&#x328;" 
d="M-263 -425c-110 0 -193 36 -193 109c0 95 128 237 253 349l84 -33c-70 -63 -172 -165 -172 -220c0 -25 21 -36 60 -36c37 0 85 16 112 40v-182c-41 -17 -93 -27 -144 -27z" />
    <glyph glyph-name="uni0335" unicode="&#x335;" 
d="M-836 428v176h689v-176h-689z" />
    <glyph glyph-name="uni0336" unicode="&#x336;" 
d="M-1662 474v117h1517v-117h-1517z" />
    <glyph glyph-name="uni0337" unicode="&#x337;" 
d="M-673 248v181l635 472v-183z" />
    <glyph glyph-name="uni0338" unicode="&#x338;" 
d="M-908 208l806 1157l115 -69l-806 -1157z" />
    <glyph glyph-name="uni0308.case" 
d="M-702 1536c-91 0 -167 74 -167 166c0 91 76 164 167 164c89 0 165 -73 165 -164c0 -92 -76 -166 -165 -166zM-271 1536c-92 0 -167 74 -167 166c0 91 75 164 167 164c89 0 165 -73 165 -164c0 -92 -76 -166 -165 -166z" />
    <glyph glyph-name="uni0307.case" 
d="M-271 1536c-91 0 -167 74 -167 166c0 91 76 164 167 164c89 0 165 -73 165 -164c0 -92 -76 -166 -165 -166z" />
    <glyph glyph-name="gravecomb.case" 
d="M-210 1580l-226 267l141 101l263 -368h-178z" />
    <glyph glyph-name="acutecomb.case" 
d="M-455 1580l262 368l142 -101l-227 -267h-177z" />
    <glyph glyph-name="uni030B.case" 
d="M-832 1580l262 368l142 -101l-227 -267h-177zM-455 1580l263 368l141 -101l-226 -267h-178z" />
    <glyph glyph-name="uni0302.case" 
d="M-492 1580h-177l227 299h173l227 -299h-177l-137 166z" />
    <glyph glyph-name="uni030C.case" 
d="M-445 1580l-227 299h177l137 -167l136 167h178l-227 -299h-174z" />
    <glyph glyph-name="uni0306.case" 
d="M-457 1580c-215 0 -364 77 -364 295h166c0 -112 78 -161 198 -161c122 0 200 49 200 161h166c0 -218 -150 -295 -366 -295z" />
    <glyph glyph-name="uni030A.case" 
d="M-329 1580c-133 0 -241 108 -241 240c0 130 108 237 241 237c130 0 237 -107 237 -237c0 -132 -107 -240 -237 -240zM-329 1701c66 0 118 48 118 119c0 64 -52 120 -118 120s-116 -56 -116 -120c0 -71 50 -119 116 -119z" />
    <glyph glyph-name="tildecomb.case" 
d="M-333 1590c-93 0 -137 41 -170 80c-29 36 -50 70 -95 70c-57 0 -84 -59 -84 -137h-151c0 155 86 267 230 267c87 0 135 -36 168 -73c34 -36 56 -76 102 -76c55 0 78 53 78 135h153c0 -149 -79 -266 -231 -266z" />
    <glyph glyph-name="uni0304.case" 
d="M-809 1580v170h664v-170h-664z" />
    <glyph glyph-name="hookabovecomb.case" 
d="M-348 1536v135c75 13 111 46 111 97c0 38 -22 68 -69 68c-29 0 -59 -12 -86 -38l-67 96c41 35 97 58 169 58c124 0 196 -71 196 -176c0 -96 -59 -136 -126 -157v-83h-128z" />
    <glyph glyph-name="uni0312.case" 
d="M-293 1908h206l-125 -328h-296z" />
    <glyph glyph-name="uni0338.case" 
d="M-1205 -18l1109 1593l117 -70l-1109 -1592z" />
    <glyph glyph-name="acute" unicode="&#xb4;" horiz-adv-x="487" 
d="M32 1200l262 368l142 -100l-227 -268h-177z" />
    <glyph glyph-name="breve" unicode="&#x2d8;" horiz-adv-x="898" 
d="M448 1185c-215 0 -364 119 -364 351h180c0 -126 64 -216 184 -216c122 0 185 90 185 216h181c0 -232 -150 -351 -366 -351z" />
    <glyph glyph-name="caron" unicode="&#x2c7;" horiz-adv-x="716" 
d="M271 1237l-227 299h177l137 -167l136 167h178l-227 -299h-174z" />
    <glyph glyph-name="cedilla" unicode="&#xb8;" horiz-adv-x="591" 
d="M298 -532c-117 0 -207 67 -239 151l127 44c20 -40 65 -64 106 -64c50 0 94 36 94 92c0 60 -44 91 -96 91c-28 0 -55 -10 -74 -31l-105 62l122 223h137l-90 -159c15 3 31 6 45 6c113 0 196 -79 196 -192c0 -125 -98 -223 -223 -223z" />
    <glyph glyph-name="circumflex" unicode="&#x2c6;" horiz-adv-x="711" 
d="M219 1237h-177l227 299h173l227 -299h-177l-137 166z" />
    <glyph glyph-name="dieresis" unicode="&#xa8;" horiz-adv-x="974" 
d="M272 1182c-91 0 -167 74 -167 166c0 91 76 165 167 165c89 0 165 -74 165 -165c0 -92 -76 -166 -165 -166zM703 1182c-92 0 -167 74 -167 166c0 91 75 165 167 165c89 0 165 -74 165 -165c0 -92 -76 -166 -165 -166z" />
    <glyph glyph-name="dotaccent" unicode="&#x2d9;" horiz-adv-x="543" 
d="M272 1182c-91 0 -167 74 -167 166c0 91 76 165 167 165c89 0 165 -74 165 -165c0 -92 -76 -166 -165 -166z" />
    <glyph glyph-name="grave" unicode="`" horiz-adv-x="487" 
d="M277 1200l-226 268l141 100l263 -368h-178z" />
    <glyph glyph-name="hungarumlaut" unicode="&#x2dd;" horiz-adv-x="864" 
d="M32 1200l262 368l142 -100l-227 -268h-177zM409 1200l263 368l141 -100l-226 -268h-178z" />
    <glyph glyph-name="macron" unicode="&#xaf;" horiz-adv-x="954" 
d="M145 1228v170h664v-170h-664z" />
    <glyph glyph-name="ogonek" unicode="&#x2db;" horiz-adv-x="522" 
d="M259 -425c-110 0 -193 36 -193 109c0 95 128 237 253 349l84 -33c-70 -63 -172 -165 -172 -220c0 -25 21 -36 60 -36c37 0 85 16 112 40v-182c-41 -17 -93 -27 -144 -27z" />
    <glyph glyph-name="ring" unicode="&#x2da;" horiz-adv-x="660" 
d="M331 1136c-133 0 -241 109 -241 241c0 129 108 237 241 237c130 0 237 -108 237 -237c0 -132 -107 -241 -237 -241zM331 1258c66 0 118 48 118 119c0 63 -52 120 -118 120s-116 -57 -116 -120c0 -71 50 -119 116 -119z" />
    <glyph glyph-name="tilde" unicode="&#x2dc;" horiz-adv-x="852" 
d="M545 1162c-75 0 -133 35 -176 102c-18 28 -35 39 -57 39c-47 0 -70 -54 -70 -128h-137c0 152 76 262 202 262c79 0 139 -44 175 -103c14 -22 30 -38 60 -38c47 0 67 50 67 128h138c0 -148 -71 -262 -202 -262z" />
    <glyph glyph-name="uni03060301" 
d="M-539 1677l262 368l142 -100l-227 -268h-177zM-450 1185c-215 0 -364 119 -364 351h180c0 -126 64 -216 184 -216c122 0 185 90 185 216h181c0 -232 -150 -351 -366 -351z" />
    <glyph glyph-name="uni03060300" 
d="M-539 1677l-226 268l141 100l263 -368h-178zM-450 1185c-215 0 -364 119 -364 351h180c0 -126 64 -216 184 -216c122 0 185 90 185 216h181c0 -232 -150 -351 -366 -351z" />
    <glyph glyph-name="uni03060309" 
d="M-510 1617v135c75 14 111 47 111 97c0 39 -22 69 -69 69c-29 0 -59 -12 -86 -39l-67 97c41 34 97 57 169 57c124 0 196 -71 196 -175c0 -97 -59 -136 -126 -157v-84h-128zM-450 1185c-215 0 -364 119 -364 351h180c0 -126 64 -216 184 -216c122 0 185 90 185 216h181
c0 -232 -150 -351 -366 -351z" />
    <glyph glyph-name="uni03060303" 
d="M-317 1670c-75 0 -133 35 -176 102c-18 28 -35 39 -57 39c-47 0 -70 -54 -70 -128h-137c0 152 76 262 202 262c79 0 139 -44 175 -103c14 -22 30 -38 60 -38c47 0 67 50 67 128h138c0 -148 -71 -262 -202 -262zM-450 1185c-215 0 -364 119 -364 351h180
c0 -126 64 -216 184 -216c122 0 185 90 185 216h181c0 -232 -150 -351 -366 -351z" />
    <glyph glyph-name="uni03020301" 
d="M-445 1677l262 368l142 -100l-227 -268h-177zM-492 1237h-177l227 299h173l227 -299h-177l-137 166z" />
    <glyph glyph-name="uni03020300" 
d="M-445 1677l-226 268l141 100l263 -368h-178zM-492 1237h-177l227 299h173l227 -299h-177l-137 166z" />
    <glyph glyph-name="uni03020309" 
d="M-416 1617v135c75 14 111 47 111 97c0 39 -22 69 -69 69c-29 0 -59 -12 -86 -39l-67 97c41 34 97 57 169 57c124 0 196 -71 196 -175c0 -97 -59 -136 -126 -157v-84h-128zM-492 1237h-177l227 299h173l227 -299h-177l-137 166z" />
    <glyph glyph-name="uni03020303" 
d="M-223 1670c-75 0 -133 35 -176 102c-18 28 -35 39 -57 39c-47 0 -70 -54 -70 -128h-137c0 152 76 262 202 262c79 0 139 -44 175 -103c14 -22 30 -38 60 -38c47 0 67 50 67 128h138c0 -148 -71 -262 -202 -262zM-492 1237h-177l227 299h173l227 -299h-177l-137 166z" />
    <glyph glyph-name="uni03060301.case" 
d="M-544 1946l262 368l142 -101l-227 -267h-177zM-457 1580c-215 0 -364 77 -364 295h166c0 -112 78 -161 198 -161c122 0 200 49 200 161h166c0 -218 -150 -295 -366 -295z" />
    <glyph glyph-name="uni03060300.case" 
d="M-544 1946l-226 267l141 101l263 -368h-178zM-457 1580c-215 0 -364 77 -364 295h166c0 -112 78 -161 198 -161c122 0 200 49 200 161h166c0 -218 -150 -295 -366 -295z" />
    <glyph glyph-name="uni03060309.case" 
d="M-515 1902v135c75 13 111 46 111 97c0 38 -22 68 -69 68c-29 0 -59 -12 -86 -38l-67 96c41 35 97 58 169 58c124 0 196 -71 196 -176c0 -96 -59 -136 -126 -157v-83h-128zM-457 1580c-215 0 -364 77 -364 295h166c0 -112 78 -161 198 -161c122 0 200 49 200 161h166
c0 -218 -150 -295 -366 -295z" />
    <glyph glyph-name="uni03060303.case" 
d="M-306 1956c-93 0 -137 41 -170 80c-29 36 -50 70 -95 70c-57 0 -84 -59 -84 -137h-151c0 155 86 267 230 267c87 0 135 -36 168 -73c34 -36 56 -76 102 -76c55 0 78 53 78 135h153c0 -149 -79 -266 -231 -266zM-457 1580c-215 0 -364 77 -364 295h166
c0 -112 78 -161 198 -161c122 0 200 49 200 161h166c0 -218 -150 -295 -366 -295z" />
    <glyph glyph-name="uni03020301.case" 
d="M-445 1970l262 368l142 -101l-227 -267h-177zM-492 1580h-177l227 299h173l227 -299h-177l-137 166z" />
    <glyph glyph-name="uni03020300.case" 
d="M-445 1970l-226 267l141 101l263 -368h-178zM-492 1580h-177l227 299h173l227 -299h-177l-137 166z" />
    <glyph glyph-name="uni03020309.case" 
d="M-416 1926v135c75 13 111 46 111 97c0 38 -22 68 -69 68c-29 0 -59 -12 -86 -38l-67 96c41 35 97 58 169 58c124 0 196 -71 196 -176c0 -96 -59 -136 -126 -157v-83h-128zM-492 1580h-177l227 299h173l227 -299h-177l-137 166z" />
    <glyph glyph-name="uni03020303.case" 
d="M-207 1980c-93 0 -137 41 -170 80c-29 36 -50 70 -95 70c-57 0 -84 -59 -84 -137h-151c0 155 86 267 230 267c87 0 135 -36 168 -73c34 -36 56 -76 102 -76c55 0 78 53 78 135h153c0 -149 -79 -266 -231 -266zM-492 1580h-177l227 299h173l227 -299h-177l-137 166z" />
    </font>
</defs>
</svg>
