<?xml version="1.0" standalone="no"?>
<!DOCTYPE svg PUBLIC "-//W3C//DTD SVG 1.1//EN" "http://www.w3.org/Graphics/SVG/1.1/DTD/svg11.dtd" >
<svg xmlns="http://www.w3.org/2000/svg" xmlns:xlink="http://www.w3.org/1999/xlink" version="1.1">
<metadata>
Created by FontForge 20190801 at Thu Mar  2 18:56:18 2017
 By Jimmy Wärting
Copyright \(c\)2016. Cerebri Sans is a trademark of Alfredo Marco Pradil. All rights reserved.
</metadata>
<defs>
<font id="CerebriSans-ExtraBold" horiz-adv-x="0" >
  <font-face 
    font-family="Cerebri Sans ExtraBold"
    font-weight="800"
    font-stretch="normal"
    units-per-em="2048"
    panose-1="0 0 9 0 0 0 0 0 0 0"
    ascent="1536"
    descent="-512"
    x-height="1044"
    cap-height="1458"
    bbox="-1669 -579 2864 2411"
    underline-thickness="102"
    underline-position="-184"
    stemh="300"
    stemv="339"
    unicode-range="U+0020-FB02"
  />
<missing-glyph horiz-adv-x="1247" 
d="M146 0v1536h955v-1536h-955zM392 247h462v1042h-462v-1042z" />
    <glyph glyph-name="f_f" unicode="ff" horiz-adv-x="1490" 
d="M219 0v795h-205v249h205v79c0 362 224 413 544 413v-258c-90 0 -218 5 -218 -156v-78h390v79c0 362 224 413 544 413v-258c-90 0 -218 5 -218 -156v-78h218v-249h-218v-795h-326v795h-390v-795h-326z" />
    <glyph glyph-name="fi" unicode="fi" horiz-adv-x="1382" 
d="M219 1123c0 362 224 413 544 413v-258c-90 0 -218 5 -218 -156v-78h218v-249h-218v-795h-326v795h-205v249h205v79zM1080 1172c-101 0 -184 81 -184 182c0 100 83 181 184 181c98 0 181 -81 181 -181c0 -101 -83 -182 -181 -182zM914 0v1044h328v-1044h-328z" />
    <glyph glyph-name="fl" unicode="fl" horiz-adv-x="1384" 
d="M219 1123c0 362 224 413 544 413v-258c-90 0 -218 5 -218 -156v-78h218v-249h-218v-795h-326v795h-205v249h205v79zM914 1536h330v-1536h-330v1536z" />
    <glyph glyph-name=".notdef" horiz-adv-x="1247" 
d="M146 0v1536h955v-1536h-955zM392 247h462v1042h-462v-1042z" />
    <glyph glyph-name="A" unicode="A" horiz-adv-x="1531" 
d="M1164 0l-100 285h-597l-100 -285h-347l536 1458h419l536 -1458h-347zM566 568h399l-199 571z" />
    <glyph glyph-name="Aacute" unicode="&#xc1;" horiz-adv-x="1531" 
d="M1093 1858l-227 -269h-197l266 381zM1164 0l-100 285h-597l-100 -285h-347l536 1458h419l536 -1458h-347zM566 568h399l-199 571z" />
    <glyph glyph-name="Abreve" unicode="&#x102;" horiz-adv-x="1531" 
d="M766 1589c-221 0 -373 76 -373 303h186c0 -107 72 -154 187 -154c117 0 189 47 189 154h185c0 -227 -151 -303 -374 -303zM1164 0l-100 285h-597l-100 -285h-347l536 1458h419l536 -1458h-347zM566 568h399l-199 571z" />
    <glyph glyph-name="uni1EAE" unicode="&#x1eae;" horiz-adv-x="1531" 
d="M1095 2231l-227 -269h-197l266 381zM766 1589c-221 0 -373 76 -373 303h186c0 -107 72 -154 187 -154c117 0 189 47 189 154h185c0 -227 -151 -303 -374 -303zM1164 0l-100 285h-597l-100 -285h-347l536 1458h419l536 -1458h-347zM566 568h399l-199 571z" />
    <glyph glyph-name="uni1EB6" unicode="&#x1eb6;" horiz-adv-x="1531" 
d="M766 1589c-221 0 -373 76 -373 303h186c0 -107 72 -154 187 -154c117 0 189 47 189 154h185c0 -227 -151 -303 -374 -303zM1511 0h-347l-100 285h-597l-100 -285h-347l536 1458h419zM566 568h399l-199 571zM767 -149c98 0 181 -81 181 -181c0 -101 -83 -182 -181 -182
c-101 0 -184 81 -184 182c0 100 83 181 184 181z" />
    <glyph glyph-name="uni1EB0" unicode="&#x1eb0;" horiz-adv-x="1531" 
d="M867 1962h-197l-227 269l158 112zM766 1589c-221 0 -373 76 -373 303h186c0 -107 72 -154 187 -154c117 0 189 47 189 154h185c0 -227 -151 -303 -374 -303zM1164 0l-100 285h-597l-100 -285h-347l536 1458h419l536 -1458h-347zM566 568h399l-199 571z" />
    <glyph glyph-name="uni1EB2" unicode="&#x1eb2;" horiz-adv-x="1531" 
d="M748 2204c-28 0 -59 -11 -86 -40l-72 105c42 36 100 61 178 61c130 0 201 -71 201 -178c0 -101 -63 -138 -126 -157v-86h-140v140c75 13 108 46 108 93c0 35 -19 62 -63 62zM766 1589c-221 0 -373 76 -373 303h186c0 -107 72 -154 187 -154c117 0 189 47 189 154h185
c0 -227 -151 -303 -374 -303zM1164 0l-100 285h-597l-100 -285h-347l536 1458h419l536 -1458h-347zM566 568h399l-199 571z" />
    <glyph glyph-name="uni1EB4" unicode="&#x1eb4;" horiz-adv-x="1531" 
d="M657 2121c-53 0 -76 -58 -76 -131h-170c0 159 89 274 239 274c88 0 136 -32 169 -66c37 -36 57 -77 101 -77c49 0 68 51 68 130h172c0 -153 -82 -274 -240 -274c-94 0 -138 38 -170 75c-30 35 -50 69 -93 69zM766 1589c-221 0 -373 76 -373 303h186
c0 -107 72 -154 187 -154c117 0 189 47 189 154h185c0 -227 -151 -303 -374 -303zM1164 0l-100 285h-597l-100 -285h-347l536 1458h419l536 -1458h-347zM566 568h399l-199 571z" />
    <glyph glyph-name="uni01CD" unicode="&#x1cd;" horiz-adv-x="1531" 
d="M861 1589h-189l-233 300h198l129 -151l130 151h197zM1164 0l-100 285h-597l-100 -285h-347l536 1458h419l536 -1458h-347zM566 568h399l-199 571z" />
    <glyph glyph-name="Acircumflex" unicode="&#xc2;" horiz-adv-x="1531" 
d="M766 1739l-130 -150h-197l232 300h190l232 -300h-198zM1164 0l-100 285h-597l-100 -285h-347l536 1458h419l536 -1458h-347zM566 568h399l-199 571z" />
    <glyph glyph-name="uni1EA4" unicode="&#x1ea4;" horiz-adv-x="1531" 
d="M1093 2246l-227 -269h-197l266 381zM766 1739l-130 -150h-197l232 300h190l232 -300h-198zM1164 0l-100 285h-597l-100 -285h-347l536 1458h419l536 -1458h-347zM566 568h399l-199 571z" />
    <glyph glyph-name="uni1EAC" unicode="&#x1eac;" horiz-adv-x="1531" 
d="M766 1739l-130 -150h-197l232 300h190l232 -300h-198zM1511 0h-347l-100 285h-597l-100 -285h-347l536 1458h419zM566 568h399l-199 571zM767 -149c98 0 181 -81 181 -181c0 -101 -83 -182 -181 -182c-101 0 -184 81 -184 182c0 100 83 181 184 181z" />
    <glyph glyph-name="uni1EA6" unicode="&#x1ea6;" horiz-adv-x="1531" 
d="M865 1977h-197l-227 269l158 112zM766 1739l-130 -150h-197l232 300h190l232 -300h-198zM1164 0l-100 285h-597l-100 -285h-347l536 1458h419l536 -1458h-347zM566 568h399l-199 571z" />
    <glyph glyph-name="uni1EA8" unicode="&#x1ea8;" horiz-adv-x="1531" 
d="M746 2219c-28 0 -59 -11 -86 -40l-72 105c42 36 100 61 178 61c130 0 201 -71 201 -178c0 -101 -63 -138 -126 -157v-86h-140v140c75 13 108 46 108 93c0 35 -19 62 -63 62zM766 1739l-130 -150h-197l232 300h190l232 -300h-198zM1164 0l-100 285h-597l-100 -285h-347
l536 1458h419l536 -1458h-347zM566 568h399l-199 571z" />
    <glyph glyph-name="uni1EAA" unicode="&#x1eaa;" horiz-adv-x="1531" 
d="M655 2136c-53 0 -76 -58 -76 -131h-170c0 159 89 274 239 274c88 0 136 -32 169 -66c37 -36 57 -77 101 -77c49 0 68 51 68 130h172c0 -153 -82 -274 -240 -274c-94 0 -138 38 -170 75c-30 35 -50 69 -93 69zM671 1889h190l232 -300h-198l-129 150l-130 -150h-197z
M1164 0l-100 285h-597l-100 -285h-347l536 1458h419l536 -1458h-347zM566 568h399l-199 571z" />
    <glyph glyph-name="Adieresis" unicode="&#xc4;" horiz-adv-x="1531" 
d="M541 1536c-101 0 -184 81 -184 182c0 100 83 181 184 181c98 0 181 -81 181 -181c0 -101 -83 -182 -181 -182zM991 1536c-101 0 -184 81 -184 182c0 100 83 181 184 181c98 0 181 -81 181 -181c0 -101 -83 -182 -181 -182zM1164 0l-100 285h-597l-100 -285h-347l536 1458
h419l536 -1458h-347zM566 568h399l-199 571z" />
    <glyph glyph-name="uni1EA0" unicode="&#x1ea0;" horiz-adv-x="1531" 
d="M1511 0h-347l-100 285h-597l-100 -285h-347l536 1458h419zM566 568h399l-199 571zM767 -149c98 0 181 -81 181 -181c0 -101 -83 -182 -181 -182c-101 0 -184 81 -184 182c0 100 83 181 184 181z" />
    <glyph glyph-name="Agrave" unicode="&#xc0;" horiz-adv-x="1531" 
d="M865 1589h-197l-227 269l158 112zM1164 0l-100 285h-597l-100 -285h-347l536 1458h419l536 -1458h-347zM566 568h399l-199 571z" />
    <glyph glyph-name="uni1EA2" unicode="&#x1ea2;" horiz-adv-x="1531" 
d="M746 1831c-28 0 -59 -11 -86 -40l-72 105c42 36 100 61 178 61c130 0 201 -71 201 -178c0 -101 -63 -138 -126 -157v-86h-140v140c75 13 108 46 108 93c0 35 -19 62 -63 62zM1164 0l-100 285h-597l-100 -285h-347l536 1458h419l536 -1458h-347zM566 568h399l-199 571z
" />
    <glyph glyph-name="Amacron" unicode="&#x100;" horiz-adv-x="1531" 
d="M1101 1778v-189h-670v189h670zM1164 0l-100 285h-597l-100 -285h-347l536 1458h419l536 -1458h-347zM566 568h399l-199 571z" />
    <glyph glyph-name="Aogonek" unicode="&#x104;" horiz-adv-x="1531" 
d="M1339 -218c0 -23 20 -33 54 -33c39 0 90 17 118 44v-201c-43 -19 -100 -30 -155 -30c-109 0 -199 37 -199 114c0 88 105 214 224 324h-217l-100 285h-597l-100 -285h-347l536 1458h419l536 -1458c-77 -66 -172 -166 -172 -218zM566 568h399l-199 571z" />
    <glyph glyph-name="Aring" unicode="&#xc5;" horiz-adv-x="1531" 
d="M766 1589c-138 0 -250 112 -250 250c0 134 112 246 250 246c136 0 247 -112 247 -246c0 -138 -111 -250 -247 -250zM766 1956c-65 0 -113 -56 -113 -117c0 -70 48 -117 113 -117s115 47 115 117c0 61 -50 117 -115 117zM1164 0l-100 285h-597l-100 -285h-347l536 1458
h419l536 -1458h-347zM566 568h399l-199 571z" />
    <glyph glyph-name="Atilde" unicode="&#xc3;" horiz-adv-x="1531" 
d="M655 1748c-53 0 -76 -58 -76 -131h-170c0 159 89 274 239 274c88 0 136 -32 169 -66c37 -36 57 -77 101 -77c49 0 68 51 68 130h172c0 -153 -82 -274 -240 -274c-94 0 -138 38 -170 75c-30 35 -50 69 -93 69zM1164 0l-100 285h-597l-100 -285h-347l536 1458h419
l536 -1458h-347zM566 568h399l-199 571z" />
    <glyph glyph-name="AE" unicode="&#xc6;" horiz-adv-x="1922" 
d="M20 0l491 1458h1288v-299h-547v-281h471v-298h-471v-280h547v-300h-888v285h-448l-88 -285h-355zM555 568h356v592h-180z" />
    <glyph glyph-name="B" unicode="B" horiz-adv-x="1327" 
d="M992 771c159 -46 265 -151 265 -359c0 -249 -145 -412 -471 -412h-611v1458h482c332 0 496 -150 496 -404c0 -125 -52 -227 -161 -283zM662 1178h-159v-301h166c127 0 172 67 172 155c0 85 -53 146 -179 146zM721 289c163 0 207 80 207 161c0 83 -41 168 -209 168h-216
v-329h218z" />
    <glyph glyph-name="C" unicode="C" horiz-adv-x="1581" 
d="M828 -20c-434 0 -751 294 -751 749s317 749 751 749c336 0 602 -175 703 -461l-318 -114c-56 166 -204 264 -385 264c-235 0 -412 -166 -412 -438s177 -438 412 -438c181 0 329 98 385 264l318 -114c-101 -286 -367 -461 -703 -461z" />
    <glyph glyph-name="Cacute" unicode="&#x106;" horiz-adv-x="1581" 
d="M733 1589l266 381l158 -112l-227 -269h-197zM828 -20c-434 0 -751 294 -751 749s317 749 751 749c336 0 602 -175 703 -461l-318 -114c-56 166 -204 264 -385 264c-235 0 -412 -166 -412 -438s177 -438 412 -438c181 0 329 98 385 264l318 -114
c-101 -286 -367 -461 -703 -461z" />
    <glyph glyph-name="Ccaron" unicode="&#x10c;" horiz-adv-x="1581" 
d="M736 1589l-233 300h198l129 -151l130 151h197l-232 -300h-189zM828 -20c-434 0 -751 294 -751 749s317 749 751 749c336 0 602 -175 703 -461l-318 -114c-56 166 -204 264 -385 264c-235 0 -412 -166 -412 -438s177 -438 412 -438c181 0 329 98 385 264l318 -114
c-101 -286 -367 -461 -703 -461z" />
    <glyph glyph-name="Ccedilla" unicode="&#xc7;" horiz-adv-x="1581" 
d="M828 291c181 0 329 98 385 264l318 -114c-94 -267 -332 -437 -636 -459l-60 -100c14 3 29 5 43 5c111 0 193 -79 193 -192c0 -127 -100 -227 -227 -227c-122 0 -211 70 -240 158l142 47c15 -40 55 -61 91 -61c45 0 86 31 86 83c0 55 -41 83 -87 83c-28 0 -55 -11 -71 -33
l-115 65l97 174c-392 34 -670 319 -670 745c0 455 317 749 751 749c336 0 602 -175 703 -461l-318 -114c-56 166 -204 264 -385 264c-235 0 -412 -166 -412 -438s177 -438 412 -438z" />
    <glyph glyph-name="Cdotaccent" unicode="&#x10a;" horiz-adv-x="1581" 
d="M831 1536c-101 0 -184 81 -184 182c0 100 83 181 184 181c98 0 181 -81 181 -181c0 -101 -83 -182 -181 -182zM828 -20c-434 0 -751 294 -751 749s317 749 751 749c336 0 602 -175 703 -461l-318 -114c-56 166 -204 264 -385 264c-235 0 -412 -166 -412 -438
s177 -438 412 -438c181 0 329 98 385 264l318 -114c-101 -286 -367 -461 -703 -461z" />
    <glyph glyph-name="D" unicode="D" horiz-adv-x="1506" 
d="M175 0v1458h546c472 0 702 -289 702 -729s-230 -729 -702 -729h-546zM516 300h188c249 0 361 149 361 429s-112 431 -361 431h-188v-860z" />
    <glyph glyph-name="Eth" unicode="&#xd0;" horiz-adv-x="1506" 
d="M721 1458c472 0 702 -289 702 -729s-230 -729 -702 -729h-546v631h-151v196h151v631h546zM704 300c249 0 361 149 361 429s-112 431 -361 431h-188v-333h225v-196h-225v-331h188z" />
    <glyph glyph-name="Dcaron" unicode="&#x10e;" horiz-adv-x="1506" 
d="M551 1589l-233 300h198l129 -151l130 151h197l-232 -300h-189zM175 0v1458h546c472 0 702 -289 702 -729s-230 -729 -702 -729h-546zM516 300h188c249 0 361 149 361 429s-112 431 -361 431h-188v-860z" />
    <glyph glyph-name="Dcroat" unicode="&#x110;" horiz-adv-x="1506" 
d="M721 1458c472 0 702 -289 702 -729s-230 -729 -702 -729h-546v631h-151v196h151v631h546zM704 300c249 0 361 149 361 429s-112 431 -361 431h-188v-333h225v-196h-225v-331h188z" />
    <glyph glyph-name="E" unicode="E" horiz-adv-x="1163" 
d="M1041 1160h-524v-284h466v-294h-466v-282h524v-300h-866v1458h866v-298z" />
    <glyph glyph-name="Eacute" unicode="&#xc9;" horiz-adv-x="1163" 
d="M944 1858l-227 -269h-197l266 381zM1041 1160h-524v-284h466v-294h-466v-282h524v-300h-866v1458h866v-298z" />
    <glyph glyph-name="Ecaron" unicode="&#x11a;" horiz-adv-x="1163" 
d="M712 1589h-189l-233 300h198l129 -151l130 151h197zM1041 1160h-524v-284h466v-294h-466v-282h524v-300h-866v1458h866v-298z" />
    <glyph glyph-name="Ecircumflex" unicode="&#xca;" horiz-adv-x="1163" 
d="M617 1739l-130 -150h-197l232 300h190l232 -300h-198zM1041 1160h-524v-284h466v-294h-466v-282h524v-300h-866v1458h866v-298z" />
    <glyph glyph-name="uni1EBE" unicode="&#x1ebe;" horiz-adv-x="1163" 
d="M944 2246l-227 -269h-197l266 381zM617 1739l-130 -150h-197l232 300h190l232 -300h-198zM1041 1160h-524v-284h466v-294h-466v-282h524v-300h-866v1458h866v-298z" />
    <glyph glyph-name="uni1EC6" unicode="&#x1ec6;" horiz-adv-x="1163" 
d="M617 1739l-130 -150h-197l232 300h190l232 -300h-198zM1041 1160h-524v-284h466v-294h-466v-282h524v-300h-866v1458h866v-298zM618 -149c98 0 181 -81 181 -181c0 -101 -83 -182 -181 -182c-101 0 -184 81 -184 182c0 100 83 181 184 181z" />
    <glyph glyph-name="uni1EC0" unicode="&#x1ec0;" horiz-adv-x="1163" 
d="M716 1977h-197l-227 269l158 112zM617 1739l-130 -150h-197l232 300h190l232 -300h-198zM1041 1160h-524v-284h466v-294h-466v-282h524v-300h-866v1458h866v-298z" />
    <glyph glyph-name="uni1EC2" unicode="&#x1ec2;" horiz-adv-x="1163" 
d="M597 2219c-28 0 -59 -11 -86 -40l-72 105c42 36 100 61 178 61c130 0 201 -71 201 -178c0 -101 -63 -138 -126 -157v-86h-140v140c75 13 108 46 108 93c0 35 -19 62 -63 62zM617 1739l-130 -150h-197l232 300h190l232 -300h-198zM1041 1160h-524v-284h466v-294h-466v-282
h524v-300h-866v1458h866v-298z" />
    <glyph glyph-name="uni1EC4" unicode="&#x1ec4;" horiz-adv-x="1163" 
d="M506 2136c-53 0 -76 -58 -76 -131h-170c0 159 89 274 239 274c88 0 136 -32 169 -66c37 -36 57 -77 101 -77c49 0 68 51 68 130h172c0 -153 -82 -274 -240 -274c-94 0 -138 38 -170 75c-30 35 -50 69 -93 69zM522 1889h190l232 -300h-198l-129 150l-130 -150h-197z
M1041 1160h-524v-284h466v-294h-466v-282h524v-300h-866v1458h866v-298z" />
    <glyph glyph-name="Edieresis" unicode="&#xcb;" horiz-adv-x="1163" 
d="M392 1536c-101 0 -184 81 -184 182c0 100 83 181 184 181c98 0 181 -81 181 -181c0 -101 -83 -182 -181 -182zM842 1536c-101 0 -184 81 -184 182c0 100 83 181 184 181c98 0 181 -81 181 -181c0 -101 -83 -182 -181 -182zM1041 1160h-524v-284h466v-294h-466v-282h524
v-300h-866v1458h866v-298z" />
    <glyph glyph-name="Edotaccent" unicode="&#x116;" horiz-adv-x="1163" 
d="M618 1536c-101 0 -184 81 -184 182c0 100 83 181 184 181c98 0 181 -81 181 -181c0 -101 -83 -182 -181 -182zM1041 1160h-524v-284h466v-294h-466v-282h524v-300h-866v1458h866v-298z" />
    <glyph glyph-name="uni1EB8" unicode="&#x1eb8;" horiz-adv-x="1163" 
d="M1041 1160h-524v-284h466v-294h-466v-282h524v-300h-866v1458h866v-298zM618 -149c98 0 181 -81 181 -181c0 -101 -83 -182 -181 -182c-101 0 -184 81 -184 182c0 100 83 181 184 181z" />
    <glyph glyph-name="Egrave" unicode="&#xc8;" horiz-adv-x="1163" 
d="M716 1589h-197l-227 269l158 112zM1041 1160h-524v-284h466v-294h-466v-282h524v-300h-866v1458h866v-298z" />
    <glyph glyph-name="uni1EBA" unicode="&#x1eba;" horiz-adv-x="1163" 
d="M597 1831c-28 0 -59 -11 -86 -40l-72 105c42 36 100 61 178 61c130 0 201 -71 201 -178c0 -101 -63 -138 -126 -157v-86h-140v140c75 13 108 46 108 93c0 35 -19 62 -63 62zM1041 1160h-524v-284h466v-294h-466v-282h524v-300h-866v1458h866v-298z" />
    <glyph glyph-name="Emacron" unicode="&#x112;" horiz-adv-x="1163" 
d="M952 1778v-189h-670v189h670zM1041 1160h-524v-284h466v-294h-466v-282h524v-300h-866v1458h866v-298z" />
    <glyph glyph-name="Eogonek" unicode="&#x118;" horiz-adv-x="1163" 
d="M1041 1160h-524v-284h466v-294h-466v-282h524v-300c-77 -66 -172 -166 -172 -218c0 -23 20 -33 54 -33c39 0 90 17 118 44v-201c-43 -19 -100 -30 -155 -30c-109 0 -199 37 -199 114c0 88 105 214 224 324h-736v1458h866v-298z" />
    <glyph glyph-name="uni1EBC" unicode="&#x1ebc;" horiz-adv-x="1163" 
d="M506 1748c-53 0 -76 -58 -76 -131h-170c0 159 89 274 239 274c88 0 136 -32 169 -66c37 -36 57 -77 101 -77c49 0 68 51 68 130h172c0 -153 -82 -274 -240 -274c-94 0 -138 38 -170 75c-30 35 -50 69 -93 69zM1041 1160h-524v-284h466v-294h-466v-282h524v-300h-866v1458
h866v-298z" />
    <glyph glyph-name="F" unicode="F" horiz-adv-x="1123" 
d="M1058 1160h-541v-284h466v-294h-466v-582h-342v1458h883v-298z" />
    <glyph glyph-name="G" unicode="G" horiz-adv-x="1647" 
d="M809 -20c-424 0 -732 294 -732 745c0 458 317 753 751 753c287 0 522 -127 649 -344l-299 -159c-70 141 -196 210 -350 210c-235 0 -410 -163 -410 -451c0 -275 159 -461 423 -461c163 0 326 75 370 263h-369v271h689v-807h-265v179c-93 -123 -241 -199 -457 -199z" />
    <glyph glyph-name="Gbreve" unicode="&#x11e;" horiz-adv-x="1647" 
d="M823 1589c-221 0 -373 76 -373 303h186c0 -107 72 -154 187 -154c117 0 189 47 189 154h185c0 -227 -151 -303 -374 -303zM809 -20c-424 0 -732 294 -732 745c0 458 317 753 751 753c287 0 522 -127 649 -344l-299 -159c-70 141 -196 210 -350 210
c-235 0 -410 -163 -410 -451c0 -275 159 -461 423 -461c163 0 326 75 370 263h-369v271h689v-807h-265v179c-93 -123 -241 -199 -457 -199z" />
    <glyph glyph-name="Gcommaaccent" unicode="&#x122;" horiz-adv-x="1647" 
d="M809 -20c-424 0 -732 294 -732 745c0 458 317 753 751 753c287 0 522 -127 649 -344l-299 -159c-70 141 -196 210 -350 210c-235 0 -410 -163 -410 -451c0 -275 159 -461 423 -461c163 0 326 75 370 263h-369v271h689v-807h-265v179c-93 -123 -241 -199 -457 -199z
M668 -579l-157 74l169 376h283z" />
    <glyph glyph-name="Gdotaccent" unicode="&#x120;" horiz-adv-x="1647" 
d="M824 1536c-101 0 -184 81 -184 182c0 100 83 181 184 181c98 0 181 -81 181 -181c0 -101 -83 -182 -181 -182zM809 -20c-424 0 -732 294 -732 745c0 458 317 753 751 753c287 0 522 -127 649 -344l-299 -159c-70 141 -196 210 -350 210c-235 0 -410 -163 -410 -451
c0 -275 159 -461 423 -461c163 0 326 75 370 263h-369v271h689v-807h-265v179c-93 -123 -241 -199 -457 -199z" />
    <glyph glyph-name="H" unicode="H" horiz-adv-x="1609" 
d="M1093 1458h340v-1458h-340v584h-577v-584h-341v1458h341v-580h577v580z" />
    <glyph glyph-name="Hbar" unicode="&#x126;" horiz-adv-x="1609" 
d="M1560 1216v-127h-127v-1089h-340v584h-577v-584h-341v1089h-124v127h124v242h341v-242h577v242h340v-242h127zM1093 878v211h-577v-211h577z" />
    <glyph glyph-name="I" unicode="I" horiz-adv-x="691" 
d="M175 0v1458h341v-1458h-341z" />
    <glyph glyph-name="Iacute" unicode="&#xcd;" horiz-adv-x="691" 
d="M247 1589l266 381l158 -112l-227 -269h-197zM175 0v1458h341v-1458h-341z" />
    <glyph glyph-name="uni01CF" unicode="&#x1cf;" horiz-adv-x="691" 
d="M250 1589l-233 300h198l129 -151l130 151h197l-232 -300h-189zM175 0v1458h341v-1458h-341z" />
    <glyph glyph-name="Icircumflex" unicode="&#xce;" horiz-adv-x="691" 
d="M214 1589h-197l232 300h190l232 -300h-198l-129 150zM175 0v1458h341v-1458h-341z" />
    <glyph glyph-name="Idieresis" unicode="&#xcf;" horiz-adv-x="691" 
d="M119 1536c-101 0 -184 81 -184 182c0 100 83 181 184 181c98 0 181 -81 181 -181c0 -101 -83 -182 -181 -182zM569 1536c-101 0 -184 81 -184 182c0 100 83 181 184 181c98 0 181 -81 181 -181c0 -101 -83 -182 -181 -182zM175 0v1458h341v-1458h-341z" />
    <glyph glyph-name="Idotaccent" unicode="&#x130;" horiz-adv-x="691" 
d="M345 1536c-101 0 -184 81 -184 182c0 100 83 181 184 181c98 0 181 -81 181 -181c0 -101 -83 -182 -181 -182zM175 0v1458h341v-1458h-341z" />
    <glyph glyph-name="uni1ECA" unicode="&#x1eca;" horiz-adv-x="691" 
d="M175 0v1458h341v-1458h-341zM345 -512c-101 0 -184 81 -184 182c0 100 83 181 184 181c98 0 181 -81 181 -181c0 -101 -83 -182 -181 -182z" />
    <glyph glyph-name="Igrave" unicode="&#xcc;" horiz-adv-x="691" 
d="M246 1589l-227 269l158 112l266 -381h-197zM175 0v1458h341v-1458h-341z" />
    <glyph glyph-name="uni1EC8" unicode="&#x1ec8;" horiz-adv-x="691" 
d="M279 1536v140c75 13 108 46 108 93c0 35 -19 62 -63 62c-28 0 -59 -11 -86 -40l-72 105c42 36 100 61 178 61c130 0 201 -71 201 -178c0 -101 -63 -138 -126 -157v-86h-140zM175 0v1458h341v-1458h-341z" />
    <glyph glyph-name="Imacron" unicode="&#x12a;" horiz-adv-x="691" 
d="M9 1589v189h670v-189h-670zM175 0v1458h341v-1458h-341z" />
    <glyph glyph-name="Iogonek" unicode="&#x12e;" horiz-adv-x="691" 
d="M516 0c-77 -66 -172 -166 -172 -218c0 -23 20 -33 54 -33c39 0 90 17 118 44v-201c-43 -19 -100 -30 -155 -30c-109 0 -199 37 -199 114c0 88 105 214 224 324h-211v1458h341v-1458z" />
    <glyph glyph-name="Itilde" unicode="&#x128;" horiz-adv-x="691" 
d="M496 1604c-94 0 -138 38 -170 75c-30 35 -50 69 -93 69c-53 0 -76 -58 -76 -131h-170c0 159 89 274 239 274c88 0 136 -32 169 -66c37 -36 57 -77 101 -77c49 0 68 51 68 130h172c0 -153 -82 -274 -240 -274zM175 0v1458h341v-1458h-341z" />
    <glyph glyph-name="J" unicode="J" horiz-adv-x="1029" 
d="M424 -20c-117 0 -262 30 -408 105l144 279c73 -51 140 -79 220 -79c106 0 155 58 155 222v951h341v-1016c0 -305 -185 -462 -452 -462z" />
    <glyph glyph-name="K" unicode="K" horiz-adv-x="1500" 
d="M1047 0l-432 602h-99v-602h-341v1458h341v-560h94l442 560h415l-561 -698l575 -760h-434z" />
    <glyph glyph-name="Kcommaaccent" unicode="&#x136;" horiz-adv-x="1500" 
d="M906 760l575 -760h-434l-432 602h-99v-602h-341v1458h341v-560h94l442 560h415zM423 -505l169 376h283l-295 -450z" />
    <glyph glyph-name="L" unicode="L" horiz-adv-x="994" 
d="M516 300h442v-300h-783v1458h341v-1158z" />
    <glyph glyph-name="Lacute" unicode="&#x139;" horiz-adv-x="994" 
d="M673 1858l-227 -269h-197l266 381zM516 300h442v-300h-783v1458h341v-1158z" />
    <glyph glyph-name="Lcaron" unicode="&#x13d;" horiz-adv-x="1150" 
d="M516 1458v-1158h442v-300h-783v1458h341zM1120 1458l-228 -664h-232l126 664h334z" />
    <glyph glyph-name="Lcommaaccent" unicode="&#x13b;" horiz-adv-x="994" 
d="M516 300h442v-300h-783v1458h341v-1158zM256 -505l169 376h283l-295 -450z" />
    <glyph glyph-name="Lslash" unicode="&#x141;" horiz-adv-x="994" 
d="M516 300h442v-300h-783v508l-170 -126v200l170 126v750h341v-497l155 115v-201l-155 -115v-460z" />
    <glyph glyph-name="M" unicode="M" horiz-adv-x="2001" 
d="M1887 0h-340l-95 1064l-339 -1064h-223l-339 1067l-96 -1067h-341l124 1458h493l269 -833l273 833h491z" />
    <glyph glyph-name="N" unicode="N" horiz-adv-x="1691" 
d="M1176 1458h340v-1458h-400l-601 996v-996h-340v1458h396l605 -989v989z" />
    <glyph glyph-name="Nacute" unicode="&#x143;" horiz-adv-x="1691" 
d="M1173 1858l-227 -269h-197l266 381zM1176 1458h340v-1458h-400l-601 996v-996h-340v1458h396l605 -989v989z" />
    <glyph glyph-name="Ncaron" unicode="&#x147;" horiz-adv-x="1691" 
d="M941 1589h-189l-233 300h198l129 -151l130 151h197zM1176 1458h340v-1458h-400l-601 996v-996h-340v1458h396l605 -989v989z" />
    <glyph glyph-name="Ncommaaccent" unicode="&#x145;" horiz-adv-x="1691" 
d="M1176 1458h340v-1458h-400l-601 996v-996h-340v1458h396l605 -989v989zM534 -505l169 376h283l-295 -450z" />
    <glyph glyph-name="Eng" unicode="&#x14a;" horiz-adv-x="1698" 
d="M1183 1458h340v-1458c0 -297 -208 -472 -521 -472v251c103 0 188 76 121 221l-608 998v-998h-340v1458h396l612 -992v992z" />
    <glyph glyph-name="Ntilde" unicode="&#xd1;" horiz-adv-x="1691" 
d="M735 1748c-53 0 -76 -58 -76 -131h-170c0 159 89 274 239 274c88 0 136 -32 169 -66c37 -36 57 -77 101 -77c49 0 68 51 68 130h172c0 -153 -82 -274 -240 -274c-94 0 -138 38 -170 75c-30 35 -50 69 -93 69zM1176 1458h340v-1458h-400l-601 996v-996h-340v1458h396
l605 -989v989z" />
    <glyph glyph-name="O" unicode="O" horiz-adv-x="1656" 
d="M828 -20c-434 0 -751 295 -751 749c0 455 317 749 751 749s751 -294 751 -749c0 -454 -317 -749 -751 -749zM828 291c235 0 414 166 414 438s-179 438 -414 438s-412 -166 -412 -438s177 -438 412 -438z" />
    <glyph glyph-name="Oacute" unicode="&#xd3;" horiz-adv-x="1656" 
d="M731 1589l266 381l158 -112l-227 -269h-197zM828 -20c-434 0 -751 295 -751 749c0 455 317 749 751 749s751 -294 751 -749c0 -454 -317 -749 -751 -749zM828 291c235 0 414 166 414 438s-179 438 -414 438s-412 -166 -412 -438s177 -438 412 -438z" />
    <glyph glyph-name="uni01D1" unicode="&#x1d1;" horiz-adv-x="1656" 
d="M734 1589l-233 300h198l129 -151l130 151h197l-232 -300h-189zM828 -20c-434 0 -751 295 -751 749c0 455 317 749 751 749s751 -294 751 -749c0 -454 -317 -749 -751 -749zM828 291c235 0 414 166 414 438s-179 438 -414 438s-412 -166 -412 -438s177 -438 412 -438z" />
    <glyph glyph-name="Ocircumflex" unicode="&#xd4;" horiz-adv-x="1656" 
d="M698 1589h-197l232 300h190l232 -300h-198l-129 150zM828 -20c-434 0 -751 295 -751 749c0 455 317 749 751 749s751 -294 751 -749c0 -454 -317 -749 -751 -749zM828 291c235 0 414 166 414 438s-179 438 -414 438s-412 -166 -412 -438s177 -438 412 -438z" />
    <glyph glyph-name="uni1ED0" unicode="&#x1ed0;" horiz-adv-x="1656" 
d="M731 1977l266 381l158 -112l-227 -269h-197zM698 1589h-197l232 300h190l232 -300h-198l-129 150zM828 -20c-434 0 -751 295 -751 749c0 455 317 749 751 749s751 -294 751 -749c0 -454 -317 -749 -751 -749zM828 291c235 0 414 166 414 438s-179 438 -414 438
s-412 -166 -412 -438s177 -438 412 -438z" />
    <glyph glyph-name="uni1ED8" unicode="&#x1ed8;" horiz-adv-x="1656" 
d="M698 1589h-197l232 300h190l232 -300h-198l-129 150zM828 -20c-434 0 -751 295 -751 749c0 455 317 749 751 749s751 -294 751 -749c0 -454 -317 -749 -751 -749zM828 291c235 0 414 166 414 438s-179 438 -414 438s-412 -166 -412 -438s177 -438 412 -438zM829 -512
c-101 0 -184 81 -184 182c0 100 83 181 184 181c98 0 181 -81 181 -181c0 -101 -83 -182 -181 -182z" />
    <glyph glyph-name="uni1ED2" unicode="&#x1ed2;" horiz-adv-x="1656" 
d="M730 1977l-227 269l158 112l266 -381h-197zM698 1589h-197l232 300h190l232 -300h-198l-129 150zM828 -20c-434 0 -751 295 -751 749c0 455 317 749 751 749s751 -294 751 -749c0 -454 -317 -749 -751 -749zM828 291c235 0 414 166 414 438s-179 438 -414 438
s-412 -166 -412 -438s177 -438 412 -438z" />
    <glyph glyph-name="uni1ED4" unicode="&#x1ed4;" horiz-adv-x="1656" 
d="M763 1924v140c75 13 108 46 108 93c0 35 -19 62 -63 62c-28 0 -59 -11 -86 -40l-72 105c42 36 100 61 178 61c130 0 201 -71 201 -178c0 -101 -63 -138 -126 -157v-86h-140zM698 1589h-197l232 300h190l232 -300h-198l-129 150zM828 -20c-434 0 -751 295 -751 749
c0 455 317 749 751 749s751 -294 751 -749c0 -454 -317 -749 -751 -749zM828 291c235 0 414 166 414 438s-179 438 -414 438s-412 -166 -412 -438s177 -438 412 -438z" />
    <glyph glyph-name="uni1ED6" unicode="&#x1ed6;" horiz-adv-x="1656" 
d="M980 1992c-94 0 -138 38 -170 75c-30 35 -50 69 -93 69c-53 0 -76 -58 -76 -131h-170c0 159 89 274 239 274c88 0 136 -32 169 -66c37 -36 57 -77 101 -77c49 0 68 51 68 130h172c0 -153 -82 -274 -240 -274zM698 1589h-197l232 300h190l232 -300h-198l-129 150zM828 -20
c-434 0 -751 295 -751 749c0 455 317 749 751 749s751 -294 751 -749c0 -454 -317 -749 -751 -749zM828 291c235 0 414 166 414 438s-179 438 -414 438s-412 -166 -412 -438s177 -438 412 -438z" />
    <glyph glyph-name="Odieresis" unicode="&#xd6;" horiz-adv-x="1656" 
d="M603 1536c-101 0 -184 81 -184 182c0 100 83 181 184 181c98 0 181 -81 181 -181c0 -101 -83 -182 -181 -182zM1053 1536c-101 0 -184 81 -184 182c0 100 83 181 184 181c98 0 181 -81 181 -181c0 -101 -83 -182 -181 -182zM828 -20c-434 0 -751 295 -751 749
c0 455 317 749 751 749s751 -294 751 -749c0 -454 -317 -749 -751 -749zM828 291c235 0 414 166 414 438s-179 438 -414 438s-412 -166 -412 -438s177 -438 412 -438z" />
    <glyph glyph-name="uni1ECC" unicode="&#x1ecc;" horiz-adv-x="1656" 
d="M828 -20c-434 0 -751 295 -751 749c0 455 317 749 751 749s751 -294 751 -749c0 -454 -317 -749 -751 -749zM828 291c235 0 414 166 414 438s-179 438 -414 438s-412 -166 -412 -438s177 -438 412 -438zM829 -512c-101 0 -184 81 -184 182c0 100 83 181 184 181
c98 0 181 -81 181 -181c0 -101 -83 -182 -181 -182z" />
    <glyph glyph-name="Ograve" unicode="&#xd2;" horiz-adv-x="1656" 
d="M730 1589l-227 269l158 112l266 -381h-197zM828 -20c-434 0 -751 295 -751 749c0 455 317 749 751 749s751 -294 751 -749c0 -454 -317 -749 -751 -749zM828 291c235 0 414 166 414 438s-179 438 -414 438s-412 -166 -412 -438s177 -438 412 -438z" />
    <glyph glyph-name="uni1ECE" unicode="&#x1ece;" horiz-adv-x="1656" 
d="M763 1536v140c75 13 108 46 108 93c0 35 -19 62 -63 62c-28 0 -59 -11 -86 -40l-72 105c42 36 100 61 178 61c130 0 201 -71 201 -178c0 -101 -63 -138 -126 -157v-86h-140zM828 -20c-434 0 -751 295 -751 749c0 455 317 749 751 749s751 -294 751 -749
c0 -454 -317 -749 -751 -749zM828 291c235 0 414 166 414 438s-179 438 -414 438s-412 -166 -412 -438s177 -438 412 -438z" />
    <glyph glyph-name="Ohorn" unicode="&#x1a0;" horiz-adv-x="1656" 
d="M1502 1562h151v-186c0 -178 -89 -228 -184 -230c70 -115 110 -256 110 -417c0 -454 -317 -749 -751 -749s-751 295 -751 749c0 455 317 749 751 749c198 0 371 -61 502 -171c30 -12 56 -17 75 -17c74 0 97 28 97 137v135zM828 291c235 0 414 166 414 438
s-179 438 -414 438s-412 -166 -412 -438s177 -438 412 -438z" />
    <glyph glyph-name="uni1EDA" unicode="&#x1eda;" horiz-adv-x="1656" 
d="M1155 1858l-227 -269h-197l266 381zM1502 1562h151v-186c0 -178 -89 -228 -184 -230c70 -115 110 -256 110 -417c0 -454 -317 -749 -751 -749s-751 295 -751 749c0 455 317 749 751 749c198 0 371 -61 502 -171c30 -12 56 -17 75 -17c74 0 97 28 97 137v135zM828 291
c235 0 414 166 414 438s-179 438 -414 438s-412 -166 -412 -438s177 -438 412 -438z" />
    <glyph glyph-name="uni1EE2" unicode="&#x1ee2;" horiz-adv-x="1656" 
d="M1502 1562h151v-186c0 -178 -89 -228 -184 -230c70 -115 110 -256 110 -417c0 -454 -317 -749 -751 -749s-751 295 -751 749c0 455 317 749 751 749c198 0 371 -61 502 -171c30 -12 56 -17 75 -17c74 0 97 28 97 137v135zM828 291c235 0 414 166 414 438
s-179 438 -414 438s-412 -166 -412 -438s177 -438 412 -438zM829 -149c98 0 181 -81 181 -181c0 -101 -83 -182 -181 -182c-101 0 -184 81 -184 182c0 100 83 181 184 181z" />
    <glyph glyph-name="uni1EDC" unicode="&#x1edc;" horiz-adv-x="1656" 
d="M927 1589h-197l-227 269l158 112zM1502 1562h151v-186c0 -178 -89 -228 -184 -230c70 -115 110 -256 110 -417c0 -454 -317 -749 -751 -749s-751 295 -751 749c0 455 317 749 751 749c198 0 371 -61 502 -171c30 -12 56 -17 75 -17c74 0 97 28 97 137v135zM828 291
c235 0 414 166 414 438s-179 438 -414 438s-412 -166 -412 -438s177 -438 412 -438z" />
    <glyph glyph-name="uni1EDE" unicode="&#x1ede;" horiz-adv-x="1656" 
d="M808 1831c-28 0 -59 -11 -86 -40l-72 105c42 36 100 61 178 61c130 0 201 -71 201 -178c0 -101 -63 -138 -126 -157v-86h-140v140c75 13 108 46 108 93c0 35 -19 62 -63 62zM1502 1562h151v-186c0 -178 -89 -228 -184 -230c70 -115 110 -256 110 -417
c0 -454 -317 -749 -751 -749s-751 295 -751 749c0 455 317 749 751 749c198 0 371 -61 502 -171c30 -12 56 -17 75 -17c74 0 97 28 97 137v135zM828 291c235 0 414 166 414 438s-179 438 -414 438s-412 -166 -412 -438s177 -438 412 -438z" />
    <glyph glyph-name="uni1EE0" unicode="&#x1ee0;" horiz-adv-x="1656" 
d="M717 1748c-53 0 -76 -58 -76 -131h-170c0 159 89 274 239 274c88 0 136 -32 169 -66c37 -36 57 -77 101 -77c49 0 68 51 68 130h172c0 -153 -82 -274 -240 -274c-94 0 -138 38 -170 75c-30 35 -50 69 -93 69zM1502 1562h151v-186c0 -178 -89 -228 -184 -230
c70 -115 110 -256 110 -417c0 -454 -317 -749 -751 -749s-751 295 -751 749c0 455 317 749 751 749c198 0 371 -61 502 -171c30 -12 56 -17 75 -17c74 0 97 28 97 137v135zM828 291c235 0 414 166 414 438s-179 438 -414 438s-412 -166 -412 -438s177 -438 412 -438z" />
    <glyph glyph-name="Ohungarumlaut" unicode="&#x150;" horiz-adv-x="1656" 
d="M538 1589l266 381l158 -112l-227 -269h-197zM921 1589l267 381l157 -112l-226 -269h-198zM828 -20c-434 0 -751 295 -751 749c0 455 317 749 751 749s751 -294 751 -749c0 -454 -317 -749 -751 -749zM828 291c235 0 414 166 414 438s-179 438 -414 438
s-412 -166 -412 -438s177 -438 412 -438z" />
    <glyph glyph-name="Omacron" unicode="&#x14c;" horiz-adv-x="1656" 
d="M493 1589v189h670v-189h-670zM828 -20c-434 0 -751 295 -751 749c0 455 317 749 751 749s751 -294 751 -749c0 -454 -317 -749 -751 -749zM828 291c235 0 414 166 414 438s-179 438 -414 438s-412 -166 -412 -438s177 -438 412 -438z" />
    <glyph glyph-name="Oslash" unicode="&#xd8;" horiz-adv-x="1656" 
d="M1323 1313c160 -131 256 -333 256 -584c0 -454 -317 -749 -751 -749c-139 0 -265 30 -373 86l-120 -172l-126 75l123 177c-159 131 -255 333 -255 583c0 455 317 749 751 749c138 0 265 -30 373 -85l120 172l126 -75zM416 729c0 -129 40 -234 107 -309l492 707
c-55 26 -119 40 -187 40c-235 0 -412 -166 -412 -438zM828 291c235 0 414 166 414 438c0 130 -41 235 -109 310l-493 -707c56 -27 119 -41 188 -41z" />
    <glyph glyph-name="Otilde" unicode="&#xd5;" horiz-adv-x="1656" 
d="M980 1604c-94 0 -138 38 -170 75c-30 35 -50 69 -93 69c-53 0 -76 -58 -76 -131h-170c0 159 89 274 239 274c88 0 136 -32 169 -66c37 -36 57 -77 101 -77c49 0 68 51 68 130h172c0 -153 -82 -274 -240 -274zM828 -20c-434 0 -751 295 -751 749c0 455 317 749 751 749
s751 -294 751 -749c0 -454 -317 -749 -751 -749zM828 291c235 0 414 166 414 438s-179 438 -414 438s-412 -166 -412 -438s177 -438 412 -438z" />
    <glyph glyph-name="OE" unicode="&#x152;" horiz-adv-x="2014" 
d="M801 0c-519 0 -724 294 -724 733c0 438 205 725 724 725h1090v-300h-558v-275h472v-300h-472v-283h558v-300h-1090zM819 300h174v858h-174c-301 0 -386 -147 -386 -425s85 -433 386 -433z" />
    <glyph glyph-name="P" unicode="P" horiz-adv-x="1327" 
d="M800 1458c291 0 472 -216 472 -480c0 -269 -181 -470 -472 -470h-284v-508h-341v1458h625zM742 791c142 0 204 73 204 193c0 113 -62 191 -204 191h-226v-384h226z" />
    <glyph glyph-name="Thorn" unicode="&#xde;" horiz-adv-x="1248" 
d="M779 1311c233 0 416 -205 416 -466c0 -250 -183 -447 -416 -447h-274v-398h-330v1536h330v-225h274zM767 688c74 0 132 75 132 167c0 95 -58 166 -132 166h-262v-333h262z" />
    <glyph glyph-name="Q" unicode="Q" horiz-adv-x="1693" 
d="M1632 -57l-280 -107l-183 208c-99 -42 -211 -64 -332 -64c-440 0 -762 295 -762 749c0 455 322 749 762 749c441 0 763 -294 763 -749c0 -214 -71 -392 -193 -521zM414 729c0 -290 182 -456 423 -456c242 0 424 166 424 456c0 272 -182 438 -424 438
c-241 0 -423 -166 -423 -438z" />
    <glyph glyph-name="R" unicode="R" horiz-adv-x="1359" 
d="M939 0l-382 637h-41v-637h-341v1458h544c340 0 478 -198 478 -443c0 -201 -116 -324 -302 -364l448 -651h-404zM516 1178v-320h148c151 0 209 62 209 159s-58 161 -209 161h-148z" />
    <glyph glyph-name="Racute" unicode="&#x154;" horiz-adv-x="1359" 
d="M995 1858l-227 -269h-197l266 381zM939 0l-382 637h-41v-637h-341v1458h544c340 0 478 -198 478 -443c0 -201 -116 -324 -302 -364l448 -651h-404zM516 1178v-320h148c151 0 209 62 209 159s-58 161 -209 161h-148z" />
    <glyph glyph-name="Rcaron" unicode="&#x158;" horiz-adv-x="1359" 
d="M763 1589h-189l-233 300h198l129 -151l130 151h197zM939 0l-382 637h-41v-637h-341v1458h544c340 0 478 -198 478 -443c0 -201 -116 -324 -302 -364l448 -651h-404zM516 1178v-320h148c151 0 209 62 209 159s-58 161 -209 161h-148z" />
    <glyph glyph-name="Rcommaaccent" unicode="&#x156;" horiz-adv-x="1359" 
d="M895 651l448 -651h-404l-382 637h-41v-637h-341v1458h544c340 0 478 -198 478 -443c0 -201 -116 -324 -302 -364zM516 1178v-320h148c151 0 209 62 209 159s-58 161 -209 161h-148zM356 -505l169 376h283l-295 -450z" />
    <glyph glyph-name="S" unicode="S" horiz-adv-x="1306" 
d="M670 -20c-315 0 -567 152 -610 435l353 81c15 -161 125 -241 272 -241c110 0 188 50 187 153c0 124 -151 166 -321 220c-209 68 -438 150 -438 418c0 272 220 432 524 432c256 0 524 -103 584 -393l-328 -81c-24 139 -107 199 -235 199c-112 0 -201 -46 -201 -148
c0 -97 137 -132 295 -181c214 -67 473 -157 473 -447c0 -315 -265 -447 -555 -447z" />
    <glyph glyph-name="Sacute" unicode="&#x15a;" horiz-adv-x="1306" 
d="M561 1589l266 381l158 -112l-227 -269h-197zM670 -20c-315 0 -567 152 -610 435l353 81c15 -161 125 -241 272 -241c110 0 188 50 187 153c0 124 -151 166 -321 220c-209 68 -438 150 -438 418c0 272 220 432 524 432c256 0 524 -103 584 -393l-328 -81
c-24 139 -107 199 -235 199c-112 0 -201 -46 -201 -148c0 -97 137 -132 295 -181c214 -67 473 -157 473 -447c0 -315 -265 -447 -555 -447z" />
    <glyph glyph-name="Scaron" unicode="&#x160;" horiz-adv-x="1306" 
d="M564 1589l-233 300h198l129 -151l130 151h197l-232 -300h-189zM670 -20c-315 0 -567 152 -610 435l353 81c15 -161 125 -241 272 -241c110 0 188 50 187 153c0 124 -151 166 -321 220c-209 68 -438 150 -438 418c0 272 220 432 524 432c256 0 524 -103 584 -393l-328 -81
c-24 139 -107 199 -235 199c-112 0 -201 -46 -201 -148c0 -97 137 -132 295 -181c214 -67 473 -157 473 -447c0 -315 -265 -447 -555 -447z" />
    <glyph glyph-name="Scedilla" unicode="&#x15e;" horiz-adv-x="1306" 
d="M1225 427c0 -296 -234 -430 -502 -446l-60 -99c14 3 29 5 43 5c111 0 193 -79 193 -192c0 -127 -100 -227 -227 -227c-122 0 -211 70 -240 158l142 47c15 -40 55 -61 91 -61c45 0 86 31 86 83c0 55 -41 83 -87 83c-28 0 -55 -11 -71 -33l-115 65l98 175
c-270 27 -477 176 -516 430l353 81c15 -161 125 -241 272 -241c110 0 188 50 187 153c0 124 -151 166 -321 220c-209 68 -438 150 -438 418c0 272 220 432 524 432c256 0 524 -103 584 -393l-328 -81c-24 139 -107 199 -235 199c-112 0 -201 -46 -201 -148
c0 -97 137 -132 295 -181c214 -67 473 -157 473 -447z" />
    <glyph glyph-name="Scommaaccent" unicode="&#x218;" horiz-adv-x="1306" 
d="M670 -20c-315 0 -567 152 -610 435l353 81c15 -161 125 -241 272 -241c110 0 188 50 187 153c0 124 -151 166 -321 220c-209 68 -438 150 -438 418c0 272 220 432 524 432c256 0 524 -103 584 -393l-328 -81c-24 139 -107 199 -235 199c-112 0 -201 -46 -201 -148
c0 -97 137 -132 295 -181c214 -67 473 -157 473 -447c0 -315 -265 -447 -555 -447zM503 -579l-157 74l169 376h283z" />
    <glyph glyph-name="T" unicode="T" horiz-adv-x="1083" 
d="M1048 1458v-298h-337v-1160h-337v1160h-340v298h1014z" />
    <glyph glyph-name="Tbar" unicode="&#x166;" horiz-adv-x="1083" 
d="M1048 1160h-337v-333h190v-196h-190v-631h-337v631h-190v196h190v333h-340v298h1014v-298z" />
    <glyph glyph-name="Tcaron" unicode="&#x164;" horiz-adv-x="1083" 
d="M637 1589h-189l-233 300h198l129 -151l130 151h197zM1048 1458v-298h-337v-1160h-337v1160h-340v298h1014z" />
    <glyph glyph-name="uni0162" unicode="&#x162;" horiz-adv-x="1083" 
d="M711 0h-93l-71 -118c14 3 29 5 43 5c111 0 193 -79 193 -192c0 -127 -100 -227 -227 -227c-122 0 -211 70 -240 158l142 47c15 -40 55 -61 91 -61c45 0 86 31 86 83c0 55 -41 83 -87 83c-28 0 -55 -11 -71 -33l-115 65l106 190h-94v1160h-340v298h1014v-298h-337v-1160z
" />
    <glyph glyph-name="uni021A" unicode="&#x21a;" horiz-adv-x="1083" 
d="M1048 1458v-298h-337v-1160h-337v1160h-340v298h1014zM230 -505l169 376h283l-295 -450z" />
    <glyph glyph-name="U" unicode="U" horiz-adv-x="1458" 
d="M729 -20c-327 0 -584 158 -584 539v939h340v-893c0 -214 108 -286 244 -286s244 72 244 286v893h340v-939c0 -381 -257 -539 -584 -539z" />
    <glyph glyph-name="Uacute" unicode="&#xda;" horiz-adv-x="1458" 
d="M632 1589l266 381l158 -112l-227 -269h-197zM729 -20c-327 0 -584 158 -584 539v939h340v-893c0 -214 108 -286 244 -286s244 72 244 286v893h340v-939c0 -381 -257 -539 -584 -539z" />
    <glyph glyph-name="uni01D3" unicode="&#x1d3;" horiz-adv-x="1458" 
d="M635 1589l-233 300h198l129 -151l130 151h197l-232 -300h-189zM729 -20c-327 0 -584 158 -584 539v939h340v-893c0 -214 108 -286 244 -286s244 72 244 286v893h340v-939c0 -381 -257 -539 -584 -539z" />
    <glyph glyph-name="Ucircumflex" unicode="&#xdb;" horiz-adv-x="1458" 
d="M599 1589h-197l232 300h190l232 -300h-198l-129 150zM729 -20c-327 0 -584 158 -584 539v939h340v-893c0 -214 108 -286 244 -286s244 72 244 286v893h340v-939c0 -381 -257 -539 -584 -539z" />
    <glyph glyph-name="Udieresis" unicode="&#xdc;" horiz-adv-x="1458" 
d="M504 1536c-101 0 -184 81 -184 182c0 100 83 181 184 181c98 0 181 -81 181 -181c0 -101 -83 -182 -181 -182zM954 1536c-101 0 -184 81 -184 182c0 100 83 181 184 181c98 0 181 -81 181 -181c0 -101 -83 -182 -181 -182zM729 -20c-327 0 -584 158 -584 539v939h340
v-893c0 -214 108 -286 244 -286s244 72 244 286v893h340v-939c0 -381 -257 -539 -584 -539z" />
    <glyph glyph-name="uni01D7" unicode="&#x1d7;" horiz-adv-x="1458" 
d="M632 2030l266 381l158 -112l-227 -269h-197zM504 1536c-101 0 -184 81 -184 182c0 100 83 181 184 181c98 0 181 -81 181 -181c0 -101 -83 -182 -181 -182zM954 1536c-101 0 -184 81 -184 182c0 100 83 181 184 181c98 0 181 -81 181 -181c0 -101 -83 -182 -181 -182z
M729 -20c-327 0 -584 158 -584 539v939h340v-893c0 -214 108 -286 244 -286s244 72 244 286v893h340v-939c0 -381 -257 -539 -584 -539z" />
    <glyph glyph-name="uni01D9" unicode="&#x1d9;" horiz-adv-x="1458" 
d="M635 2030l-233 300h198l129 -151l130 151h197l-232 -300h-189zM504 1536c-101 0 -184 81 -184 182c0 100 83 181 184 181c98 0 181 -81 181 -181c0 -101 -83 -182 -181 -182zM954 1536c-101 0 -184 81 -184 182c0 100 83 181 184 181c98 0 181 -81 181 -181
c0 -101 -83 -182 -181 -182zM729 -20c-327 0 -584 158 -584 539v939h340v-893c0 -214 108 -286 244 -286s244 72 244 286v893h340v-939c0 -381 -257 -539 -584 -539z" />
    <glyph glyph-name="uni01DB" unicode="&#x1db;" horiz-adv-x="1458" 
d="M631 2030l-227 269l158 112l266 -381h-197zM504 1536c-101 0 -184 81 -184 182c0 100 83 181 184 181c98 0 181 -81 181 -181c0 -101 -83 -182 -181 -182zM954 1536c-101 0 -184 81 -184 182c0 100 83 181 184 181c98 0 181 -81 181 -181c0 -101 -83 -182 -181 -182z
M729 -20c-327 0 -584 158 -584 539v939h340v-893c0 -214 108 -286 244 -286s244 72 244 286v893h340v-939c0 -381 -257 -539 -584 -539z" />
    <glyph glyph-name="uni01D5" unicode="&#x1d5;" horiz-adv-x="1458" 
d="M394 2030v189h670v-189h-670zM504 1536c-101 0 -184 81 -184 182c0 100 83 181 184 181c98 0 181 -81 181 -181c0 -101 -83 -182 -181 -182zM954 1536c-101 0 -184 81 -184 182c0 100 83 181 184 181c98 0 181 -81 181 -181c0 -101 -83 -182 -181 -182zM729 -20
c-327 0 -584 158 -584 539v939h340v-893c0 -214 108 -286 244 -286s244 72 244 286v893h340v-939c0 -381 -257 -539 -584 -539z" />
    <glyph glyph-name="uni1EE4" unicode="&#x1ee4;" horiz-adv-x="1458" 
d="M729 -20c-327 0 -584 158 -584 539v939h340v-893c0 -214 108 -286 244 -286s244 72 244 286v893h340v-939c0 -381 -257 -539 -584 -539zM730 -512c-101 0 -184 81 -184 182c0 100 83 181 184 181c98 0 181 -81 181 -181c0 -101 -83 -182 -181 -182z" />
    <glyph glyph-name="Ugrave" unicode="&#xd9;" horiz-adv-x="1458" 
d="M631 1589l-227 269l158 112l266 -381h-197zM729 -20c-327 0 -584 158 -584 539v939h340v-893c0 -214 108 -286 244 -286s244 72 244 286v893h340v-939c0 -381 -257 -539 -584 -539z" />
    <glyph glyph-name="uni1EE6" unicode="&#x1ee6;" horiz-adv-x="1458" 
d="M664 1536v140c75 13 108 46 108 93c0 35 -19 62 -63 62c-28 0 -59 -11 -86 -40l-72 105c42 36 100 61 178 61c130 0 201 -71 201 -178c0 -101 -63 -138 -126 -157v-86h-140zM729 -20c-327 0 -584 158 -584 539v939h340v-893c0 -214 108 -286 244 -286s244 72 244 286v893
h340v-939c0 -381 -257 -539 -584 -539z" />
    <glyph glyph-name="Uhorn" unicode="&#x1af;" horiz-adv-x="1458" 
d="M1464 1644h151v-186c0 -182 -93 -230 -191 -230c-32 0 -71 7 -111 20v-729c0 -381 -257 -539 -584 -539s-584 158 -584 539v939h340v-893c0 -214 108 -286 244 -286s244 72 244 286v893h340v-77c21 -6 39 -9 54 -9c74 0 97 28 97 137v135z" />
    <glyph glyph-name="uni1EE8" unicode="&#x1ee8;" horiz-adv-x="1458" 
d="M1056 1858l-227 -269h-197l266 381zM1464 1644h151v-186c0 -182 -93 -230 -191 -230c-32 0 -71 7 -111 20v-729c0 -381 -257 -539 -584 -539s-584 158 -584 539v939h340v-893c0 -214 108 -286 244 -286s244 72 244 286v893h340v-77c21 -6 39 -9 54 -9c74 0 97 28 97 137
v135z" />
    <glyph glyph-name="uni1EF0" unicode="&#x1ef0;" horiz-adv-x="1458" 
d="M1464 1644h151v-186c0 -182 -93 -230 -191 -230c-32 0 -71 7 -111 20v-729c0 -381 -257 -539 -584 -539s-584 158 -584 539v939h340v-893c0 -214 108 -286 244 -286s244 72 244 286v893h340v-77c21 -6 39 -9 54 -9c74 0 97 28 97 137v135zM730 -149
c98 0 181 -81 181 -181c0 -101 -83 -182 -181 -182c-101 0 -184 81 -184 182c0 100 83 181 184 181z" />
    <glyph glyph-name="uni1EEA" unicode="&#x1eea;" horiz-adv-x="1458" 
d="M828 1589h-197l-227 269l158 112zM1464 1644h151v-186c0 -182 -93 -230 -191 -230c-32 0 -71 7 -111 20v-729c0 -381 -257 -539 -584 -539s-584 158 -584 539v939h340v-893c0 -214 108 -286 244 -286s244 72 244 286v893h340v-77c21 -6 39 -9 54 -9c74 0 97 28 97 137
v135z" />
    <glyph glyph-name="uni1EEC" unicode="&#x1eec;" horiz-adv-x="1458" 
d="M709 1831c-28 0 -59 -11 -86 -40l-72 105c42 36 100 61 178 61c130 0 201 -71 201 -178c0 -101 -63 -138 -126 -157v-86h-140v140c75 13 108 46 108 93c0 35 -19 62 -63 62zM1464 1644h151v-186c0 -182 -93 -230 -191 -230c-32 0 -71 7 -111 20v-729
c0 -381 -257 -539 -584 -539s-584 158 -584 539v939h340v-893c0 -214 108 -286 244 -286s244 72 244 286v893h340v-77c21 -6 39 -9 54 -9c74 0 97 28 97 137v135z" />
    <glyph glyph-name="uni1EEE" unicode="&#x1eee;" horiz-adv-x="1458" 
d="M618 1748c-53 0 -76 -58 -76 -131h-170c0 159 89 274 239 274c88 0 136 -32 169 -66c37 -36 57 -77 101 -77c49 0 68 51 68 130h172c0 -153 -82 -274 -240 -274c-94 0 -138 38 -170 75c-30 35 -50 69 -93 69zM1464 1644h151v-186c0 -182 -93 -230 -191 -230
c-32 0 -71 7 -111 20v-729c0 -381 -257 -539 -584 -539s-584 158 -584 539v939h340v-893c0 -214 108 -286 244 -286s244 72 244 286v893h340v-77c21 -6 39 -9 54 -9c74 0 97 28 97 137v135z" />
    <glyph glyph-name="Uhungarumlaut" unicode="&#x170;" horiz-adv-x="1458" 
d="M439 1589l266 381l158 -112l-227 -269h-197zM822 1589l267 381l157 -112l-226 -269h-198zM729 -20c-327 0 -584 158 -584 539v939h340v-893c0 -214 108 -286 244 -286s244 72 244 286v893h340v-939c0 -381 -257 -539 -584 -539z" />
    <glyph glyph-name="Umacron" unicode="&#x16a;" horiz-adv-x="1458" 
d="M394 1589v189h670v-189h-670zM729 -20c-327 0 -584 158 -584 539v939h340v-893c0 -214 108 -286 244 -286s244 72 244 286v893h340v-939c0 -381 -257 -539 -584 -539z" />
    <glyph glyph-name="Uogonek" unicode="&#x172;" horiz-adv-x="1458" 
d="M973 1458h340v-939c0 -236 -99 -387 -252 -467c-71 -65 -148 -150 -148 -197c0 -23 20 -33 54 -33c39 0 90 17 118 44v-201c-43 -19 -100 -30 -155 -30c-109 0 -199 37 -199 114c0 67 60 155 141 242c-45 -7 -93 -11 -143 -11c-327 0 -584 158 -584 539v939h340v-893
c0 -214 108 -286 244 -286s244 72 244 286v893z" />
    <glyph glyph-name="Uring" unicode="&#x16e;" horiz-adv-x="1458" 
d="M729 1589c-138 0 -250 112 -250 250c0 134 112 246 250 246c136 0 247 -112 247 -246c0 -138 -111 -250 -247 -250zM729 1722c65 0 115 47 115 117c0 61 -50 117 -115 117s-113 -56 -113 -117c0 -70 48 -117 113 -117zM729 -20c-327 0 -584 158 -584 539v939h340v-893
c0 -214 108 -286 244 -286s244 72 244 286v893h340v-939c0 -381 -257 -539 -584 -539z" />
    <glyph glyph-name="Utilde" unicode="&#x168;" horiz-adv-x="1458" 
d="M881 1604c-94 0 -138 38 -170 75c-30 35 -50 69 -93 69c-53 0 -76 -58 -76 -131h-170c0 159 89 274 239 274c88 0 136 -32 169 -66c37 -36 57 -77 101 -77c49 0 68 51 68 130h172c0 -153 -82 -274 -240 -274zM729 -20c-327 0 -584 158 -584 539v939h340v-893
c0 -214 108 -286 244 -286s244 72 244 286v893h340v-939c0 -381 -257 -539 -584 -539z" />
    <glyph glyph-name="V" unicode="V" horiz-adv-x="1494" 
d="M1112 1458h362l-539 -1458h-379l-536 1458h362l365 -1065z" />
    <glyph glyph-name="W" unicode="W" horiz-adv-x="2219" 
d="M404 0l-369 1458h354l265 -1073l313 1073h285l311 -1073l267 1073h353l-368 -1458h-445l-261 829l-260 -829h-445z" />
    <glyph glyph-name="Wacute" unicode="&#x1e82;" horiz-adv-x="2219" 
d="M1012 1589l266 381l158 -112l-227 -269h-197zM404 0l-369 1458h354l265 -1073l313 1073h285l311 -1073l267 1073h353l-368 -1458h-445l-261 829l-260 -829h-445z" />
    <glyph glyph-name="Wcircumflex" unicode="&#x174;" horiz-adv-x="2219" 
d="M979 1589h-197l232 300h190l232 -300h-198l-129 150zM404 0l-369 1458h354l265 -1073l313 1073h285l311 -1073l267 1073h353l-368 -1458h-445l-261 829l-260 -829h-445z" />
    <glyph glyph-name="Wdieresis" unicode="&#x1e84;" horiz-adv-x="2219" 
d="M884 1536c-101 0 -184 81 -184 182c0 100 83 181 184 181c98 0 181 -81 181 -181c0 -101 -83 -182 -181 -182zM1334 1536c-101 0 -184 81 -184 182c0 100 83 181 184 181c98 0 181 -81 181 -181c0 -101 -83 -182 -181 -182zM404 0l-369 1458h354l265 -1073l313 1073h285
l311 -1073l267 1073h353l-368 -1458h-445l-261 829l-260 -829h-445z" />
    <glyph glyph-name="Wgrave" unicode="&#x1e80;" horiz-adv-x="2219" 
d="M1011 1589l-227 269l158 112l266 -381h-197zM404 0l-369 1458h354l265 -1073l313 1073h285l311 -1073l267 1073h353l-368 -1458h-445l-261 829l-260 -829h-445z" />
    <glyph glyph-name="X" unicode="X" horiz-adv-x="1579" 
d="M20 0l568 760l-555 698h413l344 -450l343 450h413l-555 -698l568 -760h-433l-336 482l-337 -482h-433z" />
    <glyph glyph-name="Y" unicode="Y" horiz-adv-x="1317" 
d="M1310 1458l-479 -761v-697h-341v692l-483 766h375l277 -463l278 463h373z" />
    <glyph glyph-name="Yacute" unicode="&#xdd;" horiz-adv-x="1317" 
d="M986 1858l-227 -269h-197l266 381zM1310 1458l-479 -761v-697h-341v692l-483 766h375l277 -463l278 463h373z" />
    <glyph glyph-name="Ycircumflex" unicode="&#x176;" horiz-adv-x="1317" 
d="M659 1739l-130 -150h-197l232 300h190l232 -300h-198zM1310 1458l-479 -761v-697h-341v692l-483 766h375l277 -463l278 463h373z" />
    <glyph glyph-name="Ydieresis" unicode="&#x178;" horiz-adv-x="1317" 
d="M434 1536c-101 0 -184 81 -184 182c0 100 83 181 184 181c98 0 181 -81 181 -181c0 -101 -83 -182 -181 -182zM884 1536c-101 0 -184 81 -184 182c0 100 83 181 184 181c98 0 181 -81 181 -181c0 -101 -83 -182 -181 -182zM1310 1458l-479 -761v-697h-341v692l-483 766
h375l277 -463l278 463h373z" />
    <glyph glyph-name="uni1EF4" unicode="&#x1ef4;" horiz-adv-x="1317" 
d="M490 0v692l-483 766h375l277 -463l278 463h373l-479 -761v-697h-341zM662 -149c98 0 181 -81 181 -181c0 -101 -83 -182 -181 -182c-101 0 -184 81 -184 182c0 100 83 181 184 181z" />
    <glyph glyph-name="Ygrave" unicode="&#x1ef2;" horiz-adv-x="1317" 
d="M758 1589h-197l-227 269l158 112zM1310 1458l-479 -761v-697h-341v692l-483 766h375l277 -463l278 463h373z" />
    <glyph glyph-name="uni1EF6" unicode="&#x1ef6;" horiz-adv-x="1317" 
d="M639 1831c-28 0 -59 -11 -86 -40l-72 105c42 36 100 61 178 61c130 0 201 -71 201 -178c0 -101 -63 -138 -126 -157v-86h-140v140c75 13 108 46 108 93c0 35 -19 62 -63 62zM1310 1458l-479 -761v-697h-341v692l-483 766h375l277 -463l278 463h373z" />
    <glyph glyph-name="uni1EF8" unicode="&#x1ef8;" horiz-adv-x="1317" 
d="M548 1748c-53 0 -76 -58 -76 -131h-170c0 159 89 274 239 274c88 0 136 -32 169 -66c37 -36 57 -77 101 -77c49 0 68 51 68 130h172c0 -153 -82 -274 -240 -274c-94 0 -138 38 -170 75c-30 35 -50 69 -93 69zM1310 1458l-479 -761v-697h-341v692l-483 766h375l277 -463
l278 463h373z" />
    <glyph glyph-name="Z" unicode="Z" horiz-adv-x="1233" 
d="M494 300h651v-300h-1057v267l648 893h-647v298h1048v-267z" />
    <glyph glyph-name="Zacute" unicode="&#x179;" horiz-adv-x="1233" 
d="M972 1858l-227 -269h-197l266 381zM494 300h651v-300h-1057v267l648 893h-647v298h1048v-267z" />
    <glyph glyph-name="Zcaron" unicode="&#x17d;" horiz-adv-x="1233" 
d="M740 1589h-189l-233 300h198l129 -151l130 151h197zM494 300h651v-300h-1057v267l648 893h-647v298h1048v-267z" />
    <glyph glyph-name="Zdotaccent" unicode="&#x17b;" horiz-adv-x="1233" 
d="M646 1536c-101 0 -184 81 -184 182c0 100 83 181 184 181c98 0 181 -81 181 -181c0 -101 -83 -182 -181 -182zM494 300h651v-300h-1057v267l648 893h-647v298h1048v-267z" />
    <glyph glyph-name="G.ss02" horiz-adv-x="1612" 
d="M834 -20c-451 0 -757 294 -757 745c0 458 317 753 751 753c287 0 522 -127 649 -344l-299 -159c-70 141 -196 210 -350 210c-235 0 -410 -163 -410 -451c0 -275 158 -461 440 -461c180 0 330 82 353 263h-369v271h690c7 -60 10 -117 8 -170c-7 -474 -353 -657 -706 -657z
" />
    <glyph glyph-name="Gbreve.ss02" horiz-adv-x="1612" 
d="M823 1589c-221 0 -373 76 -373 303h186c0 -107 72 -154 187 -154c117 0 189 47 189 154h185c0 -227 -151 -303 -374 -303zM834 -20c-451 0 -757 294 -757 745c0 458 317 753 751 753c287 0 522 -127 649 -344l-299 -159c-70 141 -196 210 -350 210
c-235 0 -410 -163 -410 -451c0 -275 158 -461 440 -461c180 0 330 82 353 263h-369v271h690c7 -60 10 -117 8 -170c-7 -474 -353 -657 -706 -657z" />
    <glyph glyph-name="Gcommaaccent.ss02" horiz-adv-x="1612" 
d="M834 -20c-451 0 -757 294 -757 745c0 458 317 753 751 753c287 0 522 -127 649 -344l-299 -159c-70 141 -196 210 -350 210c-235 0 -410 -163 -410 -451c0 -275 158 -461 440 -461c180 0 330 82 353 263h-369v271h690c7 -60 10 -117 8 -170c-7 -474 -353 -657 -706 -657z
M668 -579l-157 74l169 376h283z" />
    <glyph glyph-name="Gdotaccent.ss02" horiz-adv-x="1612" 
d="M824 1536c-101 0 -184 81 -184 182c0 100 83 181 184 181c98 0 181 -81 181 -181c0 -101 -83 -182 -181 -182zM834 -20c-451 0 -757 294 -757 745c0 458 317 753 751 753c287 0 522 -127 649 -344l-299 -159c-70 141 -196 210 -350 210c-235 0 -410 -163 -410 -451
c0 -275 158 -461 440 -461c180 0 330 82 353 263h-369v271h690c7 -60 10 -117 8 -170c-7 -474 -353 -657 -706 -657z" />
    <glyph glyph-name="G.ss03" horiz-adv-x="1612" 
d="M834 -20c-451 0 -757 294 -757 745c0 458 317 753 751 753c287 0 522 -127 649 -344l-299 -159c-70 141 -196 210 -350 210c-235 0 -410 -163 -410 -451c0 -275 158 -461 440 -461c180 0 330 82 353 263h-369v271h690c7 -60 10 -117 8 -170c-7 -474 -353 -657 -706 -657z
" />
    <glyph glyph-name="Gbreve.ss03" horiz-adv-x="1612" 
d="M823 1589c-221 0 -373 76 -373 303h186c0 -107 72 -154 187 -154c117 0 189 47 189 154h185c0 -227 -151 -303 -374 -303zM834 -20c-451 0 -757 294 -757 745c0 458 317 753 751 753c287 0 522 -127 649 -344l-299 -159c-70 141 -196 210 -350 210
c-235 0 -410 -163 -410 -451c0 -275 158 -461 440 -461c180 0 330 82 353 263h-369v271h690c7 -60 10 -117 8 -170c-7 -474 -353 -657 -706 -657z" />
    <glyph glyph-name="Gcommaaccent.ss03" horiz-adv-x="1612" 
d="M834 -20c-451 0 -757 294 -757 745c0 458 317 753 751 753c287 0 522 -127 649 -344l-299 -159c-70 141 -196 210 -350 210c-235 0 -410 -163 -410 -451c0 -275 158 -461 440 -461c180 0 330 82 353 263h-369v271h690c7 -60 10 -117 8 -170c-7 -474 -353 -657 -706 -657z
M668 -579l-157 74l169 376h283z" />
    <glyph glyph-name="Gdotaccent.ss03" horiz-adv-x="1612" 
d="M824 1536c-101 0 -184 81 -184 182c0 100 83 181 184 181c98 0 181 -81 181 -181c0 -101 -83 -182 -181 -182zM834 -20c-451 0 -757 294 -757 745c0 458 317 753 751 753c287 0 522 -127 649 -344l-299 -159c-70 141 -196 210 -350 210c-235 0 -410 -163 -410 -451
c0 -275 158 -461 440 -461c180 0 330 82 353 263h-369v271h690c7 -60 10 -117 8 -170c-7 -474 -353 -657 -706 -657z" />
    <glyph glyph-name="a" unicode="a" horiz-adv-x="1148" 
d="M1026 274c0 -112 12 -201 25 -244v-30h-301l-23 111c-75 -92 -213 -131 -334 -131c-162 0 -327 70 -327 290c0 218 164 290 378 340l169 41c78 18 103 42 103 83c0 87 -88 108 -160 108c-100 0 -173 -38 -191 -150l-288 50c47 222 207 321 499 321
c210 0 450 -54 450 -380v-409zM496 197c117 0 237 84 237 268l-241 -74c-64 -18 -115 -41 -115 -99c0 -63 54 -95 119 -95z" />
    <glyph glyph-name="aacute" unicode="&#xe1;" horiz-adv-x="1148" 
d="M902 1446l-227 -270h-197l266 382zM1026 274c0 -112 12 -201 25 -244v-30h-301l-23 111c-75 -92 -213 -131 -334 -131c-162 0 -327 70 -327 290c0 218 164 290 378 340l169 41c78 18 103 42 103 83c0 87 -88 108 -160 108c-100 0 -173 -38 -191 -150l-288 50
c47 222 207 321 499 321c210 0 450 -54 450 -380v-409zM496 197c117 0 237 84 237 268l-241 -74c-64 -18 -115 -41 -115 -99c0 -63 54 -95 119 -95z" />
    <glyph glyph-name="abreve" unicode="&#x103;" horiz-adv-x="1148" 
d="M575 1159c-221 0 -372 118 -372 362h202c0 -125 55 -212 170 -212c117 0 172 87 172 212h203c0 -244 -152 -362 -375 -362zM1026 274c0 -112 12 -201 25 -244v-30h-301l-23 111c-75 -92 -213 -131 -334 -131c-162 0 -327 70 -327 290c0 218 164 290 378 340l169 41
c78 18 103 42 103 83c0 87 -88 108 -160 108c-100 0 -173 -38 -191 -150l-288 50c47 222 207 321 499 321c210 0 450 -54 450 -380v-409zM496 197c117 0 237 84 237 268l-241 -74c-64 -18 -115 -41 -115 -99c0 -63 54 -95 119 -95z" />
    <glyph glyph-name="uni1EAF" unicode="&#x1eaf;" horiz-adv-x="1148" 
d="M902 1923l-227 -270h-197l266 382zM575 1159c-221 0 -372 118 -372 362h202c0 -125 55 -212 170 -212c117 0 172 87 172 212h203c0 -244 -152 -362 -375 -362zM1026 274c0 -112 12 -201 25 -244v-30h-301l-23 111c-75 -92 -213 -131 -334 -131c-162 0 -327 70 -327 290
c0 218 164 290 378 340l169 41c78 18 103 42 103 83c0 87 -88 108 -160 108c-100 0 -173 -38 -191 -150l-288 50c47 222 207 321 499 321c210 0 450 -54 450 -380v-409zM496 197c117 0 237 84 237 268l-241 -74c-64 -18 -115 -41 -115 -99c0 -63 54 -95 119 -95z" />
    <glyph glyph-name="uni1EB7" unicode="&#x1eb7;" horiz-adv-x="1148" 
d="M575 1159c-221 0 -372 118 -372 362h202c0 -125 55 -212 170 -212c117 0 172 87 172 212h203c0 -244 -152 -362 -375 -362zM1026 274c0 -112 12 -201 25 -244v-30h-301l-23 111c-75 -92 -213 -131 -334 -131c-162 0 -327 70 -327 290c0 218 164 290 378 340l169 41
c78 18 103 42 103 83c0 87 -88 108 -160 108c-100 0 -173 -38 -191 -150l-288 50c47 222 207 321 499 321c210 0 450 -54 450 -380v-409zM496 197c117 0 237 84 237 268l-241 -74c-64 -18 -115 -41 -115 -99c0 -63 54 -95 119 -95zM638 -149c98 0 181 -81 181 -181
c0 -101 -83 -182 -181 -182c-101 0 -184 81 -184 182c0 100 83 181 184 181z" />
    <glyph glyph-name="uni1EB1" unicode="&#x1eb1;" horiz-adv-x="1148" 
d="M674 1653h-197l-227 270l158 112zM575 1159c-221 0 -372 118 -372 362h202c0 -125 55 -212 170 -212c117 0 172 87 172 212h203c0 -244 -152 -362 -375 -362zM1026 274c0 -112 12 -201 25 -244v-30h-301l-23 111c-75 -92 -213 -131 -334 -131c-162 0 -327 70 -327 290
c0 218 164 290 378 340l169 41c78 18 103 42 103 83c0 87 -88 108 -160 108c-100 0 -173 -38 -191 -150l-288 50c47 222 207 321 499 321c210 0 450 -54 450 -380v-409zM496 197c117 0 237 84 237 268l-241 -74c-64 -18 -115 -41 -115 -99c0 -63 54 -95 119 -95z" />
    <glyph glyph-name="uni1EB3" unicode="&#x1eb3;" horiz-adv-x="1148" 
d="M555 1893c-28 0 -59 -12 -86 -41l-72 106c42 36 100 60 178 60c130 0 201 -71 201 -177c0 -102 -63 -138 -126 -158v-86h-140v141c75 12 108 45 108 92c0 36 -19 63 -63 63zM575 1159c-221 0 -372 118 -372 362h202c0 -125 55 -212 170 -212c117 0 172 87 172 212h203
c0 -244 -152 -362 -375 -362zM1026 274c0 -112 12 -201 25 -244v-30h-301l-23 111c-75 -92 -213 -131 -334 -131c-162 0 -327 70 -327 290c0 218 164 290 378 340l169 41c78 18 103 42 103 83c0 87 -88 108 -160 108c-100 0 -173 -38 -191 -150l-288 50
c47 222 207 321 499 321c210 0 450 -54 450 -380v-409zM496 197c117 0 237 84 237 268l-241 -74c-64 -18 -115 -41 -115 -99c0 -63 54 -95 119 -95z" />
    <glyph glyph-name="uni1EB5" unicode="&#x1eb5;" horiz-adv-x="1148" 
d="M480 1784c-44 0 -63 -54 -63 -127h-150c0 159 77 274 208 274c81 0 143 -46 180 -105c12 -19 25 -34 52 -34c44 0 60 49 60 126h152c0 -154 -72 -273 -208 -273c-77 0 -136 34 -180 104c-16 25 -31 35 -51 35zM575 1159c-221 0 -372 118 -372 362h202
c0 -125 55 -212 170 -212c117 0 172 87 172 212h203c0 -244 -152 -362 -375 -362zM1026 274c0 -112 12 -201 25 -244v-30h-301l-23 111c-75 -92 -213 -131 -334 -131c-162 0 -327 70 -327 290c0 218 164 290 378 340l169 41c78 18 103 42 103 83c0 87 -88 108 -160 108
c-100 0 -173 -38 -191 -150l-288 50c47 222 207 321 499 321c210 0 450 -54 450 -380v-409zM496 197c117 0 237 84 237 268l-241 -74c-64 -18 -115 -41 -115 -99c0 -63 54 -95 119 -95z" />
    <glyph glyph-name="uni01CE" unicode="&#x1ce;" horiz-adv-x="1148" 
d="M670 1221h-189l-233 300h198l129 -151l130 151h197zM1026 274c0 -112 12 -201 25 -244v-30h-301l-23 111c-75 -92 -213 -131 -334 -131c-162 0 -327 70 -327 290c0 218 164 290 378 340l169 41c78 18 103 42 103 83c0 87 -88 108 -160 108c-100 0 -173 -38 -191 -150
l-288 50c47 222 207 321 499 321c210 0 450 -54 450 -380v-409zM496 197c117 0 237 84 237 268l-241 -74c-64 -18 -115 -41 -115 -99c0 -63 54 -95 119 -95z" />
    <glyph glyph-name="acircumflex" unicode="&#xe2;" horiz-adv-x="1148" 
d="M575 1372l-130 -151h-197l232 300h190l232 -300h-198zM1026 274c0 -112 12 -201 25 -244v-30h-301l-23 111c-75 -92 -213 -131 -334 -131c-162 0 -327 70 -327 290c0 218 164 290 378 340l169 41c78 18 103 42 103 83c0 87 -88 108 -160 108c-100 0 -173 -38 -191 -150
l-288 50c47 222 207 321 499 321c210 0 450 -54 450 -380v-409zM496 197c117 0 237 84 237 268l-241 -74c-64 -18 -115 -41 -115 -99c0 -63 54 -95 119 -95z" />
    <glyph glyph-name="uni1EA5" unicode="&#x1ea5;" horiz-adv-x="1148" 
d="M902 1923l-227 -270h-197l266 382zM575 1372l-130 -151h-197l232 300h190l232 -300h-198zM1026 274c0 -112 12 -201 25 -244v-30h-301l-23 111c-75 -92 -213 -131 -334 -131c-162 0 -327 70 -327 290c0 218 164 290 378 340l169 41c78 18 103 42 103 83
c0 87 -88 108 -160 108c-100 0 -173 -38 -191 -150l-288 50c47 222 207 321 499 321c210 0 450 -54 450 -380v-409zM496 197c117 0 237 84 237 268l-241 -74c-64 -18 -115 -41 -115 -99c0 -63 54 -95 119 -95z" />
    <glyph glyph-name="uni1EAD" unicode="&#x1ead;" horiz-adv-x="1148" 
d="M575 1372l-130 -151h-197l232 300h190l232 -300h-198zM1026 274c0 -112 12 -201 25 -244v-30h-301l-23 111c-75 -92 -213 -131 -334 -131c-162 0 -327 70 -327 290c0 218 164 290 378 340l169 41c78 18 103 42 103 83c0 87 -88 108 -160 108c-100 0 -173 -38 -191 -150
l-288 50c47 222 207 321 499 321c210 0 450 -54 450 -380v-409zM496 197c117 0 237 84 237 268l-241 -74c-64 -18 -115 -41 -115 -99c0 -63 54 -95 119 -95zM638 -149c98 0 181 -81 181 -181c0 -101 -83 -182 -181 -182c-101 0 -184 81 -184 182c0 100 83 181 184 181z" />
    <glyph glyph-name="uni1EA7" unicode="&#x1ea7;" horiz-adv-x="1148" 
d="M674 1653h-197l-227 270l158 112zM575 1372l-130 -151h-197l232 300h190l232 -300h-198zM1026 274c0 -112 12 -201 25 -244v-30h-301l-23 111c-75 -92 -213 -131 -334 -131c-162 0 -327 70 -327 290c0 218 164 290 378 340l169 41c78 18 103 42 103 83
c0 87 -88 108 -160 108c-100 0 -173 -38 -191 -150l-288 50c47 222 207 321 499 321c210 0 450 -54 450 -380v-409zM496 197c117 0 237 84 237 268l-241 -74c-64 -18 -115 -41 -115 -99c0 -63 54 -95 119 -95z" />
    <glyph glyph-name="uni1EA9" unicode="&#x1ea9;" horiz-adv-x="1148" 
d="M555 1893c-28 0 -59 -12 -86 -41l-72 106c42 36 100 60 178 60c130 0 201 -71 201 -177c0 -102 -63 -138 -126 -158v-86h-140v141c75 12 108 45 108 92c0 36 -19 63 -63 63zM575 1372l-130 -151h-197l232 300h190l232 -300h-198zM1026 274c0 -112 12 -201 25 -244v-30
h-301l-23 111c-75 -92 -213 -131 -334 -131c-162 0 -327 70 -327 290c0 218 164 290 378 340l169 41c78 18 103 42 103 83c0 87 -88 108 -160 108c-100 0 -173 -38 -191 -150l-288 50c47 222 207 321 499 321c210 0 450 -54 450 -380v-409zM496 197c117 0 237 84 237 268
l-241 -74c-64 -18 -115 -41 -115 -99c0 -63 54 -95 119 -95z" />
    <glyph glyph-name="uni1EAB" unicode="&#x1eab;" horiz-adv-x="1148" 
d="M480 1784c-44 0 -63 -54 -63 -127h-150c0 159 77 274 208 274c81 0 143 -46 180 -105c12 -19 25 -34 52 -34c44 0 60 49 60 126h152c0 -154 -72 -273 -208 -273c-77 0 -136 34 -180 104c-16 25 -31 35 -51 35zM575 1372l-130 -151h-197l232 300h190l232 -300h-198z
M1026 274c0 -112 12 -201 25 -244v-30h-301l-23 111c-75 -92 -213 -131 -334 -131c-162 0 -327 70 -327 290c0 218 164 290 378 340l169 41c78 18 103 42 103 83c0 87 -88 108 -160 108c-100 0 -173 -38 -191 -150l-288 50c47 222 207 321 499 321c210 0 450 -54 450 -380
v-409zM496 197c117 0 237 84 237 268l-241 -74c-64 -18 -115 -41 -115 -99c0 -63 54 -95 119 -95z" />
    <glyph glyph-name="adieresis" unicode="&#xe4;" horiz-adv-x="1148" 
d="M350 1172c-101 0 -184 81 -184 182c0 100 83 181 184 181c98 0 181 -81 181 -181c0 -101 -83 -182 -181 -182zM800 1172c-101 0 -184 81 -184 182c0 100 83 181 184 181c98 0 181 -81 181 -181c0 -101 -83 -182 -181 -182zM1026 274c0 -112 12 -201 25 -244v-30h-301
l-23 111c-75 -92 -213 -131 -334 -131c-162 0 -327 70 -327 290c0 218 164 290 378 340l169 41c78 18 103 42 103 83c0 87 -88 108 -160 108c-100 0 -173 -38 -191 -150l-288 50c47 222 207 321 499 321c210 0 450 -54 450 -380v-409zM496 197c117 0 237 84 237 268
l-241 -74c-64 -18 -115 -41 -115 -99c0 -63 54 -95 119 -95z" />
    <glyph glyph-name="uni1EA1" unicode="&#x1ea1;" horiz-adv-x="1148" 
d="M1026 274c0 -112 12 -201 25 -244v-30h-301l-23 111c-75 -92 -213 -131 -334 -131c-162 0 -327 70 -327 290c0 218 164 290 378 340l169 41c78 18 103 42 103 83c0 87 -88 108 -160 108c-100 0 -173 -38 -191 -150l-288 50c47 222 207 321 499 321
c210 0 450 -54 450 -380v-409zM496 197c117 0 237 84 237 268l-241 -74c-64 -18 -115 -41 -115 -99c0 -63 54 -95 119 -95zM638 -149c98 0 181 -81 181 -181c0 -101 -83 -182 -181 -182c-101 0 -184 81 -184 182c0 100 83 181 184 181z" />
    <glyph glyph-name="agrave" unicode="&#xe0;" horiz-adv-x="1148" 
d="M674 1176h-197l-227 270l158 112zM1026 274c0 -112 12 -201 25 -244v-30h-301l-23 111c-75 -92 -213 -131 -334 -131c-162 0 -327 70 -327 290c0 218 164 290 378 340l169 41c78 18 103 42 103 83c0 87 -88 108 -160 108c-100 0 -173 -38 -191 -150l-288 50
c47 222 207 321 499 321c210 0 450 -54 450 -380v-409zM496 197c117 0 237 84 237 268l-241 -74c-64 -18 -115 -41 -115 -99c0 -63 54 -95 119 -95z" />
    <glyph glyph-name="uni1EA3" unicode="&#x1ea3;" horiz-adv-x="1148" 
d="M555 1416c-28 0 -59 -12 -86 -41l-72 106c42 36 100 60 178 60c130 0 201 -71 201 -177c0 -102 -63 -138 -126 -158v-86h-140v141c75 12 108 45 108 92c0 36 -19 63 -63 63zM1026 274c0 -112 12 -201 25 -244v-30h-301l-23 111c-75 -92 -213 -131 -334 -131
c-162 0 -327 70 -327 290c0 218 164 290 378 340l169 41c78 18 103 42 103 83c0 87 -88 108 -160 108c-100 0 -173 -38 -191 -150l-288 50c47 222 207 321 499 321c210 0 450 -54 450 -380v-409zM496 197c117 0 237 84 237 268l-241 -74c-64 -18 -115 -41 -115 -99
c0 -63 54 -95 119 -95z" />
    <glyph glyph-name="amacron" unicode="&#x101;" horiz-adv-x="1148" 
d="M910 1393v-189h-670v189h670zM1026 274c0 -112 12 -201 25 -244v-30h-301l-23 111c-75 -92 -213 -131 -334 -131c-162 0 -327 70 -327 290c0 218 164 290 378 340l169 41c78 18 103 42 103 83c0 87 -88 108 -160 108c-100 0 -173 -38 -191 -150l-288 50
c47 222 207 321 499 321c210 0 450 -54 450 -380v-409zM496 197c117 0 237 84 237 268l-241 -74c-64 -18 -115 -41 -115 -99c0 -63 54 -95 119 -95z" />
    <glyph glyph-name="aogonek" unicode="&#x105;" horiz-adv-x="1148" 
d="M1051 0c-77 -66 -172 -166 -172 -218c0 -23 20 -33 54 -33c39 0 90 17 118 44v-201c-43 -19 -100 -30 -155 -30c-109 0 -199 37 -199 114c0 88 105 214 224 324h-171l-23 111c-75 -92 -213 -131 -334 -131c-162 0 -327 70 -327 290c0 218 164 290 378 340l169 41
c78 18 103 42 103 83c0 87 -88 108 -160 108c-100 0 -173 -38 -191 -150l-288 50c47 222 207 321 499 321c210 0 450 -54 450 -380v-409c0 -112 12 -201 25 -244v-30zM496 197c117 0 237 84 237 268l-241 -74c-64 -18 -115 -41 -115 -99c0 -63 54 -95 119 -95z" />
    <glyph glyph-name="aring" unicode="&#xe5;" horiz-adv-x="1148" 
d="M575 1149c-138 0 -250 113 -250 250c0 135 112 247 250 247c136 0 247 -112 247 -247c0 -137 -111 -250 -247 -250zM575 1517c-65 0 -113 -56 -113 -118c0 -70 48 -116 113 -116s115 46 115 116c0 62 -50 118 -115 118zM1026 274c0 -112 12 -201 25 -244v-30h-301
l-23 111c-75 -92 -213 -131 -334 -131c-162 0 -327 70 -327 290c0 218 164 290 378 340l169 41c78 18 103 42 103 83c0 87 -88 108 -160 108c-100 0 -173 -38 -191 -150l-288 50c47 222 207 321 499 321c210 0 450 -54 450 -380v-409zM496 197c117 0 237 84 237 268
l-241 -74c-64 -18 -115 -41 -115 -99c0 -63 54 -95 119 -95z" />
    <glyph glyph-name="atilde" unicode="&#xe3;" horiz-adv-x="1148" 
d="M480 1307c-44 0 -63 -54 -63 -127h-150c0 159 77 274 208 274c81 0 143 -46 180 -105c12 -19 25 -34 52 -34c44 0 60 49 60 126h152c0 -154 -72 -273 -208 -273c-77 0 -136 34 -180 104c-16 25 -31 35 -51 35zM1026 274c0 -112 12 -201 25 -244v-30h-301l-23 111
c-75 -92 -213 -131 -334 -131c-162 0 -327 70 -327 290c0 218 164 290 378 340l169 41c78 18 103 42 103 83c0 87 -88 108 -160 108c-100 0 -173 -38 -191 -150l-288 50c47 222 207 321 499 321c210 0 450 -54 450 -380v-409zM496 197c117 0 237 84 237 268l-241 -74
c-64 -18 -115 -41 -115 -99c0 -63 54 -95 119 -95z" />
    <glyph glyph-name="ae" unicode="&#xe6;" horiz-adv-x="1843" 
d="M1784 535l-4 -86h-759c18 -145 121 -214 246 -214c95 0 167 41 203 125l299 -41c-70 -223 -258 -339 -510 -339c-179 0 -326 57 -425 161h-3c-117 -108 -261 -161 -420 -161c-185 0 -343 75 -343 283c0 236 206 297 407 340l140 30c78 17 103 46 103 92
c0 92 -87 117 -163 117c-100 0 -177 -41 -190 -167l-290 46c42 237 202 342 503 342c121 0 246 -18 331 -96c93 65 212 99 349 99c299 0 524 -161 526 -531zM1250 841c-109 0 -191 -50 -220 -170h432c-17 110 -92 170 -212 170zM504 231c80 0 171 42 216 118
c-9 33 -15 68 -19 104l-181 -44c-85 -20 -133 -47 -133 -98c0 -54 51 -80 117 -80z" />
    <glyph glyph-name="b" unicode="b" horiz-adv-x="1336" 
d="M772 1064c276 0 506 -201 506 -545s-230 -544 -506 -544c-137 0 -258 50 -316 143l-7 -118h-309v1536h326v-600c60 83 177 128 306 128zM695 244c144 0 257 102 257 275c0 174 -113 276 -257 276s-256 -105 -256 -276s112 -275 256 -275z" />
    <glyph glyph-name="c" unicode="c" horiz-adv-x="1196" 
d="M625 -20c-338 0 -572 219 -572 543c0 323 234 541 572 541c274 0 476 -140 522 -396l-301 -30c-27 119 -108 171 -225 171c-147 0 -242 -116 -242 -286c0 -171 95 -286 242 -286c117 0 198 52 225 171l301 -30c-46 -256 -255 -398 -522 -398z" />
    <glyph glyph-name="cacute" unicode="&#x107;" horiz-adv-x="1196" 
d="M511 1176l266 382l158 -112l-227 -270h-197zM625 -20c-338 0 -572 219 -572 543c0 323 234 541 572 541c274 0 476 -140 522 -396l-301 -30c-27 119 -108 171 -225 171c-147 0 -242 -116 -242 -286c0 -171 95 -286 242 -286c117 0 198 52 225 171l301 -30
c-46 -256 -255 -398 -522 -398z" />
    <glyph glyph-name="ccaron" unicode="&#x10d;" horiz-adv-x="1196" 
d="M514 1221l-233 300h198l129 -151l130 151h197l-232 -300h-189zM625 -20c-338 0 -572 219 -572 543c0 323 234 541 572 541c274 0 476 -140 522 -396l-301 -30c-27 119 -108 171 -225 171c-147 0 -242 -116 -242 -286c0 -171 95 -286 242 -286c117 0 198 52 225 171
l301 -30c-46 -256 -255 -398 -522 -398z" />
    <glyph glyph-name="ccedilla" unicode="&#xe7;" horiz-adv-x="1196" 
d="M621 237c117 0 198 52 225 171l301 -30c-43 -241 -230 -380 -474 -396l-60 -100c14 3 29 5 43 5c111 0 193 -79 193 -192c0 -127 -100 -227 -227 -227c-122 0 -211 70 -240 158l142 47c15 -40 55 -61 91 -61c45 0 86 31 86 83c0 55 -41 83 -87 83c-28 0 -55 -11 -71 -33
l-115 65l98 177c-284 38 -473 245 -473 536c0 323 234 541 572 541c274 0 476 -140 522 -396l-301 -30c-27 119 -108 171 -225 171c-147 0 -242 -116 -242 -286c0 -171 95 -286 242 -286z" />
    <glyph glyph-name="cdotaccent" unicode="&#x10b;" horiz-adv-x="1196" 
d="M609 1172c-101 0 -184 81 -184 182c0 100 83 181 184 181c98 0 181 -81 181 -181c0 -101 -83 -182 -181 -182zM625 -20c-338 0 -572 219 -572 543c0 323 234 541 572 541c274 0 476 -140 522 -396l-301 -30c-27 119 -108 171 -225 171c-147 0 -242 -116 -242 -286
c0 -171 95 -286 242 -286c117 0 198 52 225 171l301 -30c-46 -256 -255 -398 -522 -398z" />
    <glyph glyph-name="d" unicode="d" horiz-adv-x="1336" 
d="M870 1536h326v-1536h-308l-8 117c-57 -92 -179 -142 -315 -142c-277 0 -506 200 -506 544s230 545 506 545c128 0 244 -44 305 -127v599zM641 244c144 0 256 104 256 275s-112 276 -256 276s-256 -102 -256 -276c0 -173 112 -275 256 -275z" />
    <glyph glyph-name="eth" unicode="&#xf0;" horiz-adv-x="1195" 
d="M1014 886c93 -135 130 -253 129 -371c0 -303 -235 -535 -541 -535c-290 0 -548 221 -549 532c-1 318 191 501 445 540c14 2 31 3 50 2l-123 171l-232 -59l-25 90l198 50l-166 230h364l106 -153l197 50l23 -90l-164 -42zM613 269c146 0 230 109 227 259
c-2 143 -93 253 -233 253c-148 0 -234 -111 -233 -260c0 -148 99 -252 239 -252z" />
    <glyph glyph-name="dcaron" unicode="&#x10f;" horiz-adv-x="1590" 
d="M521 -20c-261 0 -457 201 -457 545c0 343 197 544 457 544c130 0 244 -51 323 -144v611h326v-1536h-326v124c-79 -93 -193 -144 -323 -144zM1305 871l127 665h334l-229 -665h-232zM641 249c141 0 247 105 247 276c0 170 -108 275 -247 275c-142 0 -251 -102 -251 -275
c0 -174 109 -276 251 -276z" />
    <glyph glyph-name="dcroat" unicode="&#x111;" horiz-adv-x="1336" 
d="M1327 1384v-196h-131v-1188h-308l-8 117c-57 -92 -179 -142 -315 -142c-277 0 -506 200 -506 544s230 545 506 545c128 0 244 -44 305 -127v251h-260v196h260v152h326v-152h131zM641 244c144 0 256 104 256 275s-112 276 -256 276s-256 -102 -256 -276
c0 -173 112 -275 256 -275z" />
    <glyph glyph-name="e" unicode="e" horiz-adv-x="1205" 
d="M1143 535l-4 -77h-759c14 -151 118 -223 245 -223c96 0 169 41 204 125l300 -41c-67 -217 -260 -339 -502 -339c-349 0 -570 198 -570 541c0 344 228 545 559 545c300 0 525 -161 527 -531zM618 838c-120 0 -201 -50 -229 -170h433c-18 112 -99 170 -204 170z" />
    <glyph glyph-name="eacute" unicode="&#xe9;" horiz-adv-x="1205" 
d="M952 1448l-227 -270h-197l266 382zM1143 535l-4 -77h-759c14 -151 118 -223 245 -223c96 0 169 41 204 125l300 -41c-67 -217 -260 -339 -502 -339c-349 0 -570 198 -570 541c0 344 228 545 559 545c300 0 525 -161 527 -531zM618 838c-120 0 -201 -50 -229 -170h433
c-18 112 -99 170 -204 170z" />
    <glyph glyph-name="ecaron" unicode="&#x11b;" horiz-adv-x="1205" 
d="M720 1223h-189l-233 300h198l129 -151l130 151h197zM1143 535l-4 -77h-759c14 -151 118 -223 245 -223c96 0 169 41 204 125l300 -41c-67 -217 -260 -339 -502 -339c-349 0 -570 198 -570 541c0 344 228 545 559 545c300 0 525 -161 527 -531zM618 838
c-120 0 -201 -50 -229 -170h433c-18 112 -99 170 -204 170z" />
    <glyph glyph-name="ecircumflex" unicode="&#xea;" horiz-adv-x="1205" 
d="M625 1374l-130 -151h-197l232 300h190l232 -300h-198zM1143 535l-4 -77h-759c14 -151 118 -223 245 -223c96 0 169 41 204 125l300 -41c-67 -217 -260 -339 -502 -339c-349 0 -570 198 -570 541c0 344 228 545 559 545c300 0 525 -161 527 -531zM618 838
c-120 0 -201 -50 -229 -170h433c-18 112 -99 170 -204 170z" />
    <glyph glyph-name="uni1EBF" unicode="&#x1ebf;" horiz-adv-x="1205" 
d="M952 1925l-227 -270h-197l266 382zM625 1374l-130 -151h-197l232 300h190l232 -300h-198zM1143 535l-4 -77h-759c14 -151 118 -223 245 -223c96 0 169 41 204 125l300 -41c-67 -217 -260 -339 -502 -339c-349 0 -570 198 -570 541c0 344 228 545 559 545
c300 0 525 -161 527 -531zM618 838c-120 0 -201 -50 -229 -170h433c-18 112 -99 170 -204 170z" />
    <glyph glyph-name="uni1EC7" unicode="&#x1ec7;" horiz-adv-x="1205" 
d="M625 1374l-130 -151h-197l232 300h190l232 -300h-198zM1143 535l-4 -77h-759c14 -151 118 -223 245 -223c96 0 169 41 204 125l300 -41c-67 -217 -260 -339 -502 -339c-349 0 -570 198 -570 541c0 344 228 545 559 545c300 0 525 -161 527 -531zM618 838
c-120 0 -201 -50 -229 -170h433c-18 112 -99 170 -204 170zM641 -151c98 0 181 -81 181 -181c0 -101 -83 -182 -181 -182c-101 0 -184 81 -184 182c0 100 83 181 184 181z" />
    <glyph glyph-name="uni1EC1" unicode="&#x1ec1;" horiz-adv-x="1205" 
d="M724 1655h-197l-227 270l158 112zM625 1374l-130 -151h-197l232 300h190l232 -300h-198zM1143 535l-4 -77h-759c14 -151 118 -223 245 -223c96 0 169 41 204 125l300 -41c-67 -217 -260 -339 -502 -339c-349 0 -570 198 -570 541c0 344 228 545 559 545
c300 0 525 -161 527 -531zM618 838c-120 0 -201 -50 -229 -170h433c-18 112 -99 170 -204 170z" />
    <glyph glyph-name="uni1EC3" unicode="&#x1ec3;" horiz-adv-x="1205" 
d="M605 1895c-28 0 -59 -12 -86 -41l-72 106c42 36 100 60 178 60c130 0 201 -71 201 -177c0 -102 -63 -138 -126 -158v-86h-140v141c75 12 108 45 108 92c0 36 -19 63 -63 63zM625 1374l-130 -151h-197l232 300h190l232 -300h-198zM1143 535l-4 -77h-759
c14 -151 118 -223 245 -223c96 0 169 41 204 125l300 -41c-67 -217 -260 -339 -502 -339c-349 0 -570 198 -570 541c0 344 228 545 559 545c300 0 525 -161 527 -531zM618 838c-120 0 -201 -50 -229 -170h433c-18 112 -99 170 -204 170z" />
    <glyph glyph-name="uni1EC5" unicode="&#x1ec5;" horiz-adv-x="1205" 
d="M530 1786c-44 0 -63 -54 -63 -127h-150c0 159 77 274 208 274c81 0 143 -46 180 -105c12 -19 25 -34 52 -34c44 0 60 49 60 126h152c0 -154 -72 -273 -208 -273c-77 0 -136 34 -180 104c-16 25 -31 35 -51 35zM625 1374l-130 -151h-197l232 300h190l232 -300h-198z
M1143 535l-4 -77h-759c14 -151 118 -223 245 -223c96 0 169 41 204 125l300 -41c-67 -217 -260 -339 -502 -339c-349 0 -570 198 -570 541c0 344 228 545 559 545c300 0 525 -161 527 -531zM618 838c-120 0 -201 -50 -229 -170h433c-18 112 -99 170 -204 170z" />
    <glyph glyph-name="edieresis" unicode="&#xeb;" horiz-adv-x="1205" 
d="M400 1174c-101 0 -184 81 -184 182c0 100 83 181 184 181c98 0 181 -81 181 -181c0 -101 -83 -182 -181 -182zM850 1174c-101 0 -184 81 -184 182c0 100 83 181 184 181c98 0 181 -81 181 -181c0 -101 -83 -182 -181 -182zM1143 535l-4 -77h-759
c14 -151 118 -223 245 -223c96 0 169 41 204 125l300 -41c-67 -217 -260 -339 -502 -339c-349 0 -570 198 -570 541c0 344 228 545 559 545c300 0 525 -161 527 -531zM618 838c-120 0 -201 -50 -229 -170h433c-18 112 -99 170 -204 170z" />
    <glyph glyph-name="edotaccent" unicode="&#x117;" horiz-adv-x="1205" 
d="M626 1174c-101 0 -184 81 -184 182c0 100 83 181 184 181c98 0 181 -81 181 -181c0 -101 -83 -182 -181 -182zM1143 535l-4 -77h-759c14 -151 118 -223 245 -223c96 0 169 41 204 125l300 -41c-67 -217 -260 -339 -502 -339c-349 0 -570 198 -570 541
c0 344 228 545 559 545c300 0 525 -161 527 -531zM618 838c-120 0 -201 -50 -229 -170h433c-18 112 -99 170 -204 170z" />
    <glyph glyph-name="uni1EB9" unicode="&#x1eb9;" horiz-adv-x="1205" 
d="M1143 535l-4 -77h-759c14 -151 118 -223 245 -223c96 0 169 41 204 125l300 -41c-67 -217 -260 -339 -502 -339c-349 0 -570 198 -570 541c0 344 228 545 559 545c300 0 525 -161 527 -531zM618 838c-120 0 -201 -50 -229 -170h433c-18 112 -99 170 -204 170zM641 -151
c98 0 181 -81 181 -181c0 -101 -83 -182 -181 -182c-101 0 -184 81 -184 182c0 100 83 181 184 181z" />
    <glyph glyph-name="egrave" unicode="&#xe8;" horiz-adv-x="1205" 
d="M724 1178h-197l-227 270l158 112zM1143 535l-4 -77h-759c14 -151 118 -223 245 -223c96 0 169 41 204 125l300 -41c-67 -217 -260 -339 -502 -339c-349 0 -570 198 -570 541c0 344 228 545 559 545c300 0 525 -161 527 -531zM618 838c-120 0 -201 -50 -229 -170h433
c-18 112 -99 170 -204 170z" />
    <glyph glyph-name="uni1EBB" unicode="&#x1ebb;" horiz-adv-x="1205" 
d="M605 1418c-28 0 -59 -12 -86 -41l-72 106c42 36 100 60 178 60c130 0 201 -71 201 -177c0 -102 -63 -138 -126 -158v-86h-140v141c75 12 108 45 108 92c0 36 -19 63 -63 63zM1143 535l-4 -77h-759c14 -151 118 -223 245 -223c96 0 169 41 204 125l300 -41
c-67 -217 -260 -339 -502 -339c-349 0 -570 198 -570 541c0 344 228 545 559 545c300 0 525 -161 527 -531zM618 838c-120 0 -201 -50 -229 -170h433c-18 112 -99 170 -204 170z" />
    <glyph glyph-name="emacron" unicode="&#x113;" horiz-adv-x="1205" 
d="M960 1395v-189h-670v189h670zM1143 535l-4 -77h-759c14 -151 118 -223 245 -223c96 0 169 41 204 125l300 -41c-67 -217 -260 -339 -502 -339c-349 0 -570 198 -570 541c0 344 228 545 559 545c300 0 525 -161 527 -531zM618 838c-120 0 -201 -50 -229 -170h433
c-18 112 -99 170 -204 170z" />
    <glyph glyph-name="eogonek" unicode="&#x119;" horiz-adv-x="1205" 
d="M1143 535l-4 -77h-759c14 -151 118 -223 245 -223c96 0 169 41 204 125l300 -41c-20 -65 -51 -121 -92 -168l2 -1l-10 -9c-16 -18 -34 -35 -54 -50c-57 -57 -108 -121 -108 -159c0 -23 20 -33 54 -33c39 0 90 17 118 44v-201c-43 -19 -100 -30 -155 -30
c-109 0 -199 37 -199 114c0 48 31 107 78 168c-43 -9 -89 -14 -136 -14c-349 0 -570 198 -570 541c0 344 228 545 559 545c300 0 525 -161 527 -531zM618 838c-120 0 -201 -50 -229 -170h433c-18 112 -99 170 -204 170z" />
    <glyph glyph-name="uni1EBD" unicode="&#x1ebd;" horiz-adv-x="1205" 
d="M530 1309c-44 0 -63 -54 -63 -127h-150c0 159 77 274 208 274c81 0 143 -46 180 -105c12 -19 25 -34 52 -34c44 0 60 49 60 126h152c0 -154 -72 -273 -208 -273c-77 0 -136 34 -180 104c-16 25 -31 35 -51 35zM1143 535l-4 -77h-759c14 -151 118 -223 245 -223
c96 0 169 41 204 125l300 -41c-67 -217 -260 -339 -502 -339c-349 0 -570 198 -570 541c0 344 228 545 559 545c300 0 525 -161 527 -531zM618 838c-120 0 -201 -50 -229 -170h433c-18 112 -99 170 -204 170z" />
    <glyph glyph-name="f" unicode="f" horiz-adv-x="774" 
d="M763 1278c-90 0 -218 5 -218 -156v-78h218v-249h-218v-795h-326v795h-205v249h205v79c0 362 224 413 544 413v-258z" />
    <glyph glyph-name="g" unicode="g" horiz-adv-x="1297" 
d="M846 1044h311v-959c0 -421 -230 -577 -568 -577c-311 0 -473 129 -548 326l271 112c59 -128 135 -186 264 -186c174 0 253 106 253 301v102c-60 -73 -172 -125 -302 -125c-257 0 -475 201 -475 516c0 314 218 510 478 510c141 0 254 -58 309 -142zM613 300
c141 0 248 110 248 254c0 143 -105 253 -248 253c-142 0 -247 -107 -247 -253s107 -254 247 -254z" />
    <glyph glyph-name="gbreve" unicode="&#x11f;" horiz-adv-x="1297" 
d="M642 1159c-221 0 -372 118 -372 362h202c0 -125 55 -212 170 -212c117 0 172 87 172 212h203c0 -244 -152 -362 -375 -362zM846 1044h311v-959c0 -421 -230 -577 -568 -577c-311 0 -473 129 -548 326l271 112c59 -128 135 -186 264 -186c174 0 253 106 253 301v102
c-60 -73 -172 -125 -302 -125c-257 0 -475 201 -475 516c0 314 218 510 478 510c141 0 254 -58 309 -142zM613 300c141 0 248 110 248 254c0 143 -105 253 -248 253c-142 0 -247 -107 -247 -253s107 -254 247 -254z" />
    <glyph glyph-name="gcommaaccent" unicode="&#x123;" horiz-adv-x="1297" 
d="M880 1519l-126 -334h-334l228 334h232zM846 1044h311v-959c0 -421 -230 -577 -568 -577c-311 0 -473 129 -548 326l271 112c59 -128 135 -186 264 -186c174 0 253 106 253 301v102c-60 -73 -172 -125 -302 -125c-257 0 -475 201 -475 516c0 314 218 510 478 510
c141 0 254 -58 309 -142zM613 300c141 0 248 110 248 254c0 143 -105 253 -248 253c-142 0 -247 -107 -247 -253s107 -254 247 -254z" />
    <glyph glyph-name="gdotaccent" unicode="&#x121;" horiz-adv-x="1297" 
d="M643 1172c-101 0 -184 81 -184 182c0 100 83 181 184 181c98 0 181 -81 181 -181c0 -101 -83 -182 -181 -182zM846 1044h311v-959c0 -421 -230 -577 -568 -577c-311 0 -473 129 -548 326l271 112c59 -128 135 -186 264 -186c174 0 253 106 253 301v102
c-60 -73 -172 -125 -302 -125c-257 0 -475 201 -475 516c0 314 218 510 478 510c141 0 254 -58 309 -142zM613 300c141 0 248 110 248 254c0 143 -105 253 -248 253c-142 0 -247 -107 -247 -253s107 -254 247 -254z" />
    <glyph glyph-name="h" unicode="h" horiz-adv-x="1310" 
d="M812 1064c243 0 380 -132 380 -397v-667h-328v615c0 145 -78 189 -177 189c-100 0 -219 -44 -221 -244v-560h-326v1536h326v-616c77 89 196 144 346 144z" />
    <glyph glyph-name="hbar" unicode="&#x127;" horiz-adv-x="1310" 
d="M812 1064c243 0 380 -132 380 -397v-667h-328v615c0 145 -78 189 -177 189c-100 0 -219 -44 -221 -244v-560h-326v1189h-118v196h118v151h326v-151h273v-196h-273v-269c77 89 196 144 346 144z" />
    <glyph glyph-name="i" unicode="i" horiz-adv-x="608" 
d="M306 1172c-101 0 -184 81 -184 182c0 100 83 181 184 181c98 0 181 -81 181 -181c0 -101 -83 -182 -181 -182zM140 0v1044h328v-1044h-328z" />
    <glyph glyph-name="dotlessi" unicode="&#x131;" horiz-adv-x="608" 
d="M140 0v1044h328v-1044h-328z" />
    <glyph glyph-name="iacute" unicode="&#xed;" horiz-adv-x="608" 
d="M208 1176l266 382l158 -112l-227 -270h-197zM140 0v1044h328v-1044h-328z" />
    <glyph glyph-name="uni01D0" unicode="&#x1d0;" horiz-adv-x="608" 
d="M211 1221l-233 300h198l129 -151l130 151h197l-232 -300h-189zM140 0v1044h328v-1044h-328z" />
    <glyph glyph-name="icircumflex" unicode="&#xee;" horiz-adv-x="608" 
d="M175 1221h-197l232 300h190l232 -300h-198l-129 151zM140 0v1044h328v-1044h-328z" />
    <glyph glyph-name="idieresis" unicode="&#xef;" horiz-adv-x="608" 
d="M80 1172c-101 0 -184 81 -184 182c0 100 83 181 184 181c98 0 181 -81 181 -181c0 -101 -83 -182 -181 -182zM530 1172c-101 0 -184 81 -184 182c0 100 83 181 184 181c98 0 181 -81 181 -181c0 -101 -83 -182 -181 -182zM140 0v1044h328v-1044h-328z" />
    <glyph glyph-name="i.loclTRK" horiz-adv-x="608" 
d="M306 1172c-101 0 -184 81 -184 182c0 100 83 181 184 181c98 0 181 -81 181 -181c0 -101 -83 -182 -181 -182zM140 0v1044h328v-1044h-328z" />
    <glyph glyph-name="uni1ECB" unicode="&#x1ecb;" horiz-adv-x="608" 
d="M306 1172c-101 0 -184 81 -184 182c0 100 83 181 184 181c98 0 181 -81 181 -181c0 -101 -83 -182 -181 -182zM140 0v1044h328v-1044h-328zM306 -512c-101 0 -184 81 -184 182c0 100 83 181 184 181c98 0 181 -81 181 -181c0 -101 -83 -182 -181 -182z" />
    <glyph glyph-name="igrave" unicode="&#xec;" horiz-adv-x="608" 
d="M207 1176l-227 270l158 112l266 -382h-197zM140 0v1044h328v-1044h-328z" />
    <glyph glyph-name="uni1EC9" unicode="&#x1ec9;" horiz-adv-x="608" 
d="M240 1120v141c75 12 108 45 108 92c0 36 -19 63 -63 63c-28 0 -59 -12 -86 -41l-72 106c42 36 100 60 178 60c130 0 201 -71 201 -177c0 -102 -63 -138 -126 -158v-86h-140zM140 0v1044h328v-1044h-328z" />
    <glyph glyph-name="imacron" unicode="&#x12b;" horiz-adv-x="608" 
d="M-30 1204v189h670v-189h-670zM140 0v1044h328v-1044h-328z" />
    <glyph glyph-name="iogonek" unicode="&#x12f;" horiz-adv-x="608" 
d="M306 1172c-101 0 -184 81 -184 182c0 100 83 181 184 181c98 0 181 -81 181 -181c0 -101 -83 -182 -181 -182zM140 0v1044h328v-1044c-77 -66 -172 -166 -172 -218c0 -23 20 -33 54 -33c39 0 90 17 118 44v-201c-43 -19 -100 -30 -155 -30c-109 0 -199 37 -199 114
c0 88 105 214 224 324h-198z" />
    <glyph glyph-name="itilde" unicode="&#x129;" horiz-adv-x="608" 
d="M441 1168c-77 0 -136 34 -180 104c-16 25 -31 35 -51 35c-44 0 -63 -54 -63 -127h-150c0 159 77 274 208 274c81 0 143 -46 180 -105c12 -19 25 -34 52 -34c44 0 60 49 60 126h152c0 -154 -72 -273 -208 -273zM140 0v1044h328v-1044h-328z" />
    <glyph glyph-name="j" unicode="j" horiz-adv-x="612" 
d="M308 1172c-101 0 -184 81 -184 182c0 100 83 181 184 181c98 0 181 -81 181 -181c0 -101 -83 -182 -181 -182zM-64 -490v252c176 0 204 80 204 280v1002h332v-1002c0 -356 -152 -532 -536 -532z" />
    <glyph glyph-name="uni0237" unicode="&#x237;" horiz-adv-x="612" 
d="M-64 -490v252c176 0 204 80 204 280v1002h332v-1002c0 -356 -152 -532 -536 -532z" />
    <glyph glyph-name="k" unicode="k" horiz-adv-x="1226" 
d="M840 0l-318 424h-52v-424h-330v1536h330v-889h46l319 397h365l-409 -488l442 -556h-393z" />
    <glyph glyph-name="kcommaaccent" unicode="&#x137;" horiz-adv-x="1226" 
d="M791 556l442 -556h-393l-318 424h-52v-424h-330v1536h330v-889h46l319 397h365zM300 -505l169 376h283l-295 -450z" />
    <glyph glyph-name="l" unicode="l" horiz-adv-x="610" 
d="M140 0v1536h330v-1536h-330z" />
    <glyph glyph-name="lacute" unicode="&#x13a;" horiz-adv-x="610" 
d="M208 1668l266 382l158 -112l-227 -270h-197zM140 0v1536h330v-1536h-330z" />
    <glyph glyph-name="lcaron" unicode="&#x13e;" horiz-adv-x="869" 
d="M140 0v1536h329v-1536h-329zM585 871l126 665h334l-228 -665h-232z" />
    <glyph glyph-name="lcommaaccent" unicode="&#x13c;" horiz-adv-x="610" 
d="M140 0v1536h330v-1536h-330zM150 -579l-157 74l169 376h283z" />
    <glyph glyph-name="lslash" unicode="&#x142;" horiz-adv-x="610" 
d="M637 1148v-201l-167 -124v-823h-330v579l-169 -125v200l169 125v757h330v-512z" />
    <glyph glyph-name="m" unicode="m" horiz-adv-x="1929" 
d="M1429 1064c232 0 378 -113 378 -326v-738h-327v644c0 112 -71 160 -152 160c-98 0 -189 -53 -189 -233v-571h-330v642c0 113 -70 162 -155 162c-95 0 -189 -53 -189 -251v-553h-325v1044h325v-120c72 90 179 140 307 140c157 0 273 -54 329 -152c76 102 189 152 328 152z
" />
    <glyph glyph-name="n" unicode="n" horiz-adv-x="1312" 
d="M795 1064c261 0 397 -132 397 -362v-702h-328v633c0 127 -80 171 -174 171c-113 0 -222 -53 -224 -244v-560h-326v1044h326v-112c75 83 190 132 329 132z" />
    <glyph glyph-name="nacute" unicode="&#x144;" horiz-adv-x="1312" 
d="M979 1446l-227 -270h-197l266 382zM795 1064c261 0 397 -132 397 -362v-702h-328v633c0 127 -80 171 -174 171c-113 0 -222 -53 -224 -244v-560h-326v1044h326v-112c75 83 190 132 329 132z" />
    <glyph glyph-name="ncaron" unicode="&#x148;" horiz-adv-x="1312" 
d="M747 1221h-189l-233 300h198l129 -151l130 151h197zM795 1064c261 0 397 -132 397 -362v-702h-328v633c0 127 -80 171 -174 171c-113 0 -222 -53 -224 -244v-560h-326v1044h326v-112c75 83 190 132 329 132z" />
    <glyph glyph-name="ncommaaccent" unicode="&#x146;" horiz-adv-x="1312" 
d="M795 1064c261 0 397 -132 397 -362v-702h-328v633c0 127 -80 171 -174 171c-113 0 -222 -53 -224 -244v-560h-326v1044h326v-112c75 83 190 132 329 132zM340 -505l169 376h283l-295 -450z" />
    <glyph glyph-name="eng" unicode="&#x14b;" horiz-adv-x="1312" 
d="M812 1064c245 0 381 -132 381 -364v-832c0 -216 -133 -359 -361 -359h-196v228h102c72 0 127 22 127 113v783c0 127 -81 171 -176 171c-112 0 -221 -51 -223 -242v-562h-326v1044h326v-122c77 88 197 142 346 142z" />
    <glyph glyph-name="ntilde" unicode="&#xf1;" horiz-adv-x="1312" 
d="M557 1307c-44 0 -63 -54 -63 -127h-150c0 159 77 274 208 274c81 0 143 -46 180 -105c12 -19 25 -34 52 -34c44 0 60 49 60 126h152c0 -154 -72 -273 -208 -273c-77 0 -136 34 -180 104c-16 25 -31 35 -51 35zM795 1064c261 0 397 -132 397 -362v-702h-328v633
c0 127 -80 171 -174 171c-113 0 -222 -53 -224 -244v-560h-326v1044h326v-112c75 83 190 132 329 132z" />
    <glyph glyph-name="o" unicode="o" horiz-adv-x="1283" 
d="M641 -20c-343 0 -586 200 -586 543c0 341 241 541 586 541c346 0 587 -200 587 -541c0 -343 -242 -543 -587 -543zM637 236c161 0 267 116 267 287c0 170 -106 286 -267 286c-154 0 -258 -116 -258 -286c0 -171 104 -287 258 -287z" />
    <glyph glyph-name="oacute" unicode="&#xf3;" horiz-adv-x="1283" 
d="M544 1174l266 382l158 -112l-227 -270h-197zM641 -20c-343 0 -586 200 -586 543c0 341 241 541 586 541c346 0 587 -200 587 -541c0 -343 -242 -543 -587 -543zM637 236c161 0 267 116 267 287c0 170 -106 286 -267 286c-154 0 -258 -116 -258 -286
c0 -171 104 -287 258 -287z" />
    <glyph glyph-name="uni01D2" unicode="&#x1d2;" horiz-adv-x="1283" 
d="M547 1219l-233 300h198l129 -151l130 151h197l-232 -300h-189zM641 -20c-343 0 -586 200 -586 543c0 341 241 541 586 541c346 0 587 -200 587 -541c0 -343 -242 -543 -587 -543zM637 236c161 0 267 116 267 287c0 170 -106 286 -267 286c-154 0 -258 -116 -258 -286
c0 -171 104 -287 258 -287z" />
    <glyph glyph-name="ocircumflex" unicode="&#xf4;" horiz-adv-x="1283" 
d="M511 1219h-197l232 300h190l232 -300h-198l-129 151zM641 -20c-343 0 -586 200 -586 543c0 341 241 541 586 541c346 0 587 -200 587 -541c0 -343 -242 -543 -587 -543zM637 236c161 0 267 116 267 287c0 170 -106 286 -267 286c-154 0 -258 -116 -258 -286
c0 -171 104 -287 258 -287z" />
    <glyph glyph-name="uni1ED1" unicode="&#x1ed1;" horiz-adv-x="1283" 
d="M544 1651l266 382l158 -112l-227 -270h-197zM511 1219h-197l232 300h190l232 -300h-198l-129 151zM641 -20c-343 0 -586 200 -586 543c0 341 241 541 586 541c346 0 587 -200 587 -541c0 -343 -242 -543 -587 -543zM637 236c161 0 267 116 267 287
c0 170 -106 286 -267 286c-154 0 -258 -116 -258 -286c0 -171 104 -287 258 -287z" />
    <glyph glyph-name="uni1ED9" unicode="&#x1ed9;" horiz-adv-x="1283" 
d="M511 1219h-197l232 300h190l232 -300h-198l-129 151zM641 -20c-343 0 -586 200 -586 543c0 341 241 541 586 541c346 0 587 -200 587 -541c0 -343 -242 -543 -587 -543zM637 236c161 0 267 116 267 287c0 170 -106 286 -267 286c-154 0 -258 -116 -258 -286
c0 -171 104 -287 258 -287zM642 -512c-101 0 -184 81 -184 182c0 100 83 181 184 181c98 0 181 -81 181 -181c0 -101 -83 -182 -181 -182z" />
    <glyph glyph-name="uni1ED3" unicode="&#x1ed3;" horiz-adv-x="1283" 
d="M543 1651l-227 270l158 112l266 -382h-197zM511 1219h-197l232 300h190l232 -300h-198l-129 151zM641 -20c-343 0 -586 200 -586 543c0 341 241 541 586 541c346 0 587 -200 587 -541c0 -343 -242 -543 -587 -543zM637 236c161 0 267 116 267 287
c0 170 -106 286 -267 286c-154 0 -258 -116 -258 -286c0 -171 104 -287 258 -287z" />
    <glyph glyph-name="uni1ED5" unicode="&#x1ed5;" horiz-adv-x="1283" 
d="M576 1595v141c75 12 108 45 108 92c0 36 -19 63 -63 63c-28 0 -59 -12 -86 -41l-72 106c42 36 100 60 178 60c130 0 201 -71 201 -177c0 -102 -63 -138 -126 -158v-86h-140zM511 1219h-197l232 300h190l232 -300h-198l-129 151zM641 -20c-343 0 -586 200 -586 543
c0 341 241 541 586 541c346 0 587 -200 587 -541c0 -343 -242 -543 -587 -543zM637 236c161 0 267 116 267 287c0 170 -106 286 -267 286c-154 0 -258 -116 -258 -286c0 -171 104 -287 258 -287z" />
    <glyph glyph-name="uni1ED7" unicode="&#x1ed7;" horiz-adv-x="1283" 
d="M777 1643c-77 0 -136 34 -180 104c-16 25 -31 35 -51 35c-44 0 -63 -54 -63 -127h-150c0 159 77 274 208 274c81 0 143 -46 180 -105c12 -19 25 -34 52 -34c44 0 60 49 60 126h152c0 -154 -72 -273 -208 -273zM511 1219h-197l232 300h190l232 -300h-198l-129 151z
M641 -20c-343 0 -586 200 -586 543c0 341 241 541 586 541c346 0 587 -200 587 -541c0 -343 -242 -543 -587 -543zM637 236c161 0 267 116 267 287c0 170 -106 286 -267 286c-154 0 -258 -116 -258 -286c0 -171 104 -287 258 -287z" />
    <glyph glyph-name="odieresis" unicode="&#xf6;" horiz-adv-x="1283" 
d="M416 1170c-101 0 -184 81 -184 182c0 100 83 181 184 181c98 0 181 -81 181 -181c0 -101 -83 -182 -181 -182zM866 1170c-101 0 -184 81 -184 182c0 100 83 181 184 181c98 0 181 -81 181 -181c0 -101 -83 -182 -181 -182zM641 -20c-343 0 -586 200 -586 543
c0 341 241 541 586 541c346 0 587 -200 587 -541c0 -343 -242 -543 -587 -543zM637 236c161 0 267 116 267 287c0 170 -106 286 -267 286c-154 0 -258 -116 -258 -286c0 -171 104 -287 258 -287z" />
    <glyph glyph-name="uni1ECD" unicode="&#x1ecd;" horiz-adv-x="1283" 
d="M641 -20c-343 0 -586 200 -586 543c0 341 241 541 586 541c346 0 587 -200 587 -541c0 -343 -242 -543 -587 -543zM637 236c161 0 267 116 267 287c0 170 -106 286 -267 286c-154 0 -258 -116 -258 -286c0 -171 104 -287 258 -287zM642 -512c-101 0 -184 81 -184 182
c0 100 83 181 184 181c98 0 181 -81 181 -181c0 -101 -83 -182 -181 -182z" />
    <glyph glyph-name="ograve" unicode="&#xf2;" horiz-adv-x="1283" 
d="M543 1174l-227 270l158 112l266 -382h-197zM641 -20c-343 0 -586 200 -586 543c0 341 241 541 586 541c346 0 587 -200 587 -541c0 -343 -242 -543 -587 -543zM637 236c161 0 267 116 267 287c0 170 -106 286 -267 286c-154 0 -258 -116 -258 -286
c0 -171 104 -287 258 -287z" />
    <glyph glyph-name="uni1ECF" unicode="&#x1ecf;" horiz-adv-x="1283" 
d="M576 1118v141c75 12 108 45 108 92c0 36 -19 63 -63 63c-28 0 -59 -12 -86 -41l-72 106c42 36 100 60 178 60c130 0 201 -71 201 -177c0 -102 -63 -138 -126 -158v-86h-140zM641 -20c-343 0 -586 200 -586 543c0 341 241 541 586 541c346 0 587 -200 587 -541
c0 -343 -242 -543 -587 -543zM637 236c161 0 267 116 267 287c0 170 -106 286 -267 286c-154 0 -258 -116 -258 -286c0 -171 104 -287 258 -287z" />
    <glyph glyph-name="ohorn" unicode="&#x1a1;" horiz-adv-x="1283" 
d="M1162 1216h151v-186c0 -158 -70 -215 -153 -227c44 -78 68 -172 68 -280c0 -343 -242 -543 -587 -543c-343 0 -586 200 -586 543c0 341 241 541 586 541c156 0 290 -41 391 -116c12 -3 24 -4 33 -4c74 0 97 28 97 137v135zM637 236c161 0 267 116 267 287
c0 170 -106 286 -267 286c-154 0 -258 -116 -258 -286c0 -171 104 -287 258 -287z" />
    <glyph glyph-name="uni1EDB" unicode="&#x1edb;" horiz-adv-x="1283" 
d="M968 1444l-227 -270h-197l266 382zM1162 1216h151v-186c0 -158 -70 -215 -153 -227c44 -78 68 -172 68 -280c0 -343 -242 -543 -587 -543c-343 0 -586 200 -586 543c0 341 241 541 586 541c156 0 290 -41 391 -116c12 -3 24 -4 33 -4c74 0 97 28 97 137v135zM637 236
c161 0 267 116 267 287c0 170 -106 286 -267 286c-154 0 -258 -116 -258 -286c0 -171 104 -287 258 -287z" />
    <glyph glyph-name="uni1EE3" unicode="&#x1ee3;" horiz-adv-x="1283" 
d="M1162 1216h151v-186c0 -158 -70 -215 -153 -227c44 -78 68 -172 68 -280c0 -343 -242 -543 -587 -543c-343 0 -586 200 -586 543c0 341 241 541 586 541c156 0 290 -41 391 -116c12 -3 24 -4 33 -4c74 0 97 28 97 137v135zM637 236c161 0 267 116 267 287
c0 170 -106 286 -267 286c-154 0 -258 -116 -258 -286c0 -171 104 -287 258 -287zM642 -149c98 0 181 -81 181 -181c0 -101 -83 -182 -181 -182c-101 0 -184 81 -184 182c0 100 83 181 184 181z" />
    <glyph glyph-name="uni1EDD" unicode="&#x1edd;" horiz-adv-x="1283" 
d="M740 1174h-197l-227 270l158 112zM1162 1216h151v-186c0 -158 -70 -215 -153 -227c44 -78 68 -172 68 -280c0 -343 -242 -543 -587 -543c-343 0 -586 200 -586 543c0 341 241 541 586 541c156 0 290 -41 391 -116c12 -3 24 -4 33 -4c74 0 97 28 97 137v135zM637 236
c161 0 267 116 267 287c0 170 -106 286 -267 286c-154 0 -258 -116 -258 -286c0 -171 104 -287 258 -287z" />
    <glyph glyph-name="uni1EDF" unicode="&#x1edf;" horiz-adv-x="1283" 
d="M621 1414c-28 0 -59 -12 -86 -41l-72 106c42 36 100 60 178 60c130 0 201 -71 201 -177c0 -102 -63 -138 -126 -158v-86h-140v141c75 12 108 45 108 92c0 36 -19 63 -63 63zM1162 1216h151v-186c0 -158 -70 -215 -153 -227c44 -78 68 -172 68 -280
c0 -343 -242 -543 -587 -543c-343 0 -586 200 -586 543c0 341 241 541 586 541c156 0 290 -41 391 -116c12 -3 24 -4 33 -4c74 0 97 28 97 137v135zM637 236c161 0 267 116 267 287c0 170 -106 286 -267 286c-154 0 -258 -116 -258 -286c0 -171 104 -287 258 -287z" />
    <glyph glyph-name="uni1EE1" unicode="&#x1ee1;" horiz-adv-x="1283" 
d="M546 1305c-44 0 -63 -54 -63 -127h-150c0 159 77 274 208 274c81 0 143 -46 180 -105c12 -19 25 -34 52 -34c44 0 60 49 60 126h152c0 -154 -72 -273 -208 -273c-77 0 -136 34 -180 104c-16 25 -31 35 -51 35zM1162 1216h151v-186c0 -158 -70 -215 -153 -227
c44 -78 68 -172 68 -280c0 -343 -242 -543 -587 -543c-343 0 -586 200 -586 543c0 341 241 541 586 541c156 0 290 -41 391 -116c12 -3 24 -4 33 -4c74 0 97 28 97 137v135zM637 236c161 0 267 116 267 287c0 170 -106 286 -267 286c-154 0 -258 -116 -258 -286
c0 -171 104 -287 258 -287z" />
    <glyph glyph-name="ohungarumlaut" unicode="&#x151;" horiz-adv-x="1283" 
d="M351 1174l266 382l158 -112l-227 -270h-197zM734 1174l267 382l157 -112l-226 -270h-198zM641 -20c-343 0 -586 200 -586 543c0 341 241 541 586 541c346 0 587 -200 587 -541c0 -343 -242 -543 -587 -543zM637 236c161 0 267 116 267 287c0 170 -106 286 -267 286
c-154 0 -258 -116 -258 -286c0 -171 104 -287 258 -287z" />
    <glyph glyph-name="omacron" unicode="&#x14d;" horiz-adv-x="1283" 
d="M306 1202v189h670v-189h-670zM641 -20c-343 0 -586 200 -586 543c0 341 241 541 586 541c346 0 587 -200 587 -541c0 -343 -242 -543 -587 -543zM637 236c161 0 267 116 267 287c0 170 -106 286 -267 286c-154 0 -258 -116 -258 -286c0 -171 104 -287 258 -287z" />
    <glyph glyph-name="oslash" unicode="&#xf8;" horiz-adv-x="1283" 
d="M1027 952c126 -93 201 -239 201 -429c0 -343 -242 -543 -587 -543c-95 0 -183 15 -260 45l-82 -118l-125 74l79 114c-124 93 -198 238 -198 428c0 341 241 541 586 541c95 0 181 -15 257 -44l81 116l125 -74zM379 523c0 -70 17 -131 49 -178l311 446
c-31 12 -65 18 -102 18c-154 0 -258 -116 -258 -286zM637 236c161 0 267 116 267 287c0 70 -18 132 -51 179l-313 -449c30 -11 62 -17 97 -17z" />
    <glyph glyph-name="otilde" unicode="&#xf5;" horiz-adv-x="1283" 
d="M777 1166c-77 0 -136 34 -180 104c-16 25 -31 35 -51 35c-44 0 -63 -54 -63 -127h-150c0 159 77 274 208 274c81 0 143 -46 180 -105c12 -19 25 -34 52 -34c44 0 60 49 60 126h152c0 -154 -72 -273 -208 -273zM641 -20c-343 0 -586 200 -586 543c0 341 241 541 586 541
c346 0 587 -200 587 -541c0 -343 -242 -543 -587 -543zM637 236c161 0 267 116 267 287c0 170 -106 286 -267 286c-154 0 -258 -116 -258 -286c0 -171 104 -287 258 -287z" />
    <glyph glyph-name="oe" unicode="&#x153;" horiz-adv-x="2052" 
d="M1992 535l-4 -77h-759c14 -151 118 -223 245 -223c96 0 169 41 204 125l300 -41c-67 -217 -260 -339 -502 -339c-174 0 -316 49 -415 141c-103 -92 -249 -141 -420 -141c-343 0 -586 200 -586 543c0 341 241 541 586 541c172 0 318 -49 421 -141c98 93 238 143 403 143
c300 0 525 -161 527 -531zM1467 838c-120 0 -201 -50 -229 -170h433c-18 112 -99 170 -204 170zM637 236c161 0 267 116 267 287c0 170 -106 286 -267 286c-154 0 -258 -116 -258 -286c0 -171 104 -287 258 -287z" />
    <glyph glyph-name="p" unicode="p" horiz-adv-x="1336" 
d="M772 1064c276 0 506 -200 506 -545s-230 -544 -506 -544c-129 0 -246 45 -306 128v-605h-326v1546h309l8 -122c57 92 178 142 315 142zM696 244c143 0 255 101 255 275s-112 276 -255 276c-145 0 -257 -105 -257 -276s112 -275 257 -275z" />
    <glyph glyph-name="thorn" unicode="&#xfe;" horiz-adv-x="1336" 
d="M772 1064c276 0 506 -200 506 -545s-230 -544 -506 -544c-129 0 -246 45 -306 128v-605h-326v2038h326v-600c60 83 177 128 306 128zM696 244c143 0 255 101 255 275s-112 276 -255 276c-145 0 -257 -105 -257 -276s112 -275 257 -275z" />
    <glyph glyph-name="q" unicode="q" horiz-adv-x="1336" 
d="M887 1044h309v-1546h-326v604c-61 -83 -177 -127 -305 -127c-277 0 -506 199 -506 544s229 545 506 545c135 0 257 -49 315 -141zM640 244c145 0 257 104 257 275s-112 276 -257 276c-143 0 -255 -102 -255 -276s112 -275 255 -275z" />
    <glyph glyph-name="r" unicode="r" horiz-adv-x="813" 
d="M452 883c53 87 192 172 344 173v-289c-226 0 -326 -58 -326 -274v-493h-330v1044h312v-161z" />
    <glyph glyph-name="racute" unicode="&#x155;" horiz-adv-x="813" 
d="M702 1446l-227 -270h-197l266 382zM452 883c53 87 192 172 344 173v-289c-226 0 -326 -58 -326 -274v-493h-330v1044h312v-161z" />
    <glyph glyph-name="rcaron" unicode="&#x159;" horiz-adv-x="813" 
d="M470 1221h-189l-233 300h198l129 -151l130 151h197zM452 883c53 87 192 172 344 173v-289c-226 0 -326 -58 -326 -274v-493h-330v1044h312v-161z" />
    <glyph glyph-name="rcommaaccent" unicode="&#x157;" horiz-adv-x="813" 
d="M452 883c53 87 192 172 344 173v-289c-226 0 -326 -58 -326 -274v-493h-330v1044h312v-161zM-9 -505l169 376h283l-295 -450z" />
    <glyph glyph-name="s" unicode="s" horiz-adv-x="1008" 
d="M518 -20c-238 0 -424 89 -463 290l271 76c34 -107 106 -142 194 -142c62 0 130 17 129 86c0 104 -174 108 -338 171c-119 44 -231 113 -231 285c0 217 181 317 421 317c207 0 381 -74 423 -277l-250 -55c-34 89 -93 119 -172 119c-71 0 -126 -23 -126 -74
c0 -73 120 -86 250 -122c160 -44 337 -118 337 -343c0 -245 -211 -331 -445 -331z" />
    <glyph glyph-name="sacute" unicode="&#x15b;" horiz-adv-x="1008" 
d="M411 1177l266 382l158 -112l-227 -270h-197zM518 -20c-238 0 -424 89 -463 290l271 76c34 -107 106 -142 194 -142c62 0 130 17 129 86c0 104 -174 108 -338 171c-119 44 -231 113 -231 285c0 217 181 317 421 317c207 0 381 -74 423 -277l-250 -55
c-34 89 -93 119 -172 119c-71 0 -126 -23 -126 -74c0 -73 120 -86 250 -122c160 -44 337 -118 337 -343c0 -245 -211 -331 -445 -331z" />
    <glyph glyph-name="scaron" unicode="&#x161;" horiz-adv-x="1008" 
d="M414 1222l-233 300h198l129 -151l130 151h197l-232 -300h-189zM518 -20c-238 0 -424 89 -463 290l271 76c34 -107 106 -142 194 -142c62 0 130 17 129 86c0 104 -174 108 -338 171c-119 44 -231 113 -231 285c0 217 181 317 421 317c207 0 381 -74 423 -277l-250 -55
c-34 89 -93 119 -172 119c-71 0 -126 -23 -126 -74c0 -73 120 -86 250 -122c160 -44 337 -118 337 -343c0 -245 -211 -331 -445 -331z" />
    <glyph glyph-name="scedilla" unicode="&#x15f;" horiz-adv-x="1008" 
d="M963 311c0 -226 -180 -317 -392 -329l-58 -98c14 3 29 5 43 5c111 0 193 -79 193 -192c0 -127 -100 -227 -227 -227c-122 0 -211 70 -240 158l142 47c15 -40 55 -61 91 -61c45 0 86 31 86 83c0 55 -41 83 -87 83c-28 0 -55 -11 -71 -33l-115 65l97 173
c-193 21 -336 111 -370 285l271 76c34 -107 106 -142 194 -142c62 0 130 17 129 86c0 104 -174 108 -338 171c-119 44 -231 113 -231 285c0 217 181 317 421 317c207 0 381 -74 423 -277l-250 -55c-34 89 -93 119 -172 119c-71 0 -126 -23 -126 -74c0 -73 120 -86 250 -122
c160 -44 337 -118 337 -343z" />
    <glyph glyph-name="scommaaccent" unicode="&#x219;" horiz-adv-x="1008" 
d="M518 -20c-238 0 -424 89 -463 290l271 76c34 -107 106 -142 194 -142c62 0 130 17 129 86c0 104 -174 108 -338 171c-119 44 -231 113 -231 285c0 217 181 317 421 317c207 0 381 -74 423 -277l-250 -55c-34 89 -93 119 -172 119c-71 0 -126 -23 -126 -74
c0 -73 120 -86 250 -122c160 -44 337 -118 337 -343c0 -245 -211 -331 -445 -331zM353 -577l-157 74l169 376h283z" />
    <glyph glyph-name="germandbls" unicode="&#xdf;" horiz-adv-x="1315" 
d="M140 0v939c0 493 278 617 540 617c305 0 504 -171 504 -401c0 -221 -181 -240 -181 -337c0 -114 267 -101 267 -424c0 -189 -99 -394 -410 -394h-203v237h105c142 0 182 85 182 164c0 213 -243 151 -243 382c0 218 177 200 177 360c0 98 -68 157 -192 157
c-130 0 -221 -62 -221 -291v-1009h-325z" />
    <glyph glyph-name="t" unicode="t" horiz-adv-x="827" 
d="M545 0c-212 0 -331 123 -331 339v456h-202v249h62c111 0 179 41 179 210v122h293v-332h207v-249h-207v-420c0 -91 41 -130 114 -130h93v-245h-208z" />
    <glyph glyph-name="tbar" unicode="&#x167;" horiz-adv-x="827" 
d="M753 795h-207v-174h143v-196h-143v-50c0 -91 41 -130 114 -130h93v-245h-208c-212 0 -331 123 -331 339v86h-139v196h139v174h-202v249h62c111 0 179 41 179 210v122h293v-332h207v-249z" />
    <glyph glyph-name="tcaron" unicode="&#x165;" horiz-adv-x="791" 
d="M646 1199l126 664h335l-229 -664h-232zM517 0c-212 0 -331 123 -331 339v456h-202v249h62c111 0 179 41 179 210v122h293v-332h207v-249h-207v-420c0 -91 41 -130 114 -130h93v-245h-208z" />
    <glyph glyph-name="uni0163" unicode="&#x163;" horiz-adv-x="827" 
d="M650 -113c111 0 193 -79 193 -192c0 -127 -100 -227 -227 -227c-122 0 -211 70 -240 158l142 47c15 -40 55 -61 91 -61c45 0 86 31 86 83c0 55 -41 83 -87 83c-28 0 -55 -11 -71 -33l-115 65l106 190c-201 7 -314 129 -314 339v456h-202v249h62c111 0 179 41 179 210v122
h293v-332h207v-249h-207v-420c0 -91 41 -130 114 -130h93v-245h-75l-71 -118c14 3 29 5 43 5z" />
    <glyph glyph-name="uni021B" unicode="&#x21b;" horiz-adv-x="827" 
d="M545 0c-212 0 -331 123 -331 339v456h-202v249h62c111 0 179 41 179 210v122h293v-332h207v-249h-207v-420c0 -91 41 -130 114 -130h93v-245h-208zM447 -579l-157 74l169 376h283z" />
    <glyph glyph-name="u" unicode="u" horiz-adv-x="1310" 
d="M844 1044h326v-1044h-308l-8 123c-75 -90 -193 -143 -338 -143c-262 0 -398 132 -398 361v703h328v-633c0 -127 81 -171 174 -171c114 0 222 53 224 244v560z" />
    <glyph glyph-name="uacute" unicode="&#xfa;" horiz-adv-x="1310" 
d="M984 1446l-227 -270h-197l266 382zM844 1044h326v-1044h-308l-8 123c-75 -90 -193 -143 -338 -143c-262 0 -398 132 -398 361v703h328v-633c0 -127 81 -171 174 -171c114 0 222 53 224 244v560z" />
    <glyph glyph-name="uni01D4" unicode="&#x1d4;" horiz-adv-x="1310" 
d="M752 1221h-189l-233 300h198l129 -151l130 151h197zM844 1044h326v-1044h-308l-8 123c-75 -90 -193 -143 -338 -143c-262 0 -398 132 -398 361v703h328v-633c0 -127 81 -171 174 -171c114 0 222 53 224 244v560z" />
    <glyph glyph-name="ucircumflex" unicode="&#xfb;" horiz-adv-x="1310" 
d="M657 1372l-130 -151h-197l232 300h190l232 -300h-198zM844 1044h326v-1044h-308l-8 123c-75 -90 -193 -143 -338 -143c-262 0 -398 132 -398 361v703h328v-633c0 -127 81 -171 174 -171c114 0 222 53 224 244v560z" />
    <glyph glyph-name="udieresis" unicode="&#xfc;" horiz-adv-x="1310" 
d="M432 1172c-101 0 -184 81 -184 182c0 100 83 181 184 181c98 0 181 -81 181 -181c0 -101 -83 -182 -181 -182zM882 1172c-101 0 -184 81 -184 182c0 100 83 181 184 181c98 0 181 -81 181 -181c0 -101 -83 -182 -181 -182zM844 1044h326v-1044h-308l-8 123
c-75 -90 -193 -143 -338 -143c-262 0 -398 132 -398 361v703h328v-633c0 -127 81 -171 174 -171c114 0 222 53 224 244v560z" />
    <glyph glyph-name="uni01D8" unicode="&#x1d8;" horiz-adv-x="1310" 
d="M984 1916l-227 -270h-197l266 382zM432 1172c-101 0 -184 81 -184 182c0 100 83 181 184 181c98 0 181 -81 181 -181c0 -101 -83 -182 -181 -182zM698 1354c0 100 83 181 184 181c98 0 181 -81 181 -181c0 -101 -83 -182 -181 -182c-101 0 -184 81 -184 182zM844 1044
h326v-1044h-308l-8 123c-75 -90 -193 -143 -338 -143c-262 0 -398 132 -398 361v703h328v-633c0 -127 81 -171 174 -171c114 0 222 53 224 244v560z" />
    <glyph glyph-name="uni01DA" unicode="&#x1da;" horiz-adv-x="1310" 
d="M752 1691h-189l-233 300h198l129 -151l130 151h197zM432 1172c-101 0 -184 81 -184 182c0 100 83 181 184 181c98 0 181 -81 181 -181c0 -101 -83 -182 -181 -182zM698 1354c0 100 83 181 184 181c98 0 181 -81 181 -181c0 -101 -83 -182 -181 -182
c-101 0 -184 81 -184 182zM844 1044h326v-1044h-308l-8 123c-75 -90 -193 -143 -338 -143c-262 0 -398 132 -398 361v703h328v-633c0 -127 81 -171 174 -171c114 0 222 53 224 244v560z" />
    <glyph glyph-name="uni01DC" unicode="&#x1dc;" horiz-adv-x="1310" 
d="M756 1646h-197l-227 270l158 112zM432 1172c-101 0 -184 81 -184 182c0 100 83 181 184 181c98 0 181 -81 181 -181c0 -101 -83 -182 -181 -182zM698 1354c0 100 83 181 184 181c98 0 181 -81 181 -181c0 -101 -83 -182 -181 -182c-101 0 -184 81 -184 182zM844 1044h326
v-1044h-308l-8 123c-75 -90 -193 -143 -338 -143c-262 0 -398 132 -398 361v703h328v-633c0 -127 81 -171 174 -171c114 0 222 53 224 244v560z" />
    <glyph glyph-name="uni01D6" unicode="&#x1d6;" horiz-adv-x="1310" 
d="M992 1863v-189h-670v189h670zM432 1172c-101 0 -184 81 -184 182c0 100 83 181 184 181c98 0 181 -81 181 -181c0 -101 -83 -182 -181 -182zM698 1354c0 100 83 181 184 181c98 0 181 -81 181 -181c0 -101 -83 -182 -181 -182c-101 0 -184 81 -184 182zM844 1044h326
v-1044h-308l-8 123c-75 -90 -193 -143 -338 -143c-262 0 -398 132 -398 361v703h328v-633c0 -127 81 -171 174 -171c114 0 222 53 224 244v560z" />
    <glyph glyph-name="uni1EE5" unicode="&#x1ee5;" horiz-adv-x="1310" 
d="M844 1044h326v-1044h-308l-8 123c-75 -90 -193 -143 -338 -143c-262 0 -398 132 -398 361v703h328v-633c0 -127 81 -171 174 -171c114 0 222 53 224 244v560zM658 -149c98 0 181 -81 181 -181c0 -101 -83 -182 -181 -182c-101 0 -184 81 -184 182c0 100 83 181 184 181z
" />
    <glyph glyph-name="ugrave" unicode="&#xf9;" horiz-adv-x="1310" 
d="M756 1176h-197l-227 270l158 112zM844 1044h326v-1044h-308l-8 123c-75 -90 -193 -143 -338 -143c-262 0 -398 132 -398 361v703h328v-633c0 -127 81 -171 174 -171c114 0 222 53 224 244v560z" />
    <glyph glyph-name="uni1EE7" unicode="&#x1ee7;" horiz-adv-x="1310" 
d="M637 1416c-28 0 -59 -12 -86 -41l-72 106c42 36 100 60 178 60c130 0 201 -71 201 -177c0 -102 -63 -138 -126 -158v-86h-140v141c75 12 108 45 108 92c0 36 -19 63 -63 63zM844 1044h326v-1044h-308l-8 123c-75 -90 -193 -143 -338 -143c-262 0 -398 132 -398 361v703
h328v-633c0 -127 81 -171 174 -171c114 0 222 53 224 244v560z" />
    <glyph glyph-name="uhorn" unicode="&#x1b0;" horiz-adv-x="1310" 
d="M1311 1230h151v-186c0 -182 -93 -230 -191 -230c-30 0 -65 6 -101 17v-831h-308l-8 123c-75 -90 -193 -143 -338 -143c-262 0 -398 132 -398 361v703h328v-633c0 -127 81 -171 174 -171c114 0 222 53 224 244v560h326v-80c17 -4 32 -6 44 -6c74 0 97 28 97 137v135z" />
    <glyph glyph-name="uni1EE9" unicode="&#x1ee9;" horiz-adv-x="1310" 
d="M984 1446l-227 -270h-197l266 382zM1311 1230h151v-186c0 -182 -93 -230 -191 -230c-30 0 -65 6 -101 17v-831h-308l-8 123c-75 -90 -193 -143 -338 -143c-262 0 -398 132 -398 361v703h328v-633c0 -127 81 -171 174 -171c114 0 222 53 224 244v560h326v-80
c17 -4 32 -6 44 -6c74 0 97 28 97 137v135z" />
    <glyph glyph-name="uni1EF1" unicode="&#x1ef1;" horiz-adv-x="1310" 
d="M1311 1230h151v-186c0 -182 -93 -230 -191 -230c-30 0 -65 6 -101 17v-831h-308l-8 123c-75 -90 -193 -143 -338 -143c-262 0 -398 132 -398 361v703h328v-633c0 -127 81 -171 174 -171c114 0 222 53 224 244v560h326v-80c17 -4 32 -6 44 -6c74 0 97 28 97 137v135z
M658 -149c98 0 181 -81 181 -181c0 -101 -83 -182 -181 -182c-101 0 -184 81 -184 182c0 100 83 181 184 181z" />
    <glyph glyph-name="uni1EEB" unicode="&#x1eeb;" horiz-adv-x="1310" 
d="M756 1176h-197l-227 270l158 112zM1311 1230h151v-186c0 -182 -93 -230 -191 -230c-30 0 -65 6 -101 17v-831h-308l-8 123c-75 -90 -193 -143 -338 -143c-262 0 -398 132 -398 361v703h328v-633c0 -127 81 -171 174 -171c114 0 222 53 224 244v560h326v-80
c17 -4 32 -6 44 -6c74 0 97 28 97 137v135z" />
    <glyph glyph-name="uni1EED" unicode="&#x1eed;" horiz-adv-x="1310" 
d="M637 1416c-28 0 -59 -12 -86 -41l-72 106c42 36 100 60 178 60c130 0 201 -71 201 -177c0 -102 -63 -138 -126 -158v-86h-140v141c75 12 108 45 108 92c0 36 -19 63 -63 63zM1311 1230h151v-186c0 -182 -93 -230 -191 -230c-30 0 -65 6 -101 17v-831h-308l-8 123
c-75 -90 -193 -143 -338 -143c-262 0 -398 132 -398 361v703h328v-633c0 -127 81 -171 174 -171c114 0 222 53 224 244v560h326v-80c17 -4 32 -6 44 -6c74 0 97 28 97 137v135z" />
    <glyph glyph-name="uni1EEF" unicode="&#x1eef;" horiz-adv-x="1310" 
d="M562 1307c-44 0 -63 -54 -63 -127h-150c0 159 77 274 208 274c81 0 143 -46 180 -105c12 -19 25 -34 52 -34c44 0 60 49 60 126h152c0 -154 -72 -273 -208 -273c-77 0 -136 34 -180 104c-16 25 -31 35 -51 35zM1311 1230h151v-186c0 -182 -93 -230 -191 -230
c-30 0 -65 6 -101 17v-831h-308l-8 123c-75 -90 -193 -143 -338 -143c-262 0 -398 132 -398 361v703h328v-633c0 -127 81 -171 174 -171c114 0 222 53 224 244v560h326v-80c17 -4 32 -6 44 -6c74 0 97 28 97 137v135z" />
    <glyph glyph-name="uhungarumlaut" unicode="&#x171;" horiz-adv-x="1310" 
d="M791 1446l-227 -270h-197l266 382zM948 1176h-198l267 382l157 -112zM844 484v560h326v-1044h-308l-8 123c-75 -90 -193 -143 -338 -143c-262 0 -398 132 -398 361v703h328v-633c0 -127 81 -171 174 -171c114 0 222 53 224 244z" />
    <glyph glyph-name="umacron" unicode="&#x16b;" horiz-adv-x="1310" 
d="M992 1393v-189h-670v189h670zM844 1044h326v-1044h-308l-8 123c-75 -90 -193 -143 -338 -143c-262 0 -398 132 -398 361v703h328v-633c0 -127 81 -171 174 -171c114 0 222 53 224 244v560z" />
    <glyph glyph-name="uogonek" unicode="&#x173;" horiz-adv-x="1310" 
d="M1170 0c-77 -66 -172 -166 -172 -218c0 -23 20 -33 54 -33c39 0 90 17 118 44v-201c-43 -19 -100 -30 -155 -30c-109 0 -199 37 -199 114c0 88 105 214 224 324h-178l-8 123c-75 -90 -193 -143 -338 -143c-262 0 -398 132 -398 361v703h328v-633c0 -127 81 -171 174 -171
c114 0 222 53 224 244v560h326v-1044z" />
    <glyph glyph-name="uring" unicode="&#x16f;" horiz-adv-x="1310" 
d="M657 1149c-138 0 -250 113 -250 250c0 135 112 247 250 247c136 0 247 -112 247 -247c0 -137 -111 -250 -247 -250zM657 1517c-65 0 -113 -56 -113 -118c0 -70 48 -116 113 -116s115 46 115 116c0 62 -50 118 -115 118zM844 1044h326v-1044h-308l-8 123
c-75 -90 -193 -143 -338 -143c-262 0 -398 132 -398 361v703h328v-633c0 -127 81 -171 174 -171c114 0 222 53 224 244v560z" />
    <glyph glyph-name="utilde" unicode="&#x169;" horiz-adv-x="1310" 
d="M562 1307c-44 0 -63 -54 -63 -127h-150c0 159 77 274 208 274c81 0 143 -46 180 -105c12 -19 25 -34 52 -34c44 0 60 49 60 126h152c0 -154 -72 -273 -208 -273c-77 0 -136 34 -180 104c-16 25 -31 35 -51 35zM844 1044h326v-1044h-308l-8 123
c-75 -90 -193 -143 -338 -143c-262 0 -398 132 -398 361v703h328v-633c0 -127 81 -171 174 -171c114 0 222 53 224 244v560z" />
    <glyph glyph-name="v" unicode="v" horiz-adv-x="1166" 
d="M828 1044h345l-450 -1044h-285l-445 1044h343l244 -677z" />
    <glyph glyph-name="w" unicode="w" horiz-adv-x="1804" 
d="M1465 1044h336l-366 -1046h-305l-228 654l-231 -654h-308l-360 1046h336l202 -641l234 641h251l233 -638z" />
    <glyph glyph-name="wacute" unicode="&#x1e83;" horiz-adv-x="1804" 
d="M1242 1446l-227 -270h-197l266 382zM1465 1044h336l-366 -1046h-305l-228 654l-231 -654h-308l-360 1046h336l202 -641l234 641h251l233 -638z" />
    <glyph glyph-name="wcircumflex" unicode="&#x175;" horiz-adv-x="1804" 
d="M915 1372l-130 -151h-197l232 300h190l232 -300h-198zM1465 1044h336l-366 -1046h-305l-228 654l-231 -654h-308l-360 1046h336l202 -641l234 641h251l233 -638z" />
    <glyph glyph-name="wdieresis" unicode="&#x1e85;" horiz-adv-x="1804" 
d="M690 1172c-101 0 -184 81 -184 182c0 100 83 181 184 181c98 0 181 -81 181 -181c0 -101 -83 -182 -181 -182zM1140 1172c-101 0 -184 81 -184 182c0 100 83 181 184 181c98 0 181 -81 181 -181c0 -101 -83 -182 -181 -182zM1465 1044h336l-366 -1046h-305l-228 654
l-231 -654h-308l-360 1046h336l202 -641l234 641h251l233 -638z" />
    <glyph glyph-name="wgrave" unicode="&#x1e81;" horiz-adv-x="1804" 
d="M1014 1176h-197l-227 270l158 112zM1465 1044h336l-366 -1046h-305l-228 654l-231 -654h-308l-360 1046h336l202 -641l234 641h251l233 -638z" />
    <glyph glyph-name="x" unicode="x" horiz-adv-x="1263" 
d="M-1 0l436 523l-436 521h408l225 -308l226 308h406l-438 -523l438 -521h-406l-224 304l-225 -304h-410z" />
    <glyph glyph-name="y" unicode="y" horiz-adv-x="1161" 
d="M835 1044h333l-656 -1535h-329l247 540l-437 995h355l234 -646z" />
    <glyph glyph-name="yacute" unicode="&#xfd;" horiz-adv-x="1161" 
d="M909 1446l-227 -270h-197l266 382zM835 1044h333l-656 -1535h-329l247 540l-437 995h355l234 -646z" />
    <glyph glyph-name="ycircumflex" unicode="&#x177;" horiz-adv-x="1161" 
d="M582 1372l-130 -151h-197l232 300h190l232 -300h-198zM835 1044h333l-656 -1535h-329l247 540l-437 995h355l234 -646z" />
    <glyph glyph-name="ydieresis" unicode="&#xff;" horiz-adv-x="1161" 
d="M357 1172c-101 0 -184 81 -184 182c0 100 83 181 184 181c98 0 181 -81 181 -181c0 -101 -83 -182 -181 -182zM807 1172c-101 0 -184 81 -184 182c0 100 83 181 184 181c98 0 181 -81 181 -181c0 -101 -83 -182 -181 -182zM835 1044h333l-656 -1535h-329l247 540
l-437 995h355l234 -646z" />
    <glyph glyph-name="uni1EF5" unicode="&#x1ef5;" horiz-adv-x="1161" 
d="M835 1044h333l-656 -1535h-329l247 540l-437 995h355l234 -646zM1004 -149c98 0 181 -81 181 -181c0 -101 -83 -182 -181 -182c-101 0 -184 81 -184 182c0 100 83 181 184 181z" />
    <glyph glyph-name="ygrave" unicode="&#x1ef3;" horiz-adv-x="1161" 
d="M681 1176h-197l-227 270l158 112zM835 1044h333l-656 -1535h-329l247 540l-437 995h355l234 -646z" />
    <glyph glyph-name="uni1EF7" unicode="&#x1ef7;" horiz-adv-x="1161" 
d="M562 1416c-28 0 -59 -12 -86 -41l-72 106c42 36 100 60 178 60c130 0 201 -71 201 -177c0 -102 -63 -138 -126 -158v-86h-140v141c75 12 108 45 108 92c0 36 -19 63 -63 63zM835 1044h333l-656 -1535h-329l247 540l-437 995h355l234 -646z" />
    <glyph glyph-name="uni1EF9" unicode="&#x1ef9;" horiz-adv-x="1161" 
d="M487 1307c-44 0 -63 -54 -63 -127h-150c0 159 77 274 208 274c81 0 143 -46 180 -105c12 -19 25 -34 52 -34c44 0 60 49 60 126h152c0 -154 -72 -273 -208 -273c-77 0 -136 34 -180 104c-16 25 -31 35 -51 35zM835 1044h333l-656 -1535h-329l247 540l-437 995h355
l234 -646z" />
    <glyph glyph-name="z" unicode="z" horiz-adv-x="963" 
d="M921 1044l-431 -795h411v-249h-868l428 794h-390v250h850z" />
    <glyph glyph-name="zacute" unicode="&#x17a;" horiz-adv-x="963" 
d="M826 1446l-227 -270h-197l266 382zM921 1044l-431 -795h411v-249h-868l428 794h-390v250h850z" />
    <glyph glyph-name="zcaron" unicode="&#x17e;" horiz-adv-x="963" 
d="M594 1221h-189l-233 300h198l129 -151l130 151h197zM921 1044l-431 -795h411v-249h-868l428 794h-390v250h850z" />
    <glyph glyph-name="zdotaccent" unicode="&#x17c;" horiz-adv-x="963" 
d="M500 1172c-101 0 -184 81 -184 182c0 100 83 181 184 181c98 0 181 -81 181 -181c0 -101 -83 -182 -181 -182zM921 1044l-431 -795h411v-249h-868l428 794h-390v250h850z" />
    <glyph glyph-name="g.ss01" horiz-adv-x="1171" 
d="M1131 1044v-225h-138c21 -48 33 -101 33 -161c0 -251 -208 -351 -446 -351c-73 0 -140 9 -200 27c-10 -18 -15 -36 -15 -52c0 -91 139 -94 316 -112c229 -22 447 -66 447 -306c0 -248 -231 -358 -534 -358c-326 0 -514 128 -514 286c0 68 34 142 109 215
c-64 42 -106 105 -106 203c0 92 36 172 106 236c-57 60 -89 139 -89 234c0 248 216 384 456 384c54 0 107 -7 156 -20h419zM569 535c104 0 157 63 157 147c0 85 -54 151 -157 151c-102 0 -159 -66 -159 -153c0 -84 55 -145 159 -145zM813 -185c0 87 -124 93 -298 110
c-41 4 -84 8 -125 15c-22 -31 -33 -60 -33 -86c0 -80 104 -133 276 -133c91 0 180 19 180 94z" />
    <glyph glyph-name="gbreve.ss01" horiz-adv-x="1171" 
d="M584 1159c-221 0 -372 118 -372 362h202c0 -125 55 -212 170 -212c117 0 172 87 172 212h203c0 -244 -152 -362 -375 -362zM1131 1044v-225h-138c21 -48 33 -101 33 -161c0 -251 -208 -351 -446 -351c-73 0 -140 9 -200 27c-10 -18 -15 -36 -15 -52
c0 -91 139 -94 316 -112c229 -22 447 -66 447 -306c0 -248 -231 -358 -534 -358c-326 0 -514 128 -514 286c0 68 34 142 109 215c-64 42 -106 105 -106 203c0 92 36 172 106 236c-57 60 -89 139 -89 234c0 248 216 384 456 384c54 0 107 -7 156 -20h419zM569 535
c104 0 157 63 157 147c0 85 -54 151 -157 151c-102 0 -159 -66 -159 -153c0 -84 55 -145 159 -145zM813 -185c0 87 -124 93 -298 110c-41 4 -84 8 -125 15c-22 -31 -33 -60 -33 -86c0 -80 104 -133 276 -133c91 0 180 19 180 94z" />
    <glyph glyph-name="gcommaaccent.ss01" horiz-adv-x="1171" 
d="M822 1519l-126 -334h-334l228 334h232zM1131 1044v-225h-138c21 -48 33 -101 33 -161c0 -251 -208 -351 -446 -351c-73 0 -140 9 -200 27c-10 -18 -15 -36 -15 -52c0 -91 139 -94 316 -112c229 -22 447 -66 447 -306c0 -248 -231 -358 -534 -358
c-326 0 -514 128 -514 286c0 68 34 142 109 215c-64 42 -106 105 -106 203c0 92 36 172 106 236c-57 60 -89 139 -89 234c0 248 216 384 456 384c54 0 107 -7 156 -20h419zM569 535c104 0 157 63 157 147c0 85 -54 151 -157 151c-102 0 -159 -66 -159 -153
c0 -84 55 -145 159 -145zM813 -185c0 87 -124 93 -298 110c-41 4 -84 8 -125 15c-22 -31 -33 -60 -33 -86c0 -80 104 -133 276 -133c91 0 180 19 180 94z" />
    <glyph glyph-name="gdotaccent.ss01" horiz-adv-x="1171" 
d="M585 1172c-101 0 -184 81 -184 182c0 100 83 181 184 181c98 0 181 -81 181 -181c0 -101 -83 -182 -181 -182zM1131 1044v-225h-138c21 -48 33 -101 33 -161c0 -251 -208 -351 -446 -351c-73 0 -140 9 -200 27c-10 -18 -15 -36 -15 -52c0 -91 139 -94 316 -112
c229 -22 447 -66 447 -306c0 -248 -231 -358 -534 -358c-326 0 -514 128 -514 286c0 68 34 142 109 215c-64 42 -106 105 -106 203c0 92 36 172 106 236c-57 60 -89 139 -89 234c0 248 216 384 456 384c54 0 107 -7 156 -20h419zM569 535c104 0 157 63 157 147
c0 85 -54 151 -157 151c-102 0 -159 -66 -159 -153c0 -84 55 -145 159 -145zM813 -185c0 87 -124 93 -298 110c-41 4 -84 8 -125 15c-22 -31 -33 -60 -33 -86c0 -80 104 -133 276 -133c91 0 180 19 180 94z" />
    <glyph glyph-name="a.ss02" horiz-adv-x="1336" 
d="M888 1044h308v-1044h-308l-8 117c-57 -92 -179 -142 -315 -142c-277 0 -506 200 -506 544s230 545 506 545c142 0 269 -55 323 -156v136zM641 244c144 0 256 104 256 275s-112 276 -256 276s-256 -102 -256 -276c0 -173 112 -275 256 -275z" />
    <glyph glyph-name="aacute.ss02" horiz-adv-x="1336" 
d="M996 1446l-227 -270h-197l266 382zM888 1044h308v-1044h-308l-8 117c-57 -92 -179 -142 -315 -142c-277 0 -506 200 -506 544s230 545 506 545c142 0 269 -55 323 -156v136zM641 244c144 0 256 104 256 275s-112 276 -256 276s-256 -102 -256 -276
c0 -173 112 -275 256 -275z" />
    <glyph glyph-name="abreve.ss02" horiz-adv-x="1336" 
d="M669 1159c-221 0 -372 118 -372 362h202c0 -125 55 -212 170 -212c117 0 172 87 172 212h203c0 -244 -152 -362 -375 -362zM888 1044h308v-1044h-308l-8 117c-57 -92 -179 -142 -315 -142c-277 0 -506 200 -506 544s230 545 506 545c142 0 269 -55 323 -156v136zM641 244
c144 0 256 104 256 275s-112 276 -256 276s-256 -102 -256 -276c0 -173 112 -275 256 -275z" />
    <glyph glyph-name="uni1EAF.ss02" horiz-adv-x="1336" 
d="M996 1923l-227 -270h-197l266 382zM669 1159c-221 0 -372 118 -372 362h202c0 -125 55 -212 170 -212c117 0 172 87 172 212h203c0 -244 -152 -362 -375 -362zM888 1044h308v-1044h-308l-8 117c-57 -92 -179 -142 -315 -142c-277 0 -506 200 -506 544s230 545 506 545
c142 0 269 -55 323 -156v136zM641 244c144 0 256 104 256 275s-112 276 -256 276s-256 -102 -256 -276c0 -173 112 -275 256 -275z" />
    <glyph glyph-name="uni1EB7.ss02" horiz-adv-x="1336" 
d="M669 1159c-221 0 -372 118 -372 362h202c0 -125 55 -212 170 -212c117 0 172 87 172 212h203c0 -244 -152 -362 -375 -362zM888 1044h308v-1044h-308l-8 117c-57 -92 -179 -142 -315 -142c-277 0 -506 200 -506 544s230 545 506 545c142 0 269 -55 323 -156v136zM641 244
c144 0 256 104 256 275s-112 276 -256 276s-256 -102 -256 -276c0 -173 112 -275 256 -275zM670 -149c98 0 181 -81 181 -181c0 -101 -83 -182 -181 -182c-101 0 -184 81 -184 182c0 100 83 181 184 181z" />
    <glyph glyph-name="uni1EB1.ss02" horiz-adv-x="1336" 
d="M768 1653h-197l-227 270l158 112zM669 1159c-221 0 -372 118 -372 362h202c0 -125 55 -212 170 -212c117 0 172 87 172 212h203c0 -244 -152 -362 -375 -362zM888 1044h308v-1044h-308l-8 117c-57 -92 -179 -142 -315 -142c-277 0 -506 200 -506 544s230 545 506 545
c142 0 269 -55 323 -156v136zM641 244c144 0 256 104 256 275s-112 276 -256 276s-256 -102 -256 -276c0 -173 112 -275 256 -275z" />
    <glyph glyph-name="uni1EB3.ss02" horiz-adv-x="1336" 
d="M649 1893c-28 0 -59 -12 -86 -41l-72 106c42 36 100 60 178 60c130 0 201 -71 201 -177c0 -102 -63 -138 -126 -158v-86h-140v141c75 12 108 45 108 92c0 36 -19 63 -63 63zM669 1159c-221 0 -372 118 -372 362h202c0 -125 55 -212 170 -212c117 0 172 87 172 212h203
c0 -244 -152 -362 -375 -362zM888 1044h308v-1044h-308l-8 117c-57 -92 -179 -142 -315 -142c-277 0 -506 200 -506 544s230 545 506 545c142 0 269 -55 323 -156v136zM641 244c144 0 256 104 256 275s-112 276 -256 276s-256 -102 -256 -276c0 -173 112 -275 256 -275z" />
    <glyph glyph-name="uni1EB5.ss02" horiz-adv-x="1336" 
d="M574 1784c-44 0 -63 -54 -63 -127h-150c0 159 77 274 208 274c81 0 143 -46 180 -105c12 -19 25 -34 52 -34c44 0 60 49 60 126h152c0 -154 -72 -273 -208 -273c-77 0 -136 34 -180 104c-16 25 -31 35 -51 35zM669 1159c-221 0 -372 118 -372 362h202
c0 -125 55 -212 170 -212c117 0 172 87 172 212h203c0 -244 -152 -362 -375 -362zM888 1044h308v-1044h-308l-8 117c-57 -92 -179 -142 -315 -142c-277 0 -506 200 -506 544s230 545 506 545c142 0 269 -55 323 -156v136zM641 244c144 0 256 104 256 275s-112 276 -256 276
s-256 -102 -256 -276c0 -173 112 -275 256 -275z" />
    <glyph glyph-name="uni01CE.ss02" horiz-adv-x="1336" 
d="M764 1221h-189l-233 300h198l129 -151l130 151h197zM888 1044h308v-1044h-308l-8 117c-57 -92 -179 -142 -315 -142c-277 0 -506 200 -506 544s230 545 506 545c142 0 269 -55 323 -156v136zM641 244c144 0 256 104 256 275s-112 276 -256 276s-256 -102 -256 -276
c0 -173 112 -275 256 -275z" />
    <glyph glyph-name="acircumflex.ss02" horiz-adv-x="1336" 
d="M669 1372l-130 -151h-197l232 300h190l232 -300h-198zM888 1044h308v-1044h-308l-8 117c-57 -92 -179 -142 -315 -142c-277 0 -506 200 -506 544s230 545 506 545c142 0 269 -55 323 -156v136zM641 244c144 0 256 104 256 275s-112 276 -256 276s-256 -102 -256 -276
c0 -173 112 -275 256 -275z" />
    <glyph glyph-name="uni1EA5.ss02" horiz-adv-x="1336" 
d="M996 1923l-227 -270h-197l266 382zM669 1372l-130 -151h-197l232 300h190l232 -300h-198zM888 1044h308v-1044h-308l-8 117c-57 -92 -179 -142 -315 -142c-277 0 -506 200 -506 544s230 545 506 545c142 0 269 -55 323 -156v136zM641 244c144 0 256 104 256 275
s-112 276 -256 276s-256 -102 -256 -276c0 -173 112 -275 256 -275z" />
    <glyph glyph-name="uni1EAD.ss02" horiz-adv-x="1336" 
d="M669 1372l-130 -151h-197l232 300h190l232 -300h-198zM888 1044h308v-1044h-308l-8 117c-57 -92 -179 -142 -315 -142c-277 0 -506 200 -506 544s230 545 506 545c142 0 269 -55 323 -156v136zM641 244c144 0 256 104 256 275s-112 276 -256 276s-256 -102 -256 -276
c0 -173 112 -275 256 -275zM670 -149c98 0 181 -81 181 -181c0 -101 -83 -182 -181 -182c-101 0 -184 81 -184 182c0 100 83 181 184 181z" />
    <glyph glyph-name="uni1EA7.ss02" horiz-adv-x="1336" 
d="M768 1653h-197l-227 270l158 112zM669 1372l-130 -151h-197l232 300h190l232 -300h-198zM888 1044h308v-1044h-308l-8 117c-57 -92 -179 -142 -315 -142c-277 0 -506 200 -506 544s230 545 506 545c142 0 269 -55 323 -156v136zM641 244c144 0 256 104 256 275
s-112 276 -256 276s-256 -102 -256 -276c0 -173 112 -275 256 -275z" />
    <glyph glyph-name="uni1EA9.ss02" horiz-adv-x="1336" 
d="M649 1893c-28 0 -59 -12 -86 -41l-72 106c42 36 100 60 178 60c130 0 201 -71 201 -177c0 -102 -63 -138 -126 -158v-86h-140v141c75 12 108 45 108 92c0 36 -19 63 -63 63zM669 1372l-130 -151h-197l232 300h190l232 -300h-198zM888 1044h308v-1044h-308l-8 117
c-57 -92 -179 -142 -315 -142c-277 0 -506 200 -506 544s230 545 506 545c142 0 269 -55 323 -156v136zM641 244c144 0 256 104 256 275s-112 276 -256 276s-256 -102 -256 -276c0 -173 112 -275 256 -275z" />
    <glyph glyph-name="uni1EAB.ss02" horiz-adv-x="1336" 
d="M574 1784c-44 0 -63 -54 -63 -127h-150c0 159 77 274 208 274c81 0 143 -46 180 -105c12 -19 25 -34 52 -34c44 0 60 49 60 126h152c0 -154 -72 -273 -208 -273c-77 0 -136 34 -180 104c-16 25 -31 35 -51 35zM669 1372l-130 -151h-197l232 300h190l232 -300h-198z
M888 1044h308v-1044h-308l-8 117c-57 -92 -179 -142 -315 -142c-277 0 -506 200 -506 544s230 545 506 545c142 0 269 -55 323 -156v136zM641 244c144 0 256 104 256 275s-112 276 -256 276s-256 -102 -256 -276c0 -173 112 -275 256 -275z" />
    <glyph glyph-name="adieresis.ss02" horiz-adv-x="1336" 
d="M444 1172c-101 0 -184 81 -184 182c0 100 83 181 184 181c98 0 181 -81 181 -181c0 -101 -83 -182 -181 -182zM894 1172c-101 0 -184 81 -184 182c0 100 83 181 184 181c98 0 181 -81 181 -181c0 -101 -83 -182 -181 -182zM888 1044h308v-1044h-308l-8 117
c-57 -92 -179 -142 -315 -142c-277 0 -506 200 -506 544s230 545 506 545c142 0 269 -55 323 -156v136zM641 244c144 0 256 104 256 275s-112 276 -256 276s-256 -102 -256 -276c0 -173 112 -275 256 -275z" />
    <glyph glyph-name="uni1EA1.ss02" horiz-adv-x="1336" 
d="M888 1044h308v-1044h-308l-8 117c-57 -92 -179 -142 -315 -142c-277 0 -506 200 -506 544s230 545 506 545c142 0 269 -55 323 -156v136zM641 244c144 0 256 104 256 275s-112 276 -256 276s-256 -102 -256 -276c0 -173 112 -275 256 -275zM670 -149
c98 0 181 -81 181 -181c0 -101 -83 -182 -181 -182c-101 0 -184 81 -184 182c0 100 83 181 184 181z" />
    <glyph glyph-name="agrave.ss02" horiz-adv-x="1336" 
d="M768 1176h-197l-227 270l158 112zM888 1044h308v-1044h-308l-8 117c-57 -92 -179 -142 -315 -142c-277 0 -506 200 -506 544s230 545 506 545c142 0 269 -55 323 -156v136zM641 244c144 0 256 104 256 275s-112 276 -256 276s-256 -102 -256 -276
c0 -173 112 -275 256 -275z" />
    <glyph glyph-name="uni1EA3.ss02" horiz-adv-x="1336" 
d="M649 1416c-28 0 -59 -12 -86 -41l-72 106c42 36 100 60 178 60c130 0 201 -71 201 -177c0 -102 -63 -138 -126 -158v-86h-140v141c75 12 108 45 108 92c0 36 -19 63 -63 63zM888 1044h308v-1044h-308l-8 117c-57 -92 -179 -142 -315 -142c-277 0 -506 200 -506 544
s230 545 506 545c142 0 269 -55 323 -156v136zM641 244c144 0 256 104 256 275s-112 276 -256 276s-256 -102 -256 -276c0 -173 112 -275 256 -275z" />
    <glyph glyph-name="amacron.ss02" horiz-adv-x="1336" 
d="M1004 1393v-189h-670v189h670zM888 1044h308v-1044h-308l-8 117c-57 -92 -179 -142 -315 -142c-277 0 -506 200 -506 544s230 545 506 545c142 0 269 -55 323 -156v136zM641 244c144 0 256 104 256 275s-112 276 -256 276s-256 -102 -256 -276c0 -173 112 -275 256 -275z
" />
    <glyph glyph-name="aogonek.ss02" horiz-adv-x="1336" 
d="M1196 0c-77 -66 -172 -166 -172 -218c0 -23 20 -33 54 -33c39 0 90 17 118 44v-201c-43 -19 -100 -30 -155 -30c-109 0 -199 37 -199 114c0 88 105 214 224 324h-178l-8 117c-57 -92 -179 -142 -315 -142c-277 0 -506 200 -506 544s230 545 506 545
c142 0 269 -55 323 -156v136h308v-1044zM641 244c144 0 256 104 256 275s-112 276 -256 276s-256 -102 -256 -276c0 -173 112 -275 256 -275z" />
    <glyph glyph-name="aring.ss02" horiz-adv-x="1336" 
d="M669 1149c-138 0 -250 113 -250 250c0 135 112 247 250 247c136 0 247 -112 247 -247c0 -137 -111 -250 -247 -250zM669 1517c-65 0 -113 -56 -113 -118c0 -70 48 -116 113 -116s115 46 115 116c0 62 -50 118 -115 118zM888 1044h308v-1044h-308l-8 117
c-57 -92 -179 -142 -315 -142c-277 0 -506 200 -506 544s230 545 506 545c142 0 269 -55 323 -156v136zM641 244c144 0 256 104 256 275s-112 276 -256 276s-256 -102 -256 -276c0 -173 112 -275 256 -275z" />
    <glyph glyph-name="atilde.ss02" horiz-adv-x="1336" 
d="M574 1307c-44 0 -63 -54 -63 -127h-150c0 159 77 274 208 274c81 0 143 -46 180 -105c12 -19 25 -34 52 -34c44 0 60 49 60 126h152c0 -154 -72 -273 -208 -273c-77 0 -136 34 -180 104c-16 25 -31 35 -51 35zM888 1044h308v-1044h-308l-8 117
c-57 -92 -179 -142 -315 -142c-277 0 -506 200 -506 544s230 545 506 545c142 0 269 -55 323 -156v136zM641 244c144 0 256 104 256 275s-112 276 -256 276s-256 -102 -256 -276c0 -173 112 -275 256 -275z" />
    <glyph glyph-name="f_t" horiz-adv-x="1508" 
d="M219 0v795h-205v249h205v79c0 362 224 413 544 413v-258c-90 0 -218 5 -218 -156v-78h212c126 0 192 50 192 175v157h277v-332h208v-249h-208v-420c0 -91 41 -130 115 -130h88v-245h-203c-212 0 -331 123 -331 339v456h-350v-795h-326z" />
    <glyph glyph-name="t_t" horiz-adv-x="1556" 
d="M545 0c-212 0 -331 123 -331 339v456h-202v249h80c108 0 158 50 158 140v148h296v-288h275c107 0 157 50 157 140v148h296v-288h208v-249h-208v-420c0 -91 41 -130 115 -130h88v-245h-203c-212 0 -331 123 -331 339v456h-397v-420c0 -91 41 -130 114 -130h88v-245h-203z
" />
    <glyph glyph-name="ordfeminine" unicode="&#xaa;" horiz-adv-x="949" 
d="M601 1458h182v-615h-182v79c-48 -56 -117 -91 -200 -91c-168 0 -303 142 -303 320s135 319 303 319c83 0 152 -34 200 -91v79zM440 990c88 0 161 72 161 161c0 90 -73 160 -161 160c-89 0 -161 -70 -161 -160c0 -89 72 -161 161 -161z" />
    <glyph glyph-name="ordmasculine" unicode="&#xba;" horiz-adv-x="871" 
d="M434 839c-192 0 -341 142 -341 320s149 319 341 319s344 -141 344 -319s-152 -320 -344 -320zM434 998c89 0 161 72 161 161c0 90 -72 160 -161 160c-88 0 -160 -70 -160 -160c0 -89 72 -161 160 -161z" />
    <glyph glyph-name="uni0394" unicode="&#x394;" horiz-adv-x="1619" 
d="M985 1536l617 -1536h-1584l616 1536h351zM473 306h673l-336 879z" />
    <glyph glyph-name="uni03A9" unicode="&#x3a9;" horiz-adv-x="1757" 
d="M98 0v281h237v3c-90 100 -201 314 -201 556c0 397 293 707 748 707c485 0 741 -346 741 -706c0 -214 -91 -434 -209 -557v-3h243v-281h-686v213c159 94 281 286 281 575c0 293 -133 473 -368 473c-219 0 -380 -167 -380 -474c0 -291 131 -497 284 -574v-213h-690z" />
    <glyph glyph-name="uni03BC" unicode="&#x3bc;" horiz-adv-x="1245" 
d="M783 970h328v-970h-328v97c-70 -72 -164 -115 -269 -115c-50 0 -98 10 -142 28v-483h-237v1443h329v-553c0 -84 65 -150 149 -150c96 0 170 66 170 150v553z" />
    <glyph glyph-name="pi" unicode="&#x3c0;" horiz-adv-x="1322" 
d="M130 0c65 206 123 544 123 730c-89 0 -157 -4 -204 -15l-32 182c52 40 168 66 362 66h915l-24 -233h-144v-438c0 -133 12 -232 26 -292h-296c-27 37 -36 148 -36 277v453l-266 -2c-8 -198 -57 -558 -126 -728h-298z" />
    <glyph glyph-name="zero" unicode="0" horiz-adv-x="1246" 
d="M625 -20c-346 0 -543 244 -543 749c0 507 198 749 543 749c343 0 541 -242 541 -749c0 -505 -197 -749 -541 -749zM625 272c131 0 215 135 215 457c0 324 -85 456 -215 456c-132 0 -216 -132 -216 -456c0 -322 83 -457 216 -457z" />
    <glyph glyph-name="one" unicode="1" horiz-adv-x="1246" 
d="M566 1458h313v-1458h-326v1127l-330 -316v334z" />
    <glyph glyph-name="two" unicode="2" horiz-adv-x="1246" 
d="M554 289h588v-289h-1042v246l578 588c81 81 113 160 113 228c0 95 -58 159 -177 159c-109 0 -186 -53 -186 -211v-107l-324 32v69c0 305 198 476 507 476c290 0 503 -153 503 -422c0 -148 -65 -258 -188 -386z" />
    <glyph glyph-name="three" unicode="3" horiz-adv-x="1246" 
d="M623 -20c-380 0 -535 179 -535 547l335 15c0 -184 16 -280 200 -280c144 0 206 83 206 189c0 130 -73 189 -186 189h-51v250h46c89 0 150 67 150 165c0 99 -73 145 -172 145c-146 0 -163 -115 -163 -218l-330 17c0 316 190 479 489 479c282 0 479 -173 479 -394
c0 -161 -105 -262 -177 -296c114 -31 247 -133 247 -351c0 -278 -208 -457 -538 -457z" />
    <glyph glyph-name="four" unicode="4" horiz-adv-x="1246" 
d="M1192 560v-289h-160v-271h-326v271h-662v291l487 896h501v-898h160zM337 560h369v710z" />
    <glyph glyph-name="five" unicode="5" horiz-adv-x="1246" 
d="M595 948c385 0 571 -155 571 -459c0 -316 -210 -511 -522 -511c-293 0 -533 178 -533 462c0 22 3 47 6 71l322 13c-4 -22 -6 -42 -6 -60c0 -130 94 -188 204 -188c137 0 203 80 203 201c0 122 -69 203 -301 203h-386l51 778h891v-290h-594l-13 -220h107z" />
    <glyph glyph-name="six" unicode="6" horiz-adv-x="1246" 
d="M1169 490c1 -297 -258 -510 -552 -510c-307 0 -544 225 -544 513c0 112 36 225 131 358l443 607h367l-371 -491c16 2 33 3 50 3c252 0 476 -189 476 -480zM851 499c2 133 -89 237 -239 237c-140 0 -230 -100 -234 -230c-4 -134 82 -234 230 -234c142 0 240 95 243 227z
" />
    <glyph glyph-name="seven" unicode="7" horiz-adv-x="1246" 
d="M115 1458h1036v-249l-642 -1209h-369l642 1169h-667v289z" />
    <glyph glyph-name="eight" unicode="8" horiz-adv-x="1246" 
d="M625 -20c-309 0 -541 169 -541 453c0 169 83 297 216 371c-94 67 -154 164 -154 285c0 233 199 389 479 389c276 0 475 -156 475 -389c0 -121 -59 -218 -149 -285c132 -74 215 -202 215 -371c0 -283 -232 -453 -541 -453zM625 897c97 0 179 74 179 172
c0 96 -82 169 -179 169c-99 0 -179 -73 -179 -169c0 -98 80 -172 179 -172zM625 271c121 0 215 75 215 205c0 126 -94 203 -215 203c-122 0 -215 -77 -215 -203c0 -130 94 -205 215 -205z" />
    <glyph glyph-name="nine" unicode="9" horiz-adv-x="1246" 
d="M628 1477c306 0 543 -225 543 -512c0 -112 -34 -225 -131 -358l-443 -607h-367l371 490c-17 -1 -33 -2 -50 -2c-252 0 -475 189 -476 480c-1 297 258 509 553 509zM394 959c-3 -132 89 -237 238 -237c141 0 230 100 234 230c5 134 -81 234 -229 234
c-142 0 -241 -95 -243 -227z" />
    <glyph glyph-name="zero.subs" horiz-adv-x="774" 
d="M387 -381c-206 0 -343 191 -343 473c0 283 137 473 343 473s346 -190 346 -473c0 -282 -140 -473 -346 -473zM389 -194c90 0 153 107 153 286c0 180 -63 287 -153 287s-153 -107 -153 -287c0 -179 63 -286 153 -286z" />
    <glyph glyph-name="one.subs" horiz-adv-x="480" 
d="M194 553h174v-922h-187v748l-185 -144v178z" />
    <glyph glyph-name="two.subs" horiz-adv-x="720" 
d="M244 -222h426v-147h-633v178c389 245 436 370 436 458c0 124 -67 149 -124 146c-92 -7 -117 -80 -113 -153h-196c-6 178 134 307 322 307c177 0 293 -115 294 -280c1 -173 -126 -362 -412 -509z" />
    <glyph glyph-name="three.subs" horiz-adv-x="697" 
d="M529 135c81 -44 130 -118 130 -218c0 -164 -132 -298 -322 -298c-176 0 -314 115 -314 270h184c5 -80 66 -115 136 -115c83 0 132 46 132 134c0 87 -48 131 -143 131h-56v143h43c80 0 122 40 122 122c0 79 -42 113 -107 113c-60 0 -111 -28 -116 -122h-178
c0 166 125 270 290 270c163 0 278 -104 278 -254c0 -75 -29 -135 -79 -176z" />
    <glyph glyph-name="four.subs" horiz-adv-x="734" 
d="M696 -34v-140h-95v-195h-182v195h-418v166l354 561h246v-587h95zM152 -34h267v446z" />
    <glyph glyph-name="five.subs" horiz-adv-x="766" 
d="M387 230c241 0 331 -124 331 -297c0 -199 -147 -310 -329 -310c-184 0 -340 96 -345 303h190c4 -108 76 -150 151 -150c89 0 145 58 145 152c0 105 -54 153 -179 153h-290l100 474h524v-155h-392l-34 -170h128z" />
    <glyph glyph-name="six.subs" horiz-adv-x="702" 
d="M690 -53c2 -209 -169 -325 -343 -326c-172 -1 -341 109 -342 320c-1 80 33 146 74 202l299 410h223l-238 -296c8 1 15 2 24 2c155 1 302 -145 303 -312zM347 -202c82 2 161 58 160 153c-1 98 -80 152 -162 151c-81 -1 -157 -56 -155 -156c1 -98 77 -149 157 -148z" />
    <glyph glyph-name="seven.subs" horiz-adv-x="639" 
d="M16 553h635v-139l-417 -783h-217l411 746h-412v176z" />
    <glyph glyph-name="eight.subs" horiz-adv-x="727" 
d="M561 140c79 -50 128 -132 128 -231c0 -164 -138 -290 -327 -290c-186 0 -324 126 -324 290c0 99 49 180 127 230c-50 43 -72 107 -72 183c0 138 113 243 271 243c155 0 268 -105 268 -243c0 -76 -22 -140 -71 -182zM364 415c-64 0 -110 -47 -110 -111
c0 -61 46 -109 110 -109c63 0 109 48 109 109c0 64 -46 111 -109 111zM362 -216c81 0 140 66 140 146c0 81 -59 140 -140 140c-80 0 -137 -59 -137 -140c0 -80 57 -146 137 -146z" />
    <glyph glyph-name="nine.subs" horiz-adv-x="704" 
d="M355 563c173 1 342 -109 343 -319c0 -81 -34 -147 -75 -203l-298 -410h-223l238 296c-8 -1 -16 -2 -25 -2c-154 0 -302 145 -303 312c-1 209 170 325 343 326zM358 83c81 1 156 55 155 155c-1 98 -77 149 -157 148c-83 -1 -162 -58 -161 -152c2 -99 81 -153 163 -151z
" />
    <glyph glyph-name="zero.dnom" horiz-adv-x="774" 
d="M387 -12c-206 0 -343 190 -343 473c0 282 137 473 343 473s346 -191 346 -473c0 -283 -140 -473 -346 -473zM389 174c90 0 153 107 153 287c0 179 -63 286 -153 286s-153 -107 -153 -286c0 -180 63 -287 153 -287z" />
    <glyph glyph-name="one.dnom" horiz-adv-x="480" 
d="M194 922h174v-922h-187v748l-185 -144v177z" />
    <glyph glyph-name="two.dnom" horiz-adv-x="720" 
d="M244 147h426v-147h-633v178c389 244 436 369 436 458c0 123 -67 149 -124 145c-92 -7 -117 -79 -113 -152h-196c-6 178 134 307 322 307c177 0 293 -116 294 -281c1 -172 -126 -361 -412 -508z" />
    <glyph glyph-name="three.dnom" horiz-adv-x="697" 
d="M529 504c81 -44 130 -118 130 -218c0 -165 -132 -298 -322 -298c-176 0 -314 115 -314 270h184c5 -80 66 -116 136 -116c83 0 132 47 132 135c0 86 -48 130 -143 130h-56v144h43c80 0 122 40 122 121c0 80 -42 114 -107 114c-60 0 -111 -29 -116 -122h-178
c0 166 125 270 290 270c163 0 278 -104 278 -254c0 -75 -28 -135 -79 -176z" />
    <glyph glyph-name="four.dnom" horiz-adv-x="734" 
d="M696 334v-139h-95v-195h-182v195h-418v165l354 562h246v-588h95zM152 334h267v446z" />
    <glyph glyph-name="five.dnom" horiz-adv-x="766" 
d="M387 599c241 0 331 -124 331 -297c0 -199 -147 -311 -329 -311c-184 0 -340 96 -345 304h190c4 -108 76 -151 151 -151c89 0 145 58 145 152c0 105 -54 154 -179 154h-290l100 473h524v-154h-392l-34 -170h128z" />
    <glyph glyph-name="six.dnom" horiz-adv-x="702" 
d="M690 316c2 -210 -169 -325 -343 -326c-172 -1 -341 109 -342 319c-1 81 33 147 74 203l299 410h223l-238 -296c8 1 15 2 24 2c155 0 302 -145 303 -312zM347 167c82 1 161 58 160 152c-1 98 -80 153 -162 151c-81 -1 -157 -55 -155 -155c1 -98 77 -149 157 -148z" />
    <glyph glyph-name="seven.dnom" horiz-adv-x="639" 
d="M16 922h635v-139l-417 -783h-217l411 746h-412v176z" />
    <glyph glyph-name="eight.dnom" horiz-adv-x="727" 
d="M560 508c80 -49 129 -131 129 -230c0 -164 -138 -290 -327 -290c-186 0 -324 126 -324 290c0 99 49 180 128 230c-51 43 -73 106 -73 183c0 137 113 243 271 243c155 0 268 -106 268 -243c0 -76 -22 -140 -72 -183zM364 783c-64 0 -110 -47 -110 -111
c0 -60 46 -109 110 -109c63 0 109 49 109 109c0 64 -46 111 -109 111zM362 152c81 0 140 66 140 146c0 81 -59 140 -140 140c-80 0 -137 -59 -137 -140c0 -80 57 -146 137 -146z" />
    <glyph glyph-name="nine.dnom" horiz-adv-x="704" 
d="M355 932c173 1 342 -109 343 -320c0 -80 -34 -146 -75 -202l-298 -410h-223l238 296c-8 -1 -16 -2 -25 -2c-154 -1 -302 145 -303 312c-1 209 170 325 343 326zM358 451c81 1 156 56 155 156c-1 98 -77 149 -157 148c-83 -2 -162 -58 -161 -153c2 -98 81 -152 163 -151z
" />
    <glyph glyph-name="zero.numr" horiz-adv-x="774" 
d="M387 532c-206 0 -343 191 -343 473c0 283 137 473 343 473s346 -190 346 -473c0 -282 -140 -473 -346 -473zM389 719c90 0 153 107 153 286c0 180 -63 286 -153 286s-153 -106 -153 -286c0 -179 63 -286 153 -286z" />
    <glyph glyph-name="one.numr" horiz-adv-x="481" 
d="M195 1458h175v-922h-189l2 749l-185 -145l-2 177z" />
    <glyph glyph-name="two.numr" horiz-adv-x="720" 
d="M244 689h426v-147h-633v178c389 245 436 370 436 458c0 124 -67 149 -124 146c-92 -7 -117 -80 -113 -153h-196c-6 178 134 307 322 307c177 0 293 -115 294 -280c1 -173 -126 -362 -412 -509z" />
    <glyph glyph-name="three.numr" horiz-adv-x="697" 
d="M526 1048c84 -44 133 -119 133 -218c0 -164 -134 -298 -320 -298c-180 0 -316 115 -316 271h196c0 -81 52 -116 120 -116c78 0 127 46 127 136c0 85 -49 129 -151 129h-39v143h26c90 0 130 40 130 124c0 74 -42 112 -100 112c-60 0 -102 -29 -102 -123l-190 1
c0 166 124 269 292 269c161 0 276 -103 276 -255c0 -75 -29 -134 -82 -175z" />
    <glyph glyph-name="four.numr" horiz-adv-x="734" 
d="M696 871v-140h-95v-195h-182v195h-418v165l354 562h246v-587h95zM152 871h267v446z" />
    <glyph glyph-name="five.numr" horiz-adv-x="766" 
d="M387 1133c241 0 331 -124 331 -297c0 -198 -147 -310 -329 -310c-184 0 -340 96 -345 303h190c4 -108 76 -150 151 -150c89 0 145 58 145 152c0 105 -54 154 -179 154h-290l100 473h524v-155h-392l-34 -170h128z" />
    <glyph glyph-name="six.numr" horiz-adv-x="702" 
d="M690 852c2 -209 -169 -325 -343 -326c-172 -1 -341 109 -342 320c-1 80 33 146 74 202l299 410h223l-238 -296c8 1 15 2 24 2c155 1 302 -145 303 -312zM347 703c82 2 161 58 160 152c-1 98 -80 153 -162 152c-81 -1 -157 -56 -155 -156c1 -98 77 -149 157 -148z" />
    <glyph glyph-name="seven.numr" horiz-adv-x="639" 
d="M16 1458h635v-139l-417 -783h-217l411 746h-412v176z" />
    <glyph glyph-name="eight.numr" horiz-adv-x="727" 
d="M561 1053c79 -50 128 -132 128 -231c0 -163 -138 -290 -327 -290c-186 0 -324 127 -324 290c0 99 49 181 127 230c-50 43 -72 107 -72 183c0 138 113 243 271 243c155 0 268 -105 268 -243c0 -76 -22 -140 -71 -182zM364 1328c-64 0 -110 -47 -110 -111
c0 -61 46 -109 110 -109c63 0 109 48 109 109c0 64 -46 111 -109 111zM362 697c81 0 140 66 140 146c0 81 -59 140 -140 140c-80 0 -137 -59 -137 -140c0 -80 57 -146 137 -146z" />
    <glyph glyph-name="nine.numr" horiz-adv-x="702" 
d="M358 1478c172 0 340 -111 340 -321c0 -80 -34 -145 -75 -201l-298 -409h-223l238 295c-8 -1 -17 -2 -26 -2c-154 0 -302 147 -302 314c0 209 172 324 346 324zM356 998c81 0 157 54 157 153s-75 150 -155 150c-83 0 -163 -56 -163 -149c0 -99 79 -154 161 -154z" />
    <glyph glyph-name="zero.sups" horiz-adv-x="774" 
d="M387 972c-206 0 -343 190 -343 473s137 473 343 473s346 -190 346 -473s-140 -473 -346 -473zM389 1159c90 0 153 106 153 286s-63 286 -153 286s-153 -106 -153 -286s63 -286 153 -286z" />
    <glyph glyph-name="one.sups" horiz-adv-x="481" 
d="M195 1905h175v-922h-189l2 748l-185 -144l-2 177z" />
    <glyph glyph-name="two.sups" horiz-adv-x="720" 
d="M244 1130h426v-147h-633v178c389 244 436 369 436 458c0 123 -67 149 -124 145c-92 -7 -117 -79 -113 -152h-196c-6 178 134 307 322 307c177 0 293 -116 294 -281c1 -172 -126 -361 -412 -508z" />
    <glyph glyph-name="three.sups" horiz-adv-x="697" 
d="M526 1487c84 -45 133 -119 133 -218c0 -165 -134 -298 -320 -298c-180 0 -316 115 -316 270h196c0 -80 52 -115 120 -115c78 0 127 46 127 136c0 84 -49 128 -151 128h-39v144h26c90 0 130 40 130 123c0 74 -42 112 -100 112c-60 0 -102 -29 -102 -122h-190
c0 166 124 270 292 270c161 0 276 -104 276 -256c0 -75 -29 -134 -82 -174z" />
    <glyph glyph-name="four.sups" horiz-adv-x="734" 
d="M696 1317v-139h-95v-195h-182v195h-418v165l354 562h246v-588h95zM152 1317h267v446z" />
    <glyph glyph-name="five.sups" horiz-adv-x="766" 
d="M387 1582c241 0 331 -124 331 -297c0 -199 -147 -311 -329 -311c-184 0 -340 97 -345 304h190c4 -108 76 -151 151 -151c89 0 145 58 145 152c0 105 -54 154 -179 154h-290l100 473h524v-154h-392l-34 -170h128z" />
    <glyph glyph-name="six.sups" horiz-adv-x="702" 
d="M690 1299c2 -209 -169 -325 -343 -326c-172 -1 -341 109 -342 319c-1 81 33 147 74 203l299 410h223l-237 -296c7 1 15 2 23 2c155 0 302 -145 303 -312zM347 1150c82 1 161 58 160 152c-1 98 -80 153 -162 151c-81 -1 -157 -55 -155 -155c1 -98 77 -149 157 -148z" />
    <glyph glyph-name="seven.sups" horiz-adv-x="639" 
d="M16 1905h635v-139l-417 -783h-217l411 746h-412v176z" />
    <glyph glyph-name="eight.sups" horiz-adv-x="727" 
d="M560 1491c80 -49 129 -131 129 -230c0 -164 -138 -290 -327 -290c-186 0 -324 126 -324 290c0 99 49 180 128 230c-51 43 -73 106 -73 183c0 137 113 243 271 243c155 0 268 -106 268 -243c0 -76 -22 -140 -72 -183zM364 1766c-64 0 -110 -47 -110 -111
c0 -60 46 -109 110 -109c63 0 109 49 109 109c0 64 -46 111 -109 111zM362 1135c81 0 140 66 140 146c0 82 -59 140 -140 140c-80 0 -137 -58 -137 -140c0 -80 57 -146 137 -146z" />
    <glyph glyph-name="nine.sups" horiz-adv-x="704" 
d="M355 1915c173 1 342 -109 343 -320c0 -80 -34 -146 -75 -202l-298 -410h-223l238 296c-8 -1 -16 -2 -25 -2c-154 -1 -302 145 -303 312c-1 209 170 325 343 326zM358 1434c81 1 156 56 155 156c-1 98 -77 149 -157 148c-83 -2 -162 -58 -161 -153c2 -98 81 -152 163 -151
z" />
    <glyph glyph-name="fraction" unicode="&#x2044;" horiz-adv-x="463" 
d="M-281 0l823 1458h202l-822 -1458h-203z" />
    <glyph glyph-name="onehalf" unicode="&#xbd;" horiz-adv-x="1664" 
d="M370 536h-189l2 749l-185 -145l-2 177l199 141h175v-922zM1023 1458h202l-822 -1458h-203zM1188 147h426v-147h-633v178c389 244 436 369 436 458c0 123 -67 149 -124 145c-92 -7 -117 -79 -113 -152h-196c-6 178 134 307 322 307c177 0 293 -116 294 -281
c1 -172 -126 -361 -412 -508z" />
    <glyph glyph-name="onequarter" unicode="&#xbc;" horiz-adv-x="1631" 
d="M370 536h-189l2 749l-185 -145l-2 177l199 141h175v-922zM1023 1458h202l-822 -1458h-203zM1593 334v-139h-95v-195h-182v195h-418v165l354 562h246v-588h95zM1049 334h267v446z" />
    <glyph glyph-name="threequarters" unicode="&#xbe;" horiz-adv-x="1847" 
d="M659 830c0 -164 -134 -298 -320 -298c-180 0 -316 115 -316 271h196c0 -81 52 -116 120 -116c78 0 127 46 127 136c0 85 -49 129 -151 129h-39v143h26c90 0 130 40 130 124c0 74 -42 112 -100 112c-60 0 -102 -29 -102 -123l-190 1c0 166 124 269 292 269
c161 0 276 -103 276 -255c0 -75 -29 -134 -82 -175c84 -44 133 -119 133 -218zM1239 1458h202l-822 -1458h-203zM1809 334v-139h-95v-195h-182v195h-418v165l354 562h246v-588h95zM1265 334h267v446z" />
    <glyph glyph-name="asterisk" unicode="*" horiz-adv-x="1007" 
d="M376 775l-152 91l164 195c34 41 15 74 -36 65l-256 -43v176l256 -43c51 -9 70 25 36 65l-164 196l152 91l90 -244c17 -50 59 -50 76 0l89 244l156 -91l-168 -196c-33 -40 -14 -74 38 -65l254 43v-176l-254 43c-52 9 -71 -23 -36 -65l166 -195l-156 -91l-89 242
c-17 50 -59 51 -76 0z" />
    <glyph glyph-name="backslash" unicode="\" horiz-adv-x="1241" 
d="M966 -418l-998 1954h307l998 -1954h-307z" />
    <glyph glyph-name="periodcentered" unicode="&#xb7;" horiz-adv-x="580" 
d="M290 605c-71 0 -132 58 -132 132c0 71 61 132 132 132c69 0 132 -61 132 -132c0 -74 -63 -132 -132 -132z" />
    <glyph glyph-name="bullet" unicode="&#x2022;" horiz-adv-x="932" 
d="M467 331c-186 0 -346 150 -346 344c0 186 160 346 346 346c184 0 344 -160 344 -346c0 -194 -160 -344 -344 -344z" />
    <glyph glyph-name="colon" unicode=":" horiz-adv-x="639" 
d="M317 622c-97 0 -180 82 -180 182c0 98 83 181 180 181c100 0 183 -83 183 -181c0 -100 -83 -182 -183 -182zM317 -20c-97 0 -180 82 -180 180c0 100 83 182 180 182c100 0 183 -82 183 -182c0 -98 -83 -180 -183 -180z" />
    <glyph glyph-name="comma" unicode="," horiz-adv-x="680" 
d="M364 -370h-232l126 664h334z" />
    <glyph glyph-name="ellipsis" unicode="&#x2026;" horiz-adv-x="2060" 
d="M329 -20c-97 0 -180 82 -180 180c0 100 83 182 180 182c100 0 183 -82 183 -182c0 -98 -83 -180 -183 -180zM1031 -20c-97 0 -180 82 -180 180c0 100 83 182 180 182c100 0 183 -82 183 -182c0 -98 -83 -180 -183 -180zM1728 -20c-97 0 -180 82 -180 180
c0 100 83 182 180 182c100 0 183 -82 183 -182c0 -98 -83 -180 -183 -180z" />
    <glyph glyph-name="exclam" unicode="!" horiz-adv-x="675" 
d="M206 481l-35 977h329l-35 -977h-259zM336 -20c-100 0 -181 81 -181 180c0 102 81 182 181 182c101 0 182 -80 182 -182c0 -99 -81 -180 -182 -180z" />
    <glyph glyph-name="exclamdown" unicode="&#xa1;" horiz-adv-x="675" 
d="M336 1060c101 0 182 -81 182 -180c0 -102 -81 -182 -182 -182c-100 0 -181 80 -181 182c0 99 81 180 181 180zM206 559h259l35 -977h-329z" />
    <glyph glyph-name="numbersign" unicode="#" horiz-adv-x="1587" 
d="M305 0l44 321h-279l30 225h280l54 361h-284l39 223h275l48 329h223l-44 -329h321l46 329h225l-46 -329h282l-35 -223h-279l-50 -361h279l-32 -225h-277l-50 -321h-222l45 321h-326l-43 -321h-224zM607 546h321l53 361h-326z" />
    <glyph glyph-name="period" unicode="." horiz-adv-x="661" 
d="M329 -20c-97 0 -180 82 -180 180c0 100 83 182 180 182c100 0 183 -82 183 -182c0 -98 -83 -180 -183 -180z" />
    <glyph glyph-name="question" unicode="?" horiz-adv-x="1081" 
d="M406 464v102c0 134 70 191 193 253c78 39 123 97 123 199c0 133 -82 192 -191 192c-118 0 -192 -72 -192 -180c0 -28 6 -60 13 -90l-292 39c-3 24 -5 44 -5 71c0 252 188 428 471 428c276 0 484 -167 484 -451c0 -236 -138 -345 -267 -394c-50 -19 -77 -49 -77 -103v-66
h-260zM540 -20c-101 0 -182 80 -182 180c0 101 82 181 182 181c97 0 178 -80 178 -181c0 -100 -79 -180 -178 -180z" />
    <glyph glyph-name="questiondown" unicode="&#xbf;" horiz-adv-x="1081" 
d="M525 1064c101 0 182 -80 182 -180c0 -101 -82 -181 -182 -181c-97 0 -178 80 -178 181c0 100 79 180 178 180zM659 580v-102c0 -134 -70 -191 -193 -253c-78 -39 -123 -97 -123 -199c0 -133 82 -192 191 -192c118 0 192 72 192 180c0 28 -6 60 -13 90l292 -39
c3 -24 5 -44 5 -71c0 -252 -188 -428 -471 -428c-276 0 -484 167 -484 451c0 236 138 345 267 394c50 19 77 49 77 103v66h260z" />
    <glyph glyph-name="quotedbl" unicode="&#x22;" horiz-adv-x="1099" 
d="M218 803l-46 655h310l-35 -655h-229zM653 803l-35 655h308l-44 -655h-229z" />
    <glyph glyph-name="quotesingle" unicode="'" horiz-adv-x="659" 
d="M212 803l-34 655h307l-44 -655h-229z" />
    <glyph glyph-name="semicolon" unicode=";" horiz-adv-x="671" 
d="M365 622c-98 0 -181 82 -181 182c0 98 83 181 181 181c99 0 182 -83 182 -181c0 -100 -83 -182 -182 -182zM95 -370l126 664h334l-229 -664h-231z" />
    <glyph glyph-name="slash" unicode="/" horiz-adv-x="1241" 
d="M-32 -418l998 1954h307l-998 -1954h-307z" />
    <glyph glyph-name="underscore" unicode="_" horiz-adv-x="1299" 
d="M138 -275v275h1024v-275h-1024z" />
    <glyph glyph-name="braceleft" unicode="{" horiz-adv-x="709" 
d="M523 -488c-216 0 -337 128 -337 288v397c0 195 -32 198 -154 237v178c122 39 154 42 154 240v396c0 160 121 288 337 288h136v-230h-73c-54 0 -95 -29 -95 -101v-349c0 -175 -34 -283 -258 -332c224 -50 258 -159 258 -332v-353c0 -73 27 -98 95 -98h73v-229h-136z" />
    <glyph glyph-name="braceright" unicode="}" horiz-adv-x="706" 
d="M183 -488h-136v229h73c68 0 95 25 95 98v353c0 173 34 282 258 332c-224 49 -258 157 -258 332v349c0 72 -41 101 -95 101h-73v230h136c216 0 337 -128 337 -288v-396c0 -198 32 -201 154 -240v-178c-122 -39 -154 -42 -154 -237v-397c0 -160 -121 -288 -337 -288z" />
    <glyph glyph-name="bracketleft" unicode="[" horiz-adv-x="729" 
d="M140 -512v2048h550v-229h-264v-1590h264v-229h-550z" />
    <glyph glyph-name="bracketright" unicode="]" horiz-adv-x="720" 
d="M580 -512h-550v229h264v1590h-264v229h550v-2048z" />
    <glyph glyph-name="parenleft" unicode="(" horiz-adv-x="708" 
d="M508 -473c-270 203 -435 635 -435 1145c0 509 165 941 435 1145l188 -223c-192 -136 -326 -496 -326 -922c0 -428 134 -787 326 -922z" />
    <glyph glyph-name="parenright" unicode=")" horiz-adv-x="708" 
d="M200 -473l-188 223c192 135 326 494 326 922c0 426 -134 786 -326 922l188 223c270 -204 435 -636 435 -1145c0 -510 -165 -942 -435 -1145z" />
    <glyph glyph-name="emdash" unicode="&#x2014;" horiz-adv-x="2323" 
d="M138 395v275h2048v-275h-2048z" />
    <glyph glyph-name="endash" unicode="&#x2013;" horiz-adv-x="1299" 
d="M138 395v275h1024v-275h-1024z" />
    <glyph glyph-name="hyphen" unicode="-" horiz-adv-x="992" 
d="M138 395v275h716v-275h-716z" />
    <glyph glyph-name="uni00AD" unicode="&#xad;" horiz-adv-x="992" 
d="M138 398v279h716v-279h-716z" />
    <glyph glyph-name="guillemotleft" unicode="&#xab;" horiz-adv-x="1141" 
d="M344 290l-312 377l312 377h259l-312 -377l312 -377h-259zM836 290l-311 377l311 377h261l-311 -377l311 -377h-261z" />
    <glyph glyph-name="guillemotright" unicode="&#xbb;" horiz-adv-x="1141" 
d="M44 290l312 377l-312 377h259l312 -377l-312 -377h-259zM537 290l311 377l-311 377h261l311 -377l-311 -377h-261z" />
    <glyph glyph-name="guilsinglleft" unicode="&#x2039;" horiz-adv-x="647" 
d="M344 290l-312 377l312 377h259l-312 -377l312 -377h-259z" />
    <glyph glyph-name="guilsinglright" unicode="&#x203a;" horiz-adv-x="647" 
d="M44 290l312 377l-312 377h259l312 -377l-312 -377h-259z" />
    <glyph glyph-name="quotedblbase" unicode="&#x201e;" horiz-adv-x="1106" 
d="M336 -370h-232l126 664h334zM818 -370h-232l126 664h334z" />
    <glyph glyph-name="quotedblleft" unicode="&#x201c;" horiz-adv-x="1114" 
d="M288 1457h232l-126 -664h-334zM778 1457h232l-126 -664h-334z" />
    <glyph glyph-name="quotedblright" unicode="&#x201d;" horiz-adv-x="1114" 
d="M336 794h-232l126 664h334zM826 794h-232l126 664h334z" />
    <glyph glyph-name="quoteleft" unicode="&#x2018;" horiz-adv-x="624" 
d="M287 1457h232l-126 -664h-334z" />
    <glyph glyph-name="quoteright" unicode="&#x2019;" horiz-adv-x="623" 
d="M336 794h-232l126 664h334z" />
    <glyph glyph-name="quotesinglbase" unicode="&#x201a;" horiz-adv-x="623" 
d="M336 -370h-232l126 664h334z" />
    <glyph glyph-name="space" unicode=" " horiz-adv-x="582" 
 />
    <glyph glyph-name="cent" unicode="&#xa2;" horiz-adv-x="1125" 
d="M642 494c75 0 139 40 181 108l223 -198c-82 -97 -197 -161 -331 -178v-226h-189v232c-249 49 -420 255 -420 538s171 489 420 538v228h189v-222c134 -17 249 -81 331 -178l-223 -197c-42 67 -106 108 -181 108c-125 0 -225 -107 -225 -277s100 -276 225 -276z" />
    <glyph glyph-name="currency" unicode="&#xa4;" horiz-adv-x="1394" 
d="M324 196l-171 181l109 109c-47 77 -71 166 -71 256s24 180 72 259l-108 107l172 180l112 -112c80 48 169 72 260 72c89 0 178 -24 256 -72l111 111l174 -175l-109 -109c48 -79 71 -169 71 -260c0 -89 -23 -180 -71 -259l107 -107l-171 -181l-112 113
c-78 -46 -169 -70 -258 -70c-91 0 -180 24 -260 70zM697 482c150 0 260 126 260 263c0 143 -117 258 -260 258c-145 0 -260 -120 -260 -264c0 -149 122 -257 260 -257z" />
    <glyph glyph-name="dollar" unicode="$" horiz-adv-x="1374" 
d="M1261 425c0 -294 -232 -429 -501 -445v-144h-117v144c-285 18 -508 168 -547 433l353 81c11 -132 88 -210 194 -233v348l-56 18c-210 67 -438 149 -438 417c0 263 206 421 494 431v129h117v-132c227 -22 444 -132 497 -388l-328 -81c-20 113 -78 173 -169 192v-314
c9 -2 18 -5 27 -8c214 -66 474 -158 474 -448zM493 1053c0 -64 62 -101 150 -134v279c-87 -13 -150 -58 -150 -145zM760 256c90 11 149 61 148 150c0 78 -60 124 -148 161v-311z" />
    <glyph glyph-name="Euro" unicode="&#x20ac;" horiz-adv-x="1549" 
d="M879 287c145 0 241 82 292 207l291 -176c-116 -202 -321 -338 -581 -338c-306 0 -554 176 -630 518h-142v171h120c-1 20 -2 41 -2 62c0 20 0 40 1 60h-119v172h142c76 341 324 515 630 515c260 0 465 -133 581 -334l-291 -176c-53 132 -152 206 -292 206
c-127 0 -234 -56 -284 -211h370v-172h-399c-1 -19 -2 -39 -2 -60c0 -22 1 -42 2 -62h399v-171h-370c50 -155 157 -211 284 -211z" />
    <glyph glyph-name="florin" unicode="&#x192;" horiz-adv-x="1068" 
d="M119 -434l195 1229h-171l39 249h173l19 135c32 217 235 377 449 377c75 0 140 -19 163 -38l-26 -227c-26 23 -68 32 -102 32c-105 0 -175 -71 -194 -188l-14 -91h274l-39 -249h-274l-196 -1229h-296z" />
    <glyph glyph-name="sterling" unicode="&#xa3;" horiz-adv-x="1330" 
d="M127 0v192l58 14c63 16 91 60 91 128v252h-149v232h149v131c0 310 207 533 508 533c202 0 423 -105 423 -387c0 -27 -2 -49 -5 -74l-281 -64c10 39 14 74 14 100c0 110 -67 158 -159 158c-127 0 -202 -88 -202 -266v-131h269v-232h-269v-309h600v-277h-1047z" />
    <glyph glyph-name="yen" unicode="&#xa5;" horiz-adv-x="1440" 
d="M552 0v196h-324v190h324v186h-324v190h279l-441 696h374l280 -463l282 463h373l-441 -696h278v-190h-320v-186h320v-190h-320v-196h-340z" />
    <glyph glyph-name="plus" unicode="+" horiz-adv-x="1192" 
d="M474 205v379h-379v245h379v379h244v-379h379v-245h-379v-379h-244z" />
    <glyph glyph-name="minus" unicode="&#x2212;" horiz-adv-x="1338" 
d="M208 584v245h922v-245h-922z" />
    <glyph glyph-name="multiply" unicode="&#xd7;" horiz-adv-x="1075" 
d="M271 261l-174 174l267 268l-267 267l174 174l267 -267l266 267l174 -174l-267 -267l267 -268l-174 -174l-266 268z" />
    <glyph glyph-name="divide" unicode="&#xf7;" horiz-adv-x="1103" 
d="M542 929c-85 0 -161 70 -161 161c0 86 76 162 161 162c86 0 162 -76 162 -162c0 -91 -76 -161 -162 -161zM90 584v245h923v-245h-923zM542 161c-85 0 -161 70 -161 162c0 85 76 161 161 161c86 0 162 -76 162 -161c0 -92 -76 -162 -162 -162z" />
    <glyph glyph-name="equal" unicode="=" horiz-adv-x="1343" 
d="M210 810v245h923v-245h-923zM210 362v244h923v-244h-923z" />
    <glyph glyph-name="notequal" unicode="&#x2260;" horiz-adv-x="1258" 
d="M134 0l185 362h-157v244h281l105 204h-386v245h510l154 301h241l-154 -301h201v-245h-325l-105 -204h430v-244h-554l-185 -362h-241z" />
    <glyph glyph-name="greater" unicode="&#x3e;" horiz-adv-x="1328" 
d="M119 1486l1131 -567v-294l-1131 -572v275l879 444l-879 444v270z" />
    <glyph glyph-name="less" unicode="&#x3c;" horiz-adv-x="1328" 
d="M1209 1486v-270l-879 -444l879 -444v-275l-1130 572v294z" />
    <glyph glyph-name="greaterequal" unicode="&#x2265;" horiz-adv-x="1389" 
d="M142 1526l1131 -483v-295l-1131 -487v272l855 362l-855 361v270zM142 0v205h1131v-205h-1131z" />
    <glyph glyph-name="lessequal" unicode="&#x2264;" horiz-adv-x="1389" 
d="M1246 1526v-270l-854 -361l854 -362v-272l-1130 487v295zM116 0v205h1130v-205h-1130z" />
    <glyph glyph-name="plusminus" unicode="&#xb1;" horiz-adv-x="1254" 
d="M509 377v380h-379v244h379v379h245v-379h379v-244h-379v-380h-245zM118 -1v245h1012v-245h-1012z" />
    <glyph glyph-name="approxequal" unicode="&#x2248;" horiz-adv-x="1362" 
d="M890 693c-167 0 -260 113 -304 158c-37 38 -64 42 -85 42c-79 0 -117 -78 -122 -186h-229c7 248 130 416 355 416c109 0 186 -41 271 -148c19 -24 45 -60 96 -60c65 0 109 65 117 183h224c-8 -230 -116 -405 -323 -405zM890 178c-167 0 -262 115 -304 161
c-27 28 -46 42 -85 40c-83 -5 -117 -78 -122 -186h-229c7 253 135 418 355 418c103 0 179 -43 271 -148c17 -21 45 -62 96 -62c65 0 109 63 117 185h224c-8 -228 -116 -408 -323 -408z" />
    <glyph glyph-name="asciitilde" unicode="~" horiz-adv-x="1366" 
d="M888 306c-168 0 -257 116 -304 159c-36 34 -62 42 -83 42c-89 0 -123 -96 -125 -187h-228c-11 245 122 415 360 415c125 0 194 -48 265 -146c22 -28 48 -62 94 -62c67 0 127 68 119 185h225c24 -230 -116 -406 -323 -406z" />
    <glyph glyph-name="logicalnot" unicode="&#xac;" horiz-adv-x="1686" 
d="M1214 256v524h-1112v264h1374v-788h-262z" />
    <glyph glyph-name="emptyset" unicode="&#x2205;" horiz-adv-x="1473" 
d="M738 -16c-148 0 -283 52 -388 139l-90 -90l-86 86l90 90c-86 105 -139 240 -139 387c0 338 275 612 613 612c147 0 282 -52 387 -139l90 90l86 -86l-90 -90c86 -105 139 -240 139 -387c0 -338 -275 -612 -612 -612zM448 392l493 494c-57 40 -128 63 -203 63
c-197 0 -353 -157 -353 -353c0 -76 23 -146 63 -204zM738 243c196 0 352 157 352 353c0 76 -22 146 -63 204l-493 -494c57 -40 128 -63 204 -63z" />
    <glyph glyph-name="infinity" unicode="&#x221e;" horiz-adv-x="1688" 
d="M468 252c-190 0 -324 140 -330 344c6 204 140 344 330 344c120 0 251 -69 374 -191c125 123 255 191 375 191c199 0 322 -128 328 -344c-6 -216 -129 -344 -328 -344c-120 0 -250 67 -375 191c-123 -122 -254 -191 -374 -191zM468 461c64 0 149 47 235 135
c-86 88 -171 135 -235 135c-67 0 -123 -54 -123 -135s56 -135 123 -135zM1217 461c69 0 121 49 121 135s-52 135 -121 135c-66 0 -149 -48 -237 -135c88 -87 171 -135 237 -135z" />
    <glyph glyph-name="integral" unicode="&#x222b;" horiz-adv-x="937" 
d="M59 -457v306c193 0 235 47 235 212v1072c0 202 152 345 354 345c78 0 181 -21 245 -86l-114 -244c-32 32 -65 48 -96 48c-48 0 -80 -32 -80 -130v-1036c0 -304 -229 -487 -544 -487z" />
    <glyph glyph-name="product" unicode="&#x220f;" horiz-adv-x="1708" 
d="M235 0v1170h-108v288h1455v-288h-109v-1170h-286v1170h-662v-1170h-290z" />
    <glyph glyph-name="summation" unicode="&#x2211;" horiz-adv-x="1412" 
d="M97 0v202l580 564l-580 564v206h1209v-248h-779l517 -522l-517 -521h779v-245h-1209z" />
    <glyph glyph-name="radical" unicode="&#x221a;" horiz-adv-x="1477" 
d="M441 0l-210 647h-158v271h350l171 -517l542 1135h297l-738 -1536h-254z" />
    <glyph glyph-name="uni00B5" unicode="&#xb5;" horiz-adv-x="1350" 
d="M913 1044h280v-1044h-280v120c-76 -87 -182 -140 -302 -140c-50 0 -98 9 -142 26v-518h-259v1556h280v-617c0 -113 90 -202 203 -202c124 0 220 89 220 202v617z" />
    <glyph glyph-name="partialdiff" unicode="&#x2202;" horiz-adv-x="1214" 
d="M325 1459c428 106 787 -268 772 -787c-10 -406 -242 -673 -574 -673c-341 0 -526 269 -389 634c115 308 375 449 629 380c-68 179 -214 276 -438 218v228zM808 672c2 37 2 73 0 108c-172 92 -331 8 -405 -219c-78 -239 28 -354 136 -354c111 0 253 134 269 465z" />
    <glyph glyph-name="percent" unicode="%" horiz-adv-x="1763" 
d="M428 772c-196 0 -353 157 -353 354c0 193 159 352 353 352c196 0 352 -159 352 -352c0 -195 -156 -354 -352 -354zM365 0l757 1458h269l-759 -1458h-267zM428 986c81 0 139 61 139 140c0 77 -63 139 -139 139c-77 0 -140 -60 -140 -139c0 -80 63 -140 140 -140zM1337 -17
c-197 0 -354 157 -354 353s159 353 354 353c194 0 351 -157 351 -353c0 -194 -157 -353 -351 -353zM1337 198c77 0 140 61 140 138c0 76 -64 140 -140 140c-79 0 -141 -61 -141 -140c0 -77 62 -138 141 -138z" />
    <glyph glyph-name="perthousand" unicode="&#x2030;" horiz-adv-x="2568" 
d="M428 772c-196 0 -353 157 -353 354c0 193 159 352 353 352c196 0 352 -159 352 -352c0 -195 -156 -354 -352 -354zM365 0l757 1458h269l-759 -1458h-267zM428 986c81 0 139 61 139 140c0 77 -63 139 -139 139c-77 0 -140 -60 -140 -139c0 -80 63 -140 140 -140zM1337 -17
c-197 0 -354 157 -354 353s159 353 354 353c194 0 351 -157 351 -353c0 -194 -157 -353 -351 -353zM2143 -17c-198 0 -355 157 -355 353s159 353 355 353c194 0 351 -157 351 -353c0 -194 -157 -353 -351 -353zM1337 198c77 0 140 61 140 138c0 76 -64 140 -140 140
c-79 0 -141 -61 -141 -140c0 -77 62 -138 141 -138zM2143 198c77 0 140 61 140 138c0 76 -65 140 -140 140c-79 0 -141 -61 -141 -140c0 -77 62 -138 141 -138z" />
    <glyph glyph-name="lozenge" unicode="&#x25ca;" horiz-adv-x="1330" 
d="M665 106l-618 617l618 618l617 -616zM666 465l257 260l-257 258l-260 -260z" />
    <glyph glyph-name="uniF8FF" unicode="&#xf8ff;" horiz-adv-x="1758" 
d="M879 0c-428 0 -778 350 -778 778c0 430 350 778 778 778c430 0 778 -348 778 -778c0 -428 -348 -778 -778 -778zM879 74c389 0 705 317 705 704c0 389 -316 705 -705 705c-387 0 -704 -316 -704 -705c0 -387 317 -704 704 -704zM1287 444c-8 0 -18 5 -25 13l-297 295
c-14 16 -14 39 0 53l297 297c14 14 37 14 51 0c15 -15 15 -39 0 -53l-270 -271l270 -270c15 -14 13 -35 0 -51c-6 -8 -16 -13 -26 -13zM472 444c-21 0 -37 17 -37 37v594c0 21 16 37 37 37c20 0 36 -16 36 -37v-594c0 -20 -16 -37 -36 -37zM879 444c-20 0 -37 17 -37 37v594
c0 21 17 37 37 37c21 0 37 -16 37 -37v-594c0 -20 -16 -37 -37 -37zM582 741c-20 0 -37 17 -37 37c0 21 17 37 37 37h187c20 0 36 -16 36 -37c0 -20 -16 -37 -36 -37h-187z" />
    <glyph glyph-name="at" unicode="@" horiz-adv-x="1771" 
d="M889 -225c-436 0 -788 348 -788 789c0 429 334 786 788 786s788 -357 788 -782c0 -296 -163 -398 -328 -398c-105 0 -199 10 -275 109h-17c-62 -79 -159 -115 -254 -115c-135 0 -262 72 -262 213c0 155 152 207 263 234l202 51v33c0 77 -46 98 -111 98
c-73 0 -122 -23 -138 -110l-211 48c34 132 154 213 349 213c157 0 335 -54 335 -286v-184c0 -95 34 -139 123 -139c85 0 141 47 141 211c0 354 -255 620 -603 620c-353 0 -606 -272 -606 -600c0 -340 271 -609 606 -609c119 0 230 34 333 97l85 -159
c-120 -77 -267 -120 -420 -120zM852 320c64 0 176 31 176 163v52l-149 -41c-92 -26 -116 -53 -116 -99c0 -44 23 -75 89 -75z" />
    <glyph glyph-name="ampersand" unicode="&#x26;" horiz-adv-x="1605" 
d="M1523 0h-370l-89 111c-131 -82 -286 -131 -454 -131c-305 0 -530 158 -530 441c0 208 124 309 364 457l-18 23c-92 114 -119 199 -119 274c0 99 44 175 118 227c71 50 171 76 289 76c262 0 416 -130 416 -308c0 -124 -75 -228 -277 -348l239 -294c69 111 106 237 106 343
h293c0 -209 -79 -412 -212 -572zM642 1244c-19 -16 -29 -42 -29 -71c0 -41 20 -81 63 -134l27 -34c96 57 140 118 140 171c0 57 -50 96 -119 96c-36 0 -62 -10 -82 -28zM624 245c102 0 192 30 269 78l-290 358c-130 -79 -224 -134 -224 -253s96 -183 245 -183z" />
    <glyph glyph-name="paragraph" unicode="&#xb6;" horiz-adv-x="1192" 
d="M463 -307v1079h-31c-226 0 -365 121 -365 344s139 342 365 342h194v-1765h-163zM817 -307v1765h165v-1765h-165z" />
    <glyph glyph-name="section" unicode="&#xa7;" horiz-adv-x="1285" 
d="M1050 233c62 -58 103 -137 103 -247c0 -282 -237 -400 -502 -400c-281 0 -505 136 -544 386l283 65c20 -151 130 -227 272 -227c118 0 209 50 208 164c0 125 -149 167 -314 216c-195 59 -403 133 -403 378c0 110 42 200 113 264c-68 55 -113 132 -113 246
c0 249 201 388 470 388c235 0 471 -96 522 -349l-265 -67c-25 135 -114 192 -241 192c-113 0 -209 -46 -209 -157c0 -104 132 -139 284 -184c202 -61 439 -137 439 -404c0 -114 -39 -201 -103 -264zM430 575c0 -104 132 -139 284 -184c31 -9 62 -18 93 -29
c41 24 64 65 63 122c0 125 -149 165 -314 216l-18 6c-65 -19 -108 -61 -108 -131z" />
    <glyph glyph-name="copyright" unicode="&#xa9;" horiz-adv-x="1707" 
d="M853 -20c-413 0 -750 337 -750 750s337 750 750 750s751 -337 751 -750s-338 -750 -751 -750zM853 147c327 0 583 256 583 583c0 326 -256 583 -583 583c-326 0 -583 -257 -583 -583c0 -327 257 -583 583 -583zM858 310c-230 0 -419 188 -419 419c0 233 188 419 419 419
c134 0 256 -63 332 -161l-144 -111c-42 61 -110 95 -188 95c-133 0 -235 -101 -235 -242c0 -139 102 -240 235 -240c79 0 146 34 188 94l144 -110c-76 -100 -198 -163 -332 -163z" />
    <glyph glyph-name="registered" unicode="&#xae;" horiz-adv-x="1760" 
d="M879 1480c414 0 751 -337 751 -750s-337 -750 -751 -750c-412 0 -750 337 -750 750s338 750 750 750zM879 147c327 0 584 256 584 583c0 326 -257 583 -584 583c-326 0 -582 -257 -582 -583c0 -327 256 -583 582 -583zM1207 893c0 -95 -51 -173 -127 -213l151 -358h-199
l-127 330h-108v-330h-182v816h348c137 0 244 -109 244 -245zM797 978v-177h137c55 0 98 38 98 89c0 52 -43 88 -98 88h-137z" />
    <glyph glyph-name="trademark" unicode="&#x2122;" horiz-adv-x="1602" 
d="M99 1401v135h470v-135h-159v-581h-152v581h-159zM1233 1536h158v-716h-149v466l-210 -347l-212 348v-467h-151v716h164l198 -335z" />
    <glyph glyph-name="degree" unicode="&#xb0;" horiz-adv-x="906" 
d="M453 852c-175 0 -313 137 -313 313c0 175 138 313 313 313c174 0 313 -138 313 -313c0 -176 -139 -313 -313 -313zM453 1030c76 0 133 59 133 135s-57 134 -133 134s-134 -58 -134 -134s58 -135 134 -135z" />
    <glyph glyph-name="bar" unicode="|" horiz-adv-x="622" 
d="M210 -307v1843h202v-1843h-202z" />
    <glyph glyph-name="brokenbar" unicode="&#xa6;" horiz-adv-x="622" 
d="M210 799v737h202v-737h-202zM210 -307v737h202v-737h-202z" />
    <glyph glyph-name="uni2113" unicode="&#x2113;" horiz-adv-x="1171" 
d="M637 -14c-240 0 -356 125 -396 298c0 6 0 12 -1 18c-34 -23 -64 -48 -101 -70l-83 159c63 45 122 86 177 129v451c0 365 170 529 406 529c227 0 327 -166 327 -360c0 -234 -159 -440 -426 -669l4 -68c5 -104 73 -168 171 -168c108 0 207 87 272 179l129 -135
c-123 -221 -307 -293 -479 -293zM542 740c129 137 214 289 214 407c0 89 -30 144 -99 144c-59 0 -115 -61 -115 -283v-268z" />
    <glyph glyph-name="dagger" unicode="&#x2020;" horiz-adv-x="987" 
d="M928 1110v-205h-335v-1167h-207v1167h-327v205h327v348h207v-348h335z" />
    <glyph glyph-name="daggerdbl" unicode="&#x2021;" horiz-adv-x="1073" 
d="M971 905h-335v-597h335v-205h-335v-365h-207v365h-327v205h327v597h-327v205h327v348h207v-348h335v-205z" />
    <glyph glyph-name="estimated" unicode="&#x212e;" horiz-adv-x="1917" 
d="M973 -18c-483 0 -874 352 -874 784c0 438 391 790 874 790c485 0 877 -352 877 -790v-21h-1418c-8 0 -12 -2 -12 -8v-430c0 -18 8 -35 19 -49c137 -141 327 -233 536 -233c227 0 428 102 565 262h125c-155 -185 -409 -305 -692 -305zM432 788h1088c6 0 8 9 8 15v430
c0 18 -6 39 -20 51c-138 135 -324 225 -533 225c-207 0 -395 -92 -534 -231c-13 -14 -21 -33 -21 -53v-422c0 -6 4 -15 12 -15z" />
    <glyph glyph-name="uni2116" unicode="&#x2116;" horiz-adv-x="2974" 
d="M1241 526v1010h342v-1536h-355l-678 1017v-1017h-340v1536h353zM2310 378c-327 0 -555 221 -555 551c0 328 227 549 555 549s554 -221 554 -549c0 -330 -228 -551 -554 -551zM2307 1205c-137 0 -223 -101 -223 -276c0 -176 86 -277 223 -277c140 0 228 101 228 277
c0 175 -88 276 -228 276zM1848 0v207h924v-207h-924z" />
    <glyph glyph-name="asciicircum" unicode="^" horiz-adv-x="1434" 
d="M1377 327h-274l-386 850l-386 -850h-274l512 1131h296z" />
    <glyph glyph-name="uni0308" unicode="&#x308;" 
d="M-725 1172c-101 0 -184 81 -184 182c0 100 83 181 184 181c98 0 181 -81 181 -181c0 -101 -83 -182 -181 -182zM-275 1172c-101 0 -184 81 -184 182c0 100 83 181 184 181c98 0 181 -81 181 -181c0 -101 -83 -182 -181 -182z" />
    <glyph glyph-name="uni0307" unicode="&#x307;" 
d="M-275 1172c-101 0 -184 81 -184 182c0 100 83 181 184 181c98 0 181 -81 181 -181c0 -101 -83 -182 -181 -182z" />
    <glyph glyph-name="gravecomb" unicode="&#x300;" 
d="M-219 1191l-227 270l158 112l266 -382h-197z" />
    <glyph glyph-name="acutecomb" unicode="&#x301;" 
d="M-466 1191l266 382l158 -112l-227 -270h-197z" />
    <glyph glyph-name="uni030B" unicode="&#x30b;" 
d="M-849 1191l266 382l158 -112l-227 -270h-197zM-466 1191l267 382l157 -112l-226 -270h-198z" />
    <glyph glyph-name="uni0302" unicode="&#x302;" 
d="M-488 1236h-197l232 300h190l232 -300h-198l-129 151z" />
    <glyph glyph-name="uni030C" unicode="&#x30c;" 
d="M-455 1236l-233 300h198l129 -151l130 151h197l-232 -300h-189z" />
    <glyph glyph-name="uni0306" unicode="&#x306;" 
d="M-449 1174c-221 0 -372 118 -372 362h202c0 -125 55 -212 170 -212c117 0 172 87 172 212h203c0 -244 -152 -362 -375 -362z" />
    <glyph glyph-name="uni030A" unicode="&#x30a;" 
d="M-328 1129c-138 0 -250 113 -250 250c0 135 112 247 250 247c136 0 247 -112 247 -247c0 -137 -111 -250 -247 -250zM-328 1263c65 0 115 46 115 116c0 62 -50 118 -115 118s-113 -56 -113 -118c0 -70 48 -116 113 -116z" />
    <glyph glyph-name="tildecomb" unicode="&#x303;" 
d="M-303 1168c-77 0 -136 34 -180 104c-16 25 -31 35 -51 35c-44 0 -63 -54 -63 -127h-150c0 159 77 274 208 274c81 0 143 -46 180 -105c12 -19 25 -34 52 -34c44 0 60 49 60 126h152c0 -154 -72 -273 -208 -273z" />
    <glyph glyph-name="uni0304" unicode="&#x304;" 
d="M-806 1219v189h670v-189h-670z" />
    <glyph glyph-name="hookabovecomb" unicode="&#x309;" 
d="M-351 1135v141c75 12 108 45 108 92c0 36 -19 63 -63 63c-28 0 -59 -12 -86 -41l-72 106c42 36 100 60 178 60c130 0 201 -71 201 -177c0 -102 -63 -138 -126 -158v-86h-140z" />
    <glyph glyph-name="uni0312" unicode="&#x312;" 
d="M-309 1534h232l-126 -334h-334z" />
    <glyph glyph-name="uni031B" unicode="&#x31b;" 
d="M-308 743c-58 0 -137 22 -206 65l51 107c40 -21 74 -28 98 -28c74 0 97 28 97 137v135h151v-186c0 -182 -93 -230 -191 -230z" />
    <glyph glyph-name="dotbelowcomb" unicode="&#x323;" 
d="M-275 -512c-101 0 -184 81 -184 182c0 100 83 181 184 181c98 0 181 -81 181 -181c0 -101 -83 -182 -181 -182z" />
    <glyph glyph-name="uni0326" unicode="&#x326;" 
d="M-313 -579l-157 74l169 376h283z" />
    <glyph glyph-name="uni0327" unicode="&#x327;" 
d="M-290 -532c-122 0 -211 70 -240 158l142 47c15 -40 55 -61 91 -61c45 0 86 31 86 83c0 55 -41 83 -87 83c-28 0 -55 -11 -71 -33l-115 65l125 224h151l-91 -152c14 3 29 5 43 5c111 0 193 -79 193 -192c0 -127 -100 -227 -227 -227z" />
    <glyph glyph-name="uni0328" unicode="&#x328;" 
d="M-267 -438c-109 0 -199 37 -199 114c0 98 129 242 263 359l91 -35c-77 -66 -172 -166 -172 -218c0 -23 20 -33 54 -33c39 0 90 17 118 44v-201c-43 -19 -100 -30 -155 -30z" />
    <glyph glyph-name="uni0335" unicode="&#x335;" 
d="M-855 413v196h717v-196h-717z" />
    <glyph glyph-name="uni0336" unicode="&#x336;" 
d="M-1669 469v127h1533v-127h-1533z" />
    <glyph glyph-name="uni0337" unicode="&#x337;" 
d="M-697 238v200l666 494v-201z" />
    <glyph glyph-name="uni0338" unicode="&#x338;" 
d="M-910 206l805 1155l125 -74l-805 -1155z" />
    <glyph glyph-name="uni0308.case" 
d="M-725 1536c-101 0 -184 81 -184 182c0 100 83 181 184 181c98 0 181 -81 181 -181c0 -101 -83 -182 -181 -182zM-275 1536c-101 0 -184 81 -184 182c0 100 83 181 184 181c98 0 181 -81 181 -181c0 -101 -83 -182 -181 -182z" />
    <glyph glyph-name="uni0307.case" 
d="M-275 1536c-101 0 -184 81 -184 182c0 100 83 181 184 181c98 0 181 -81 181 -181c0 -101 -83 -182 -181 -182z" />
    <glyph glyph-name="gravecomb.case" 
d="M-219 1589l-227 269l158 112l266 -381h-197z" />
    <glyph glyph-name="acutecomb.case" 
d="M-466 1589l266 381l158 -112l-227 -269h-197z" />
    <glyph glyph-name="uni030B.case" 
d="M-849 1589l266 381l158 -112l-227 -269h-197zM-466 1589l267 381l157 -112l-226 -269h-198z" />
    <glyph glyph-name="uni0302.case" 
d="M-488 1589h-197l232 300h190l232 -300h-198l-129 150z" />
    <glyph glyph-name="uni030C.case" 
d="M-455 1589l-233 300h198l129 -151l130 151h197l-232 -300h-189z" />
    <glyph glyph-name="uni0306.case" 
d="M-456 1589c-221 0 -373 76 -373 303h186c0 -107 72 -154 187 -154c117 0 189 47 189 154h185c0 -227 -151 -303 -374 -303z" />
    <glyph glyph-name="uni030A.case" 
d="M-328 1589c-138 0 -250 112 -250 250c0 134 112 246 250 246c136 0 247 -112 247 -246c0 -138 -111 -250 -247 -250zM-328 1722c65 0 115 47 115 117c0 61 -50 117 -115 117s-113 -56 -113 -117c0 -70 48 -117 113 -117z" />
    <glyph glyph-name="tildecomb.case" 
d="M-331 1604c-94 0 -138 38 -170 75c-30 35 -50 69 -93 69c-53 0 -76 -58 -76 -131h-170c0 159 89 274 239 274c88 0 136 -32 169 -66c37 -36 57 -77 101 -77c49 0 68 51 68 130h172c0 -153 -82 -274 -240 -274z" />
    <glyph glyph-name="uni0304.case" 
d="M-806 1589v189h670v-189h-670z" />
    <glyph glyph-name="hookabovecomb.case" 
d="M-351 1536v140c75 13 108 46 108 93c0 35 -19 62 -63 62c-28 0 -59 -11 -86 -40l-72 105c42 36 100 61 178 61c130 0 201 -71 201 -178c0 -101 -63 -138 -126 -157v-86h-140z" />
    <glyph glyph-name="uni0312.case" 
d="M-309 1924h232l-126 -335h-334z" />
    <glyph glyph-name="uni0338.case" 
d="M-1210 -24l1112 1596l126 -75l-1112 -1596z" />
    <glyph glyph-name="acute" unicode="&#xb4;" horiz-adv-x="488" 
d="M22 1191l266 382l158 -112l-227 -270h-197z" />
    <glyph glyph-name="breve" unicode="&#x2d8;" horiz-adv-x="896" 
d="M447 1174c-221 0 -372 118 -372 362h202c0 -125 55 -212 170 -212c117 0 172 87 172 212h203c0 -244 -152 -362 -375 -362z" />
    <glyph glyph-name="caron" unicode="&#x2c7;" horiz-adv-x="721" 
d="M266 1236l-233 300h198l129 -151l130 151h197l-232 -300h-189z" />
    <glyph glyph-name="cedilla" unicode="&#xb8;" horiz-adv-x="583" 
d="M293 -532c-122 0 -211 70 -240 158l142 47c15 -40 55 -61 91 -61c45 0 86 31 86 83c0 55 -41 83 -87 83c-28 0 -55 -11 -71 -33l-115 65l125 224h151l-91 -152c14 3 29 5 43 5c111 0 193 -79 193 -192c0 -127 -100 -227 -227 -227z" />
    <glyph glyph-name="circumflex" unicode="&#x2c6;" horiz-adv-x="716" 
d="M228 1236h-197l232 300h190l232 -300h-198l-129 151z" />
    <glyph glyph-name="dieresis" unicode="&#xa8;" horiz-adv-x="1001" 
d="M276 1172c-101 0 -184 81 -184 182c0 100 83 181 184 181c98 0 181 -81 181 -181c0 -101 -83 -182 -181 -182zM726 1172c-101 0 -184 81 -184 182c0 100 83 181 184 181c98 0 181 -81 181 -181c0 -101 -83 -182 -181 -182z" />
    <glyph glyph-name="dotaccent" unicode="&#x2d9;" horiz-adv-x="551" 
d="M276 1172c-101 0 -184 81 -184 182c0 100 83 181 184 181c98 0 181 -81 181 -181c0 -101 -83 -182 -181 -182z" />
    <glyph glyph-name="grave" unicode="`" horiz-adv-x="488" 
d="M269 1191l-227 270l158 112l266 -382h-197z" />
    <glyph glyph-name="hungarumlaut" unicode="&#x2dd;" horiz-adv-x="871" 
d="M22 1191l266 382l158 -112l-227 -270h-197zM405 1191l267 382l157 -112l-226 -270h-198z" />
    <glyph glyph-name="macron" unicode="&#xaf;" horiz-adv-x="942" 
d="M136 1219v189h670v-189h-670z" />
    <glyph glyph-name="ogonek" unicode="&#x2db;" horiz-adv-x="522" 
d="M255 -438c-109 0 -199 37 -199 114c0 98 129 242 263 359l91 -35c-77 -66 -172 -166 -172 -218c0 -23 20 -33 54 -33c39 0 90 17 118 44v-201c-43 -19 -100 -30 -155 -30z" />
    <glyph glyph-name="ring" unicode="&#x2da;" horiz-adv-x="657" 
d="M329 1129c-138 0 -250 113 -250 250c0 135 112 247 250 247c136 0 247 -112 247 -247c0 -137 -111 -250 -247 -250zM329 1263c65 0 115 46 115 116c0 62 -50 118 -115 118s-113 -56 -113 -118c0 -70 48 -116 113 -116z" />
    <glyph glyph-name="tilde" unicode="&#x2dc;" horiz-adv-x="842" 
d="M539 1168c-77 0 -136 34 -180 104c-16 25 -31 35 -51 35c-44 0 -63 -54 -63 -127h-150c0 159 77 274 208 274c81 0 143 -46 180 -105c12 -19 25 -34 52 -34c44 0 60 49 60 126h152c0 -154 -72 -273 -208 -273z" />
    <glyph glyph-name="uni03060301" 
d="M-546 1668l266 382l158 -112l-227 -270h-197zM-449 1174c-221 0 -372 118 -372 362h202c0 -125 55 -212 170 -212c117 0 172 87 172 212h203c0 -244 -152 -362 -375 -362z" />
    <glyph glyph-name="uni03060300" 
d="M-547 1668l-227 270l158 112l266 -382h-197zM-449 1174c-221 0 -372 118 -372 362h202c0 -125 55 -212 170 -212c117 0 172 87 172 212h203c0 -244 -152 -362 -375 -362z" />
    <glyph glyph-name="uni03060309" 
d="M-514 1612v141c75 12 108 45 108 92c0 36 -19 63 -63 63c-28 0 -59 -12 -86 -41l-72 106c42 36 100 60 178 60c130 0 201 -71 201 -177c0 -102 -63 -138 -126 -158v-86h-140zM-449 1174c-221 0 -372 118 -372 362h202c0 -125 55 -212 170 -212c117 0 172 87 172 212h203
c0 -244 -152 -362 -375 -362z" />
    <glyph glyph-name="uni03060303" 
d="M-313 1660c-77 0 -136 34 -180 104c-16 25 -31 35 -51 35c-44 0 -63 -54 -63 -127h-150c0 159 77 274 208 274c81 0 143 -46 180 -105c12 -19 25 -34 52 -34c44 0 60 49 60 126h152c0 -154 -72 -273 -208 -273zM-449 1174c-221 0 -372 118 -372 362h202
c0 -125 55 -212 170 -212c117 0 172 87 172 212h203c0 -244 -152 -362 -375 -362z" />
    <glyph glyph-name="uni03020301" 
d="M-455 1668l266 382l158 -112l-227 -270h-197zM-488 1236h-197l232 300h190l232 -300h-198l-129 151z" />
    <glyph glyph-name="uni03020300" 
d="M-456 1668l-227 270l158 112l266 -382h-197zM-488 1236h-197l232 300h190l232 -300h-198l-129 151z" />
    <glyph glyph-name="uni03020309" 
d="M-423 1612v141c75 12 108 45 108 92c0 36 -19 63 -63 63c-28 0 -59 -12 -86 -41l-72 106c42 36 100 60 178 60c130 0 201 -71 201 -177c0 -102 -63 -138 -126 -158v-86h-140zM-488 1236h-197l232 300h190l232 -300h-198l-129 151z" />
    <glyph glyph-name="uni03020303" 
d="M-222 1660c-77 0 -136 34 -180 104c-16 25 -31 35 -51 35c-44 0 -63 -54 -63 -127h-150c0 159 77 274 208 274c81 0 143 -46 180 -105c12 -19 25 -34 52 -34c44 0 60 49 60 126h152c0 -154 -72 -273 -208 -273zM-488 1236h-197l232 300h190l232 -300h-198l-129 151z" />
    <glyph glyph-name="uni03060301.case" 
d="M-551 1962l266 381l158 -112l-227 -269h-197zM-456 1589c-221 0 -373 76 -373 303h186c0 -107 72 -154 187 -154c117 0 189 47 189 154h185c0 -227 -151 -303 -374 -303z" />
    <glyph glyph-name="uni03060300.case" 
d="M-552 1962l-227 269l158 112l266 -381h-197zM-456 1589c-221 0 -373 76 -373 303h186c0 -107 72 -154 187 -154c117 0 189 47 189 154h185c0 -227 -151 -303 -374 -303z" />
    <glyph glyph-name="uni03060309.case" 
d="M-519 1909v140c75 13 108 46 108 93c0 35 -19 62 -63 62c-28 0 -59 -11 -86 -40l-72 105c42 36 100 61 178 61c130 0 201 -71 201 -178c0 -101 -63 -138 -126 -157v-86h-140zM-456 1589c-221 0 -373 76 -373 303h186c0 -107 72 -154 187 -154c117 0 189 47 189 154h185
c0 -227 -151 -303 -374 -303z" />
    <glyph glyph-name="uni03060303.case" 
d="M-302 1977c-94 0 -138 38 -170 75c-30 35 -50 69 -93 69c-53 0 -76 -58 -76 -131h-170c0 159 89 274 239 274c88 0 136 -32 169 -66c37 -36 57 -77 101 -77c49 0 68 51 68 130h172c0 -153 -82 -274 -240 -274zM-456 1589c-221 0 -373 76 -373 303h186
c0 -107 72 -154 187 -154c117 0 189 47 189 154h185c0 -227 -151 -303 -374 -303z" />
    <glyph glyph-name="uni03020301.case" 
d="M-455 1977l266 381l158 -112l-227 -269h-197zM-488 1589h-197l232 300h190l232 -300h-198l-129 150z" />
    <glyph glyph-name="uni03020300.case" 
d="M-456 1977l-227 269l158 112l266 -381h-197zM-488 1589h-197l232 300h190l232 -300h-198l-129 150z" />
    <glyph glyph-name="uni03020309.case" 
d="M-423 1924v140c75 13 108 46 108 93c0 35 -19 62 -63 62c-28 0 -59 -11 -86 -40l-72 105c42 36 100 61 178 61c130 0 201 -71 201 -178c0 -101 -63 -138 -126 -157v-86h-140zM-488 1589h-197l232 300h190l232 -300h-198l-129 150z" />
    <glyph glyph-name="uni03020303.case" 
d="M-206 1992c-94 0 -138 38 -170 75c-30 35 -50 69 -93 69c-53 0 -76 -58 -76 -131h-170c0 159 89 274 239 274c88 0 136 -32 169 -66c37 -36 57 -77 101 -77c49 0 68 51 68 130h172c0 -153 -82 -274 -240 -274zM-488 1589h-197l232 300h190l232 -300h-198l-129 150z" />
    </font>
</defs>
</svg>
