<?xml version="1.0" standalone="no"?>
<!DOCTYPE svg PUBLIC "-//W3C//DTD SVG 1.1//EN" "http://www.w3.org/Graphics/SVG/1.1/DTD/svg11.dtd" >
<svg xmlns="http://www.w3.org/2000/svg" xmlns:xlink="http://www.w3.org/1999/xlink" version="1.1">
<metadata>
Created by FontForge 20190801 at Thu Mar  2 18:56:01 2017
 By Jimmy Wärting
Copyright \(c\)2016. Cerebri Sans is a trademark of Alfredo Marco Pradil. All rights reserved.
</metadata>
<defs>
<font id="CerebriSans-Medium" horiz-adv-x="0" >
  <font-face 
    font-family="Cerebri Sans Medium"
    font-weight="500"
    font-stretch="normal"
    units-per-em="2048"
    panose-1="0 0 6 0 0 0 0 0 0 0"
    ascent="1536"
    descent="-512"
    x-height="1006"
    cap-height="1426"
    bbox="-1649 -566 2805 2338"
    underline-thickness="102"
    underline-position="-184"
    stemh="215"
    stemv="234"
    unicode-range="U+0020-FB02"
  />
<missing-glyph horiz-adv-x="1250" 
d="M182 0v1536h886v-1536h-886zM359 177h532v1182h-532v-1182z" />
    <glyph glyph-name="f_f" unicode="ff" horiz-adv-x="1361" 
d="M224 0v826h-195v180h195v158c0 325 190 372 454 372v-187c-104 0 -224 3 -224 -187v-156h434v158c0 325 189 372 453 372v-187c-103 0 -224 3 -224 -187v-156h224v-180h-224v-826h-229v826h-434v-826h-230z" />
    <glyph glyph-name="fi" unicode="fi" horiz-adv-x="1254" 
d="M224 1164c0 325 190 372 454 372v-187c-104 0 -224 3 -224 -187v-156h224v-180h-224v-826h-230v826h-195v180h195v158zM978 1198c-78 0 -142 64 -142 141c0 78 64 141 142 141c76 0 141 -63 141 -141c0 -77 -65 -141 -141 -141zM860 0v1006h231v-1006h-231z" />
    <glyph glyph-name="fl" unicode="fl" horiz-adv-x="1255" 
d="M224 1164c0 325 190 372 454 372v-187c-104 0 -224 3 -224 -187v-156h224v-180h-224v-826h-230v826h-195v180h195v158zM860 1536h232v-1536h-232v1536z" />
    <glyph glyph-name=".notdef" horiz-adv-x="1250" 
d="M182 0v1536h886v-1536h-886zM359 177h532v1182h-532v-1182z" />
    <glyph glyph-name="A" unicode="A" horiz-adv-x="1432" 
d="M1140 0l-113 317h-623l-112 -317h-247l525 1426h291l525 -1426h-246zM477 522h478l-239 674z" />
    <glyph glyph-name="Aacute" unicode="&#xc1;" horiz-adv-x="1432" 
d="M1012 1830l-225 -263h-149l257 347zM1140 0l-113 317h-623l-112 -317h-247l525 1426h291l525 -1426h-246zM477 522h478l-239 674z" />
    <glyph glyph-name="Abreve" unicode="&#x102;" horiz-adv-x="1432" 
d="M715 1567c-205 0 -352 79 -352 282h137c0 -118 88 -170 215 -170c129 0 217 52 217 170h136c0 -203 -146 -282 -353 -282zM1140 0l-113 317h-623l-112 -317h-247l525 1426h291l525 -1426h-246zM477 522h478l-239 674z" />
    <glyph glyph-name="uni1EAE" unicode="&#x1eae;" horiz-adv-x="1432" 
d="M1013 2185l-225 -263h-149l257 347zM715 1567c-205 0 -352 79 -352 282h137c0 -118 88 -170 215 -170c129 0 217 52 217 170h136c0 -203 -146 -282 -353 -282zM1140 0l-113 317h-623l-112 -317h-247l525 1426h291l525 -1426h-246zM477 522h478l-239 674z" />
    <glyph glyph-name="uni1EB6" unicode="&#x1eb6;" horiz-adv-x="1432" 
d="M715 1567c-205 0 -352 79 -352 282h137c0 -118 88 -170 215 -170c129 0 217 52 217 170h136c0 -203 -146 -282 -353 -282zM1386 0h-246l-113 317h-623l-112 -317h-247l525 1426h291zM477 522h478l-239 674zM717 -230c76 0 141 -64 141 -141c0 -79 -65 -141 -141 -141
c-78 0 -142 62 -142 141c0 77 64 141 142 141z" />
    <glyph glyph-name="uni1EB0" unicode="&#x1eb0;" horiz-adv-x="1432" 
d="M791 1922h-148l-225 263l116 84zM715 1567c-205 0 -352 79 -352 282h137c0 -118 88 -170 215 -170c129 0 217 52 217 170h136c0 -203 -146 -282 -353 -282zM1140 0l-113 317h-623l-112 -317h-247l525 1426h291l525 -1426h-246zM477 522h478l-239 674z" />
    <glyph glyph-name="uni1EB2" unicode="&#x1eb2;" horiz-adv-x="1432" 
d="M702 2198c-30 0 -59 -11 -86 -35l-59 83c40 33 91 54 153 54c117 0 191 -71 191 -172c0 -90 -55 -135 -128 -157v-80h-108v127c74 14 115 47 115 103c0 43 -27 77 -78 77zM715 1567c-205 0 -352 79 -352 282h137c0 -118 88 -170 215 -170c129 0 217 52 217 170h136
c0 -203 -146 -282 -353 -282zM1140 0l-113 317h-623l-112 -317h-247l525 1426h291l525 -1426h-246zM477 522h478l-239 674z" />
    <glyph glyph-name="uni1EB4" unicode="&#x1eb4;" horiz-adv-x="1432" 
d="M593 2084c-64 0 -96 -63 -96 -146h-123c0 148 81 255 216 255c86 0 133 -41 167 -83c30 -36 55 -76 105 -76c62 0 92 57 92 144h125c0 -144 -76 -254 -217 -254c-92 0 -137 46 -170 88c-27 37 -51 72 -99 72zM715 1567c-205 0 -352 79 -352 282h137
c0 -118 88 -170 215 -170c129 0 217 52 217 170h136c0 -203 -146 -282 -353 -282zM1140 0l-113 317h-623l-112 -317h-247l525 1426h291l525 -1426h-246zM477 522h478l-239 674z" />
    <glyph glyph-name="uni01CD" unicode="&#x1cd;" horiz-adv-x="1432" 
d="M791 1567h-150l-220 297h148l146 -191l147 191h148zM1140 0l-113 317h-623l-112 -317h-247l525 1426h291l525 -1426h-246zM477 522h478l-239 674z" />
    <glyph glyph-name="Acircumflex" unicode="&#xc2;" horiz-adv-x="1432" 
d="M715 1756l-146 -189h-148l219 297h151l219 -297h-148zM1140 0l-113 317h-623l-112 -317h-247l525 1426h291l525 -1426h-246zM477 522h478l-239 674z" />
    <glyph glyph-name="uni1EA4" unicode="&#x1ea4;" horiz-adv-x="1432" 
d="M1011 2223l-225 -263h-149l257 347zM715 1756l-146 -189h-148l219 297h151l219 -297h-148zM1140 0l-113 317h-623l-112 -317h-247l525 1426h291l525 -1426h-246zM477 522h478l-239 674z" />
    <glyph glyph-name="uni1EAC" unicode="&#x1eac;" horiz-adv-x="1432" 
d="M715 1756l-146 -189h-148l219 297h151l219 -297h-148zM1386 0h-246l-113 317h-623l-112 -317h-247l525 1426h291zM477 522h478l-239 674zM717 -230c76 0 141 -64 141 -141c0 -79 -65 -141 -141 -141c-78 0 -142 62 -142 141c0 77 64 141 142 141z" />
    <glyph glyph-name="uni1EA6" unicode="&#x1ea6;" horiz-adv-x="1432" 
d="M789 1960h-148l-225 263l116 84zM421 1567l219 297h151l219 -297h-148l-147 189l-146 -189h-148zM1140 0l-113 317h-623l-112 -317h-247l525 1426h291l525 -1426h-246zM477 522h478l-239 674z" />
    <glyph glyph-name="uni1EA8" unicode="&#x1ea8;" horiz-adv-x="1432" 
d="M700 2236c-30 0 -59 -11 -86 -35l-59 83c40 33 91 54 153 54c117 0 191 -71 191 -172c0 -90 -55 -135 -128 -157v-80h-108v127c74 14 115 47 115 103c0 43 -27 77 -78 77zM715 1756l-146 -189h-148l219 297h151l219 -297h-148zM1140 0l-113 317h-623l-112 -317h-247
l525 1426h291l525 -1426h-246zM477 522h478l-239 674z" />
    <glyph glyph-name="uni1EAA" unicode="&#x1eaa;" horiz-adv-x="1432" 
d="M591 2122c-64 0 -96 -63 -96 -146h-123c0 148 81 255 216 255c86 0 133 -41 167 -83c30 -36 55 -76 105 -76c62 0 92 57 92 144h125c0 -144 -76 -254 -217 -254c-92 0 -137 46 -170 88c-27 37 -51 72 -99 72zM640 1864h151l219 -297h-148l-147 189l-146 -189h-148z
M1140 0l-113 317h-623l-112 -317h-247l525 1426h291l525 -1426h-246zM477 522h478l-239 674z" />
    <glyph glyph-name="Adieresis" unicode="&#xc4;" horiz-adv-x="1432" 
d="M515 1536c-78 0 -142 63 -142 141s64 141 142 141c76 0 141 -63 141 -141s-65 -141 -141 -141zM918 1536c-78 0 -143 63 -143 141s65 141 143 141c75 0 140 -63 140 -141s-65 -141 -140 -141zM1140 0l-113 317h-623l-112 -317h-247l525 1426h291l525 -1426h-246zM477 522
h478l-239 674z" />
    <glyph glyph-name="uni1EA0" unicode="&#x1ea0;" horiz-adv-x="1432" 
d="M1386 0h-246l-113 317h-623l-112 -317h-247l525 1426h291zM477 522h478l-239 674zM717 -230c76 0 141 -64 141 -141c0 -79 -65 -141 -141 -141c-78 0 -142 62 -142 141c0 77 64 141 142 141z" />
    <glyph glyph-name="Agrave" unicode="&#xc0;" horiz-adv-x="1432" 
d="M790 1567h-148l-225 263l116 84zM1140 0l-113 317h-623l-112 -317h-247l525 1426h291l525 -1426h-246zM477 522h478l-239 674z" />
    <glyph glyph-name="uni1EA2" unicode="&#x1ea2;" horiz-adv-x="1432" 
d="M701 1843c-30 0 -59 -11 -86 -35l-59 83c40 33 91 54 153 54c117 0 191 -71 191 -172c0 -90 -55 -135 -128 -157v-80h-108v127c74 14 115 47 115 103c0 43 -27 77 -78 77zM1140 0l-113 317h-623l-112 -317h-247l525 1426h291l525 -1426h-246zM477 522h478l-239 674z" />
    <glyph glyph-name="Amacron" unicode="&#x100;" horiz-adv-x="1432" 
d="M1044 1707v-140h-655v140h655zM1140 0l-113 317h-623l-112 -317h-247l525 1426h291l525 -1426h-246zM477 522h478l-239 674z" />
    <glyph glyph-name="Aogonek" unicode="&#x104;" horiz-adv-x="1432" 
d="M1216 -224c0 -26 22 -39 68 -39c34 0 76 13 102 35v-155c-36 -14 -82 -23 -126 -23c-113 0 -184 36 -184 102c0 83 103 203 206 304h-142l-113 317h-623l-112 -317h-247l525 1426h291l525 -1426c-60 -57 -170 -165 -170 -224zM477 522h478l-239 674z" />
    <glyph glyph-name="Aring" unicode="&#xc5;" horiz-adv-x="1432" 
d="M716 1567c-125 0 -226 102 -226 225s101 223 226 223c122 0 222 -100 222 -223s-100 -225 -222 -225zM716 1916c-69 0 -121 -57 -121 -124c0 -72 52 -122 121 -122c67 0 121 50 121 122c0 67 -54 124 -121 124zM1140 0l-113 317h-623l-112 -317h-247l525 1426h291
l525 -1426h-246zM477 522h478l-239 674z" />
    <glyph glyph-name="Atilde" unicode="&#xc3;" horiz-adv-x="1432" 
d="M592 1729c-64 0 -96 -63 -96 -146h-123c0 148 81 255 216 255c86 0 133 -41 167 -83c30 -36 55 -76 105 -76c62 0 92 57 92 144h125c0 -144 -76 -254 -217 -254c-92 0 -137 46 -170 88c-27 37 -51 72 -99 72zM1140 0l-113 317h-623l-112 -317h-247l525 1426h291
l525 -1426h-246zM477 522h478l-239 674z" />
    <glyph glyph-name="AE" unicode="&#xc6;" horiz-adv-x="1826" 
d="M45 0l508 1426h1151v-213h-585v-394h509v-213h-509v-392h585v-214h-824v317h-477l-108 -317h-250zM472 522h408v691h-173z" />
    <glyph glyph-name="B" unicode="B" horiz-adv-x="1297" 
d="M925 749c165 -44 276 -155 276 -356c0 -233 -151 -393 -426 -393h-571v1426h447c282 0 447 -151 447 -384c0 -131 -59 -238 -173 -293zM652 1224h-217v-401h241c128 0 200 91 200 204c0 112 -78 197 -224 197zM732 208c162 0 237 99 237 211c0 117 -77 215 -246 215h-288
v-426h297z" />
    <glyph glyph-name="C" unicode="C" horiz-adv-x="1550" 
d="M825 -19c-410 0 -720 280 -720 733c0 451 310 732 720 732c300 0 546 -152 653 -407l-223 -85c-74 171 -236 269 -430 269c-270 0 -481 -188 -481 -509c0 -323 211 -510 481 -510c194 0 356 97 430 268l223 -85c-107 -255 -353 -406 -653 -406z" />
    <glyph glyph-name="Cacute" unicode="&#x106;" horiz-adv-x="1550" 
d="M748 1567l257 347l117 -84l-225 -263h-149zM825 -19c-410 0 -720 280 -720 733c0 451 310 732 720 732c300 0 546 -152 653 -407l-223 -85c-74 171 -236 269 -430 269c-270 0 -481 -188 -481 -509c0 -323 211 -510 481 -510c194 0 356 97 430 268l223 -85
c-107 -255 -353 -406 -653 -406z" />
    <glyph glyph-name="Ccaron" unicode="&#x10c;" horiz-adv-x="1550" 
d="M751 1567l-220 297h148l146 -191l147 191h148l-219 -297h-150zM825 -19c-410 0 -720 280 -720 733c0 451 310 732 720 732c300 0 546 -152 653 -407l-223 -85c-74 171 -236 269 -430 269c-270 0 -481 -188 -481 -509c0 -323 211 -510 481 -510c194 0 356 97 430 268
l223 -85c-107 -255 -353 -406 -653 -406z" />
    <glyph glyph-name="Ccedilla" unicode="&#xc7;" horiz-adv-x="1550" 
d="M825 204c194 0 356 97 430 268l223 -85c-101 -241 -326 -389 -604 -405l-59 -112c17 3 34 6 51 6c113 0 197 -78 197 -191c0 -121 -94 -217 -216 -217c-107 0 -202 62 -237 141l106 40c25 -42 80 -70 127 -70c57 0 107 43 107 106c0 66 -50 102 -111 102
c-27 0 -54 -8 -77 -26l-90 56l87 166c-377 29 -654 303 -654 731c0 451 310 732 720 732c300 0 546 -152 653 -407l-223 -85c-74 171 -236 269 -430 269c-270 0 -481 -188 -481 -509c0 -323 211 -510 481 -510z" />
    <glyph glyph-name="Cdotaccent" unicode="&#x10a;" horiz-adv-x="1550" 
d="M827 1536c-78 0 -142 63 -142 141s64 141 142 141c76 0 141 -63 141 -141s-65 -141 -141 -141zM825 -19c-410 0 -720 280 -720 733c0 451 310 732 720 732c300 0 546 -152 653 -407l-223 -85c-74 171 -236 269 -430 269c-270 0 -481 -188 -481 -509
c0 -323 211 -510 481 -510c194 0 356 97 430 268l223 -85c-107 -255 -353 -406 -653 -406z" />
    <glyph glyph-name="D" unicode="D" horiz-adv-x="1473" 
d="M204 0v1426h488c446 0 670 -290 670 -712c0 -423 -224 -714 -670 -714h-488zM443 214h239c292 0 429 189 429 500c0 309 -137 499 -429 499h-239v-999z" />
    <glyph glyph-name="Eth" unicode="&#xd0;" horiz-adv-x="1473" 
d="M692 1426c446 0 670 -290 670 -712c0 -423 -224 -714 -670 -714h-488v642h-158v145h158v639h488zM682 214c292 0 429 189 429 500c0 309 -137 499 -429 499h-239v-426h251v-145h-251v-428h239z" />
    <glyph glyph-name="Dcaron" unicode="&#x10e;" horiz-adv-x="1473" 
d="M545 1567l-220 297h148l146 -191l147 191h148l-219 -297h-150zM204 0v1426h488c446 0 670 -290 670 -712c0 -423 -224 -714 -670 -714h-488zM443 214h239c292 0 429 189 429 500c0 309 -137 499 -429 499h-239v-999z" />
    <glyph glyph-name="Dcroat" unicode="&#x110;" horiz-adv-x="1473" 
d="M692 1426c446 0 670 -290 670 -712c0 -423 -224 -714 -670 -714h-488v642h-158v145h158v639h488zM682 214c292 0 429 189 429 500c0 309 -137 499 -429 499h-239v-426h251v-145h-251v-428h239z" />
    <glyph glyph-name="E" unicode="E" horiz-adv-x="1122" 
d="M1000 1213h-554v-395h490v-211h-490v-393h554v-214h-796v1426h796v-213z" />
    <glyph glyph-name="Eacute" unicode="&#xc9;" horiz-adv-x="1122" 
d="M903 1830l-225 -263h-149l257 347zM1000 1213h-554v-395h490v-211h-490v-393h554v-214h-796v1426h796v-213z" />
    <glyph glyph-name="Ecaron" unicode="&#x11a;" horiz-adv-x="1122" 
d="M682 1567h-150l-220 297h148l146 -191l147 191h148zM1000 1213h-554v-395h490v-211h-490v-393h554v-214h-796v1426h796v-213z" />
    <glyph glyph-name="Ecircumflex" unicode="&#xca;" horiz-adv-x="1122" 
d="M606 1756l-146 -189h-148l219 297h151l219 -297h-148zM1000 1213h-554v-395h490v-211h-490v-393h554v-214h-796v1426h796v-213z" />
    <glyph glyph-name="uni1EBE" unicode="&#x1ebe;" horiz-adv-x="1122" 
d="M902 2223l-225 -263h-149l257 347zM606 1756l-146 -189h-148l219 297h151l219 -297h-148zM1000 1213h-554v-395h490v-211h-490v-393h554v-214h-796v1426h796v-213z" />
    <glyph glyph-name="uni1EC6" unicode="&#x1ec6;" horiz-adv-x="1122" 
d="M606 1756l-146 -189h-148l219 297h151l219 -297h-148zM1000 1213h-554v-395h490v-211h-490v-393h554v-214h-796v1426h796v-213zM608 -230c76 0 141 -64 141 -141c0 -79 -65 -141 -141 -141c-78 0 -142 62 -142 141c0 77 64 141 142 141z" />
    <glyph glyph-name="uni1EC0" unicode="&#x1ec0;" horiz-adv-x="1122" 
d="M680 1960h-148l-225 263l116 84zM312 1567l219 297h151l219 -297h-148l-147 189l-146 -189h-148zM1000 1213h-554v-395h490v-211h-490v-393h554v-214h-796v1426h796v-213z" />
    <glyph glyph-name="uni1EC2" unicode="&#x1ec2;" horiz-adv-x="1122" 
d="M591 2236c-30 0 -59 -11 -86 -35l-59 83c40 33 91 54 153 54c117 0 191 -71 191 -172c0 -90 -55 -135 -128 -157v-80h-108v127c74 14 115 47 115 103c0 43 -27 77 -78 77zM606 1756l-146 -189h-148l219 297h151l219 -297h-148zM1000 1213h-554v-395h490v-211h-490v-393
h554v-214h-796v1426h796v-213z" />
    <glyph glyph-name="uni1EC4" unicode="&#x1ec4;" horiz-adv-x="1122" 
d="M482 2122c-64 0 -96 -63 -96 -146h-123c0 148 81 255 216 255c86 0 133 -41 167 -83c30 -36 55 -76 105 -76c62 0 92 57 92 144h125c0 -144 -76 -254 -217 -254c-92 0 -137 46 -170 88c-27 37 -51 72 -99 72zM531 1864h151l219 -297h-148l-147 189l-146 -189h-148z
M1000 1213h-554v-395h490v-211h-490v-393h554v-214h-796v1426h796v-213z" />
    <glyph glyph-name="Edieresis" unicode="&#xcb;" horiz-adv-x="1122" 
d="M406 1536c-78 0 -142 63 -142 141s64 141 142 141c76 0 141 -63 141 -141s-65 -141 -141 -141zM809 1536c-78 0 -143 63 -143 141s65 141 143 141c75 0 140 -63 140 -141s-65 -141 -140 -141zM1000 1213h-554v-395h490v-211h-490v-393h554v-214h-796v1426h796v-213z" />
    <glyph glyph-name="Edotaccent" unicode="&#x116;" horiz-adv-x="1122" 
d="M608 1536c-78 0 -142 63 -142 141s64 141 142 141c76 0 141 -63 141 -141s-65 -141 -141 -141zM1000 1213h-554v-395h490v-211h-490v-393h554v-214h-796v1426h796v-213z" />
    <glyph glyph-name="uni1EB8" unicode="&#x1eb8;" horiz-adv-x="1122" 
d="M1000 1213h-554v-395h490v-211h-490v-393h554v-214h-796v1426h796v-213zM608 -230c76 0 141 -64 141 -141c0 -79 -65 -141 -141 -141c-78 0 -142 62 -142 141c0 77 64 141 142 141z" />
    <glyph glyph-name="Egrave" unicode="&#xc8;" horiz-adv-x="1122" 
d="M681 1567h-148l-225 263l116 84zM1000 1213h-554v-395h490v-211h-490v-393h554v-214h-796v1426h796v-213z" />
    <glyph glyph-name="uni1EBA" unicode="&#x1eba;" horiz-adv-x="1122" 
d="M592 1843c-30 0 -59 -11 -86 -35l-59 83c40 33 91 54 153 54c117 0 191 -71 191 -172c0 -90 -55 -135 -128 -157v-80h-108v127c74 14 115 47 115 103c0 43 -27 77 -78 77zM1000 1213h-554v-395h490v-211h-490v-393h554v-214h-796v1426h796v-213z" />
    <glyph glyph-name="Emacron" unicode="&#x112;" horiz-adv-x="1122" 
d="M935 1707v-140h-655v140h655zM1000 1213h-554v-395h490v-211h-490v-393h554v-214h-796v1426h796v-213z" />
    <glyph glyph-name="Eogonek" unicode="&#x118;" horiz-adv-x="1122" 
d="M1000 1213h-554v-395h490v-211h-490v-393h554v-214c-60 -57 -170 -165 -170 -224c0 -26 22 -39 68 -39c34 0 76 13 102 35v-155c-36 -14 -82 -23 -126 -23c-113 0 -184 36 -184 102c0 83 103 203 206 304h-692v1426h796v-213z" />
    <glyph glyph-name="uni1EBC" unicode="&#x1ebc;" horiz-adv-x="1122" 
d="M483 1729c-64 0 -96 -63 -96 -146h-123c0 148 81 255 216 255c86 0 133 -41 167 -83c30 -36 55 -76 105 -76c62 0 92 57 92 144h125c0 -144 -76 -254 -217 -254c-92 0 -137 46 -170 88c-27 37 -51 72 -99 72zM1000 1213h-554v-395h490v-211h-490v-393h554v-214h-796v1426
h796v-213z" />
    <glyph glyph-name="F" unicode="F" horiz-adv-x="1085" 
d="M1011 1213h-565v-394h490v-212h-490v-607h-242v1426h807v-213z" />
    <glyph glyph-name="G" unicode="G" horiz-adv-x="1636" 
d="M815 -19c-404 0 -710 277 -710 729c0 455 310 736 720 736c268 0 494 -118 618 -334l-211 -113c-84 159 -234 234 -407 234c-271 0 -479 -185 -479 -518c0 -326 200 -522 488 -522c218 0 399 117 435 362h-435v197h664v-752h-191v232c-94 -158 -260 -251 -492 -251z" />
    <glyph glyph-name="Gbreve" unicode="&#x11e;" horiz-adv-x="1636" 
d="M817 1567c-205 0 -352 79 -352 282h137c0 -118 88 -170 215 -170c129 0 217 52 217 170h136c0 -203 -146 -282 -353 -282zM815 -19c-404 0 -710 277 -710 729c0 455 310 736 720 736c268 0 494 -118 618 -334l-211 -113c-84 159 -234 234 -407 234
c-271 0 -479 -185 -479 -518c0 -326 200 -522 488 -522c218 0 399 117 435 362h-435v197h664v-752h-191v232c-94 -158 -260 -251 -492 -251z" />
    <glyph glyph-name="Gcommaaccent" unicode="&#x122;" horiz-adv-x="1636" 
d="M815 -19c-404 0 -710 277 -710 729c0 455 310 736 720 736c268 0 494 -118 618 -334l-211 -113c-84 159 -234 234 -407 234c-271 0 -479 -185 -479 -518c0 -326 200 -522 488 -522c218 0 399 117 435 362h-435v197h664v-752h-191v232c-94 -158 -260 -251 -492 -251z
M667 -566l-117 53l164 370h205z" />
    <glyph glyph-name="Gdotaccent" unicode="&#x120;" horiz-adv-x="1636" 
d="M819 1536c-78 0 -142 63 -142 141s64 141 142 141c76 0 141 -63 141 -141s-65 -141 -141 -141zM815 -19c-404 0 -710 277 -710 729c0 455 310 736 720 736c268 0 494 -118 618 -334l-211 -113c-84 159 -234 234 -407 234c-271 0 -479 -185 -479 -518
c0 -326 200 -522 488 -522c218 0 399 117 435 362h-435v197h664v-752h-191v232c-94 -158 -260 -251 -492 -251z" />
    <glyph glyph-name="H" unicode="H" horiz-adv-x="1549" 
d="M1106 1426h240v-1426h-240v609h-662v-609h-240v1426h240v-606h662v606z" />
    <glyph glyph-name="Hbar" unicode="&#x126;" horiz-adv-x="1549" 
d="M1481 1172v-105h-135v-1067h-240v609h-662v-609h-240v1067h-135v105h135v254h240v-254h662v254h240v-254h135zM1106 820v247h-662v-247h662z" />
    <glyph glyph-name="I" unicode="I" horiz-adv-x="647" 
d="M204 0v1426h239v-1426h-239z" />
    <glyph glyph-name="Iacute" unicode="&#xcd;" horiz-adv-x="647" 
d="M245 1567l257 347l117 -84l-225 -263h-149zM204 0v1426h239v-1426h-239z" />
    <glyph glyph-name="uni01CF" unicode="&#x1cf;" horiz-adv-x="647" 
d="M248 1567l-220 297h148l146 -191l147 191h148l-219 -297h-150zM204 0v1426h239v-1426h-239z" />
    <glyph glyph-name="Icircumflex" unicode="&#xce;" horiz-adv-x="647" 
d="M176 1567h-148l219 297h151l219 -297h-148l-147 189zM204 0v1426h239v-1426h-239z" />
    <glyph glyph-name="Idieresis" unicode="&#xcf;" horiz-adv-x="647" 
d="M122 1536c-78 0 -142 63 -142 141s64 141 142 141c76 0 141 -63 141 -141s-65 -141 -141 -141zM525 1536c-78 0 -143 63 -143 141s65 141 143 141c75 0 140 -63 140 -141s-65 -141 -140 -141zM204 0v1426h239v-1426h-239z" />
    <glyph glyph-name="Idotaccent" unicode="&#x130;" horiz-adv-x="647" 
d="M324 1536c-78 0 -142 63 -142 141s64 141 142 141c76 0 141 -63 141 -141s-65 -141 -141 -141zM204 0v1426h239v-1426h-239z" />
    <glyph glyph-name="uni1ECA" unicode="&#x1eca;" horiz-adv-x="647" 
d="M204 0v1426h239v-1426h-239zM324 -512c-78 0 -142 62 -142 141c0 77 64 141 142 141c76 0 141 -64 141 -141c0 -79 -65 -141 -141 -141z" />
    <glyph glyph-name="Igrave" unicode="&#xcc;" horiz-adv-x="647" 
d="M249 1567l-225 263l116 84l257 -347h-148zM204 0v1426h239v-1426h-239z" />
    <glyph glyph-name="uni1EC8" unicode="&#x1ec8;" horiz-adv-x="647" 
d="M271 1536v127c74 14 115 47 115 103c0 43 -27 77 -78 77c-30 0 -59 -11 -86 -35l-59 83c40 33 91 54 153 54c117 0 191 -71 191 -172c0 -90 -55 -135 -128 -157v-80h-108zM204 0v1426h239v-1426h-239z" />
    <glyph glyph-name="Imacron" unicode="&#x12a;" horiz-adv-x="647" 
d="M-4 1567v140h655v-140h-655zM204 0v1426h239v-1426h-239z" />
    <glyph glyph-name="Iogonek" unicode="&#x12e;" horiz-adv-x="647" 
d="M274 -224c0 -26 22 -39 68 -39c34 0 76 13 102 35v-155c-36 -14 -82 -23 -126 -23c-113 0 -184 36 -184 102c0 83 103 203 206 304h-136v1426h239v-1426h1c-60 -57 -170 -165 -170 -224z" />
    <glyph glyph-name="Itilde" unicode="&#x128;" horiz-adv-x="647" 
d="M468 1569c-92 0 -137 46 -170 88c-27 37 -51 72 -99 72c-64 0 -96 -63 -96 -146h-123c0 148 81 255 216 255c86 0 133 -41 167 -83c30 -36 55 -76 105 -76c62 0 92 57 92 144h125c0 -144 -76 -254 -217 -254zM204 0v1426h239v-1426h-239z" />
    <glyph glyph-name="J" unicode="J" horiz-adv-x="990" 
d="M382 -19c-106 0 -228 28 -345 91l102 199c69 -47 142 -72 218 -72c137 0 211 90 211 266v961h240v-1005c0 -281 -172 -440 -426 -440z" />
    <glyph glyph-name="K" unicode="K" horiz-adv-x="1383" 
d="M1036 0l-477 633h-116v-633h-239v1426h239v-581h114l469 581h293l-556 -681l579 -745h-306z" />
    <glyph glyph-name="Kcommaaccent" unicode="&#x136;" horiz-adv-x="1383" 
d="M763 745l579 -745h-306l-477 633h-116v-633h-239v1426h239v-581h114l469 581h293zM407 -513l164 370h205l-252 -423z" />
    <glyph glyph-name="L" unicode="L" horiz-adv-x="964" 
d="M443 214h471v-214h-710v1426h239v-1212z" />
    <glyph glyph-name="Lacute" unicode="&#x139;" horiz-adv-x="964" 
d="M620 1830l-225 -263h-149l257 347zM443 214h471v-214h-710v1426h239v-1212z" />
    <glyph glyph-name="Lcaron" unicode="&#x13d;" horiz-adv-x="1076" 
d="M443 1426v-1212h471v-214h-710v1426h239zM1002 1426l-196 -637h-166l124 637h238z" />
    <glyph glyph-name="Lcommaaccent" unicode="&#x13b;" horiz-adv-x="964" 
d="M443 214h471v-214h-710v1426h239v-1212zM292 -513l164 370h205l-252 -423z" />
    <glyph glyph-name="Lslash" unicode="&#x141;" horiz-adv-x="964" 
d="M443 214h471v-214h-710v540l-166 -123v155l166 124v730h239v-552l183 136v-156l-183 -136v-504z" />
    <glyph glyph-name="M" unicode="M" horiz-adv-x="1924" 
d="M1777 0h-237l-94 1126l-409 -1126h-150l-407 1124l-95 -1124h-238l114 1426h333l367 -1008l370 1008h333z" />
    <glyph glyph-name="N" unicode="N" horiz-adv-x="1613" 
d="M1170 1426h239v-1426h-268l-700 1088v-1088h-237v1426h265l701 -1081v1081z" />
    <glyph glyph-name="Nacute" unicode="&#x143;" horiz-adv-x="1613" 
d="M1103 1830l-225 -263h-149l257 347zM1170 1426h239v-1426h-268l-700 1088v-1088h-237v1426h265l701 -1081v1081z" />
    <glyph glyph-name="Ncaron" unicode="&#x147;" horiz-adv-x="1613" 
d="M882 1567h-150l-220 297h148l146 -191l147 191h148zM1170 1426h239v-1426h-268l-700 1088v-1088h-237v1426h265l701 -1081v1081z" />
    <glyph glyph-name="Ncommaaccent" unicode="&#x145;" horiz-adv-x="1613" 
d="M1170 1426h239v-1426h-268l-700 1088v-1088h-237v1426h265l701 -1081v1081zM540 -513l164 370h205l-252 -423z" />
    <glyph glyph-name="Eng" unicode="&#x14a;" horiz-adv-x="1636" 
d="M1195 1426h238v-1426c0 -298 -198 -465 -495 -465v182c151 0 267 95 228 283l-726 1094v-1094h-236v1426h263l728 -1088v1088z" />
    <glyph glyph-name="Ntilde" unicode="&#xd1;" horiz-adv-x="1613" 
d="M683 1729c-64 0 -96 -63 -96 -146h-123c0 148 81 255 216 255c86 0 133 -41 167 -83c30 -36 55 -76 105 -76c62 0 92 57 92 144h125c0 -144 -76 -254 -217 -254c-92 0 -137 46 -170 88c-27 37 -51 72 -99 72zM1170 1426h239v-1426h-268l-700 1088v-1088h-237v1426h265
l701 -1081v1081z" />
    <glyph glyph-name="O" unicode="O" horiz-adv-x="1650" 
d="M825 -19c-410 0 -720 281 -720 733c0 451 310 732 720 732c409 0 719 -281 719 -732c0 -452 -310 -733 -719 -733zM825 203c270 0 481 187 481 511c0 321 -211 509 -481 509s-481 -188 -481 -509c0 -324 211 -511 481 -511z" />
    <glyph glyph-name="Oacute" unicode="&#xd3;" horiz-adv-x="1650" 
d="M747 1567l257 347l117 -84l-225 -263h-149zM825 -19c-410 0 -720 281 -720 733c0 451 310 732 720 732c409 0 719 -281 719 -732c0 -452 -310 -733 -719 -733zM825 203c270 0 481 187 481 511c0 321 -211 509 -481 509s-481 -188 -481 -509c0 -324 211 -511 481 -511z
" />
    <glyph glyph-name="uni01D1" unicode="&#x1d1;" horiz-adv-x="1650" 
d="M750 1567l-220 297h148l146 -191l147 191h148l-219 -297h-150zM825 -19c-410 0 -720 281 -720 733c0 451 310 732 720 732c409 0 719 -281 719 -732c0 -452 -310 -733 -719 -733zM825 203c270 0 481 187 481 511c0 321 -211 509 -481 509s-481 -188 -481 -509
c0 -324 211 -511 481 -511z" />
    <glyph glyph-name="Ocircumflex" unicode="&#xd4;" horiz-adv-x="1650" 
d="M678 1567h-148l219 297h151l219 -297h-148l-147 189zM825 -19c-410 0 -720 281 -720 733c0 451 310 732 720 732c409 0 719 -281 719 -732c0 -452 -310 -733 -719 -733zM825 203c270 0 481 187 481 511c0 321 -211 509 -481 509s-481 -188 -481 -509
c0 -324 211 -511 481 -511z" />
    <glyph glyph-name="uni1ED0" unicode="&#x1ed0;" horiz-adv-x="1650" 
d="M746 1960l257 347l117 -84l-225 -263h-149zM678 1567h-148l219 297h151l219 -297h-148l-147 189zM825 -19c-410 0 -720 281 -720 733c0 451 310 732 720 732c409 0 719 -281 719 -732c0 -452 -310 -733 -719 -733zM825 203c270 0 481 187 481 511
c0 321 -211 509 -481 509s-481 -188 -481 -509c0 -324 211 -511 481 -511z" />
    <glyph glyph-name="uni1ED8" unicode="&#x1ed8;" horiz-adv-x="1650" 
d="M678 1567h-148l219 297h151l219 -297h-148l-147 189zM825 -19c-410 0 -720 281 -720 733c0 451 310 732 720 732c409 0 719 -281 719 -732c0 -452 -310 -733 -719 -733zM825 203c270 0 481 187 481 511c0 321 -211 509 -481 509s-481 -188 -481 -509
c0 -324 211 -511 481 -511zM826 -512c-78 0 -142 62 -142 141c0 77 64 141 142 141c76 0 141 -64 141 -141c0 -79 -65 -141 -141 -141z" />
    <glyph glyph-name="uni1ED2" unicode="&#x1ed2;" horiz-adv-x="1650" 
d="M750 1960l-225 263l116 84l257 -347h-148zM678 1567h-148l219 297h151l219 -297h-148l-147 189zM825 -19c-410 0 -720 281 -720 733c0 451 310 732 720 732c409 0 719 -281 719 -732c0 -452 -310 -733 -719 -733zM825 203c270 0 481 187 481 511c0 321 -211 509 -481 509
s-481 -188 -481 -509c0 -324 211 -511 481 -511z" />
    <glyph glyph-name="uni1ED4" unicode="&#x1ed4;" horiz-adv-x="1650" 
d="M772 1929v127c74 14 115 47 115 103c0 43 -27 77 -78 77c-30 0 -59 -11 -86 -35l-59 83c40 33 91 54 153 54c117 0 191 -71 191 -172c0 -90 -55 -135 -128 -157v-80h-108zM678 1567h-148l219 297h151l219 -297h-148l-147 189zM825 -19c-410 0 -720 281 -720 733
c0 451 310 732 720 732c409 0 719 -281 719 -732c0 -452 -310 -733 -719 -733zM825 203c270 0 481 187 481 511c0 321 -211 509 -481 509s-481 -188 -481 -509c0 -324 211 -511 481 -511z" />
    <glyph glyph-name="uni1ED6" unicode="&#x1ed6;" horiz-adv-x="1650" 
d="M969 1962c-92 0 -137 46 -170 88c-27 37 -51 72 -99 72c-64 0 -96 -63 -96 -146h-123c0 148 81 255 216 255c86 0 133 -41 167 -83c30 -36 55 -76 105 -76c62 0 92 57 92 144h125c0 -144 -76 -254 -217 -254zM678 1567h-148l219 297h151l219 -297h-148l-147 189zM825 -19
c-410 0 -720 281 -720 733c0 451 310 732 720 732c409 0 719 -281 719 -732c0 -452 -310 -733 -719 -733zM825 203c270 0 481 187 481 511c0 321 -211 509 -481 509s-481 -188 -481 -509c0 -324 211 -511 481 -511z" />
    <glyph glyph-name="Odieresis" unicode="&#xd6;" horiz-adv-x="1650" 
d="M624 1536c-78 0 -142 63 -142 141s64 141 142 141c76 0 141 -63 141 -141s-65 -141 -141 -141zM1027 1536c-78 0 -143 63 -143 141s65 141 143 141c75 0 140 -63 140 -141s-65 -141 -140 -141zM825 -19c-410 0 -720 281 -720 733c0 451 310 732 720 732
c409 0 719 -281 719 -732c0 -452 -310 -733 -719 -733zM825 203c270 0 481 187 481 511c0 321 -211 509 -481 509s-481 -188 -481 -509c0 -324 211 -511 481 -511z" />
    <glyph glyph-name="uni1ECC" unicode="&#x1ecc;" horiz-adv-x="1650" 
d="M825 -19c-410 0 -720 281 -720 733c0 451 310 732 720 732c409 0 719 -281 719 -732c0 -452 -310 -733 -719 -733zM825 203c270 0 481 187 481 511c0 321 -211 509 -481 509s-481 -188 -481 -509c0 -324 211 -511 481 -511zM826 -512c-78 0 -142 62 -142 141
c0 77 64 141 142 141c76 0 141 -64 141 -141c0 -79 -65 -141 -141 -141z" />
    <glyph glyph-name="Ograve" unicode="&#xd2;" horiz-adv-x="1650" 
d="M751 1567l-225 263l116 84l257 -347h-148zM825 -19c-410 0 -720 281 -720 733c0 451 310 732 720 732c409 0 719 -281 719 -732c0 -452 -310 -733 -719 -733zM825 203c270 0 481 187 481 511c0 321 -211 509 -481 509s-481 -188 -481 -509c0 -324 211 -511 481 -511z" />
    <glyph glyph-name="uni1ECE" unicode="&#x1ece;" horiz-adv-x="1650" 
d="M773 1536v127c74 14 115 47 115 103c0 43 -27 77 -78 77c-30 0 -59 -11 -86 -35l-59 83c40 33 91 54 153 54c117 0 191 -71 191 -172c0 -90 -55 -135 -128 -157v-80h-108zM825 -19c-410 0 -720 281 -720 733c0 451 310 732 720 732c409 0 719 -281 719 -732
c0 -452 -310 -733 -719 -733zM825 203c270 0 481 187 481 511c0 321 -211 509 -481 509s-481 -188 -481 -509c0 -324 211 -511 481 -511z" />
    <glyph glyph-name="Ohorn" unicode="&#x1a0;" horiz-adv-x="1650" 
d="M1493 1510h125v-137c0 -178 -81 -233 -177 -233h-14c74 -114 117 -259 117 -426c0 -452 -310 -733 -719 -733c-410 0 -720 281 -720 733c0 451 310 732 720 732c195 0 367 -64 494 -179c30 -13 58 -18 80 -18c70 0 94 43 94 146v115zM825 203c270 0 481 187 481 511
c0 321 -211 509 -481 509s-481 -188 -481 -509c0 -324 211 -511 481 -511z" />
    <glyph glyph-name="uni1EDA" unicode="&#x1eda;" horiz-adv-x="1650" 
d="M1121 1830l-225 -263h-149l257 347zM1493 1510h125v-137c0 -178 -81 -233 -177 -233h-14c74 -114 117 -259 117 -426c0 -452 -310 -733 -719 -733c-410 0 -720 281 -720 733c0 451 310 732 720 732c195 0 367 -64 494 -179c30 -13 58 -18 80 -18c70 0 94 43 94 146v115z
M825 203c270 0 481 187 481 511c0 321 -211 509 -481 509s-481 -188 -481 -509c0 -324 211 -511 481 -511z" />
    <glyph glyph-name="uni1EE2" unicode="&#x1ee2;" horiz-adv-x="1650" 
d="M1493 1510h125v-137c0 -178 -81 -233 -177 -233h-14c74 -114 117 -259 117 -426c0 -452 -310 -733 -719 -733c-410 0 -720 281 -720 733c0 451 310 732 720 732c195 0 367 -64 494 -179c30 -13 58 -18 80 -18c70 0 94 43 94 146v115zM825 203c270 0 481 187 481 511
c0 321 -211 509 -481 509s-481 -188 -481 -509c0 -324 211 -511 481 -511zM826 -230c76 0 141 -64 141 -141c0 -79 -65 -141 -141 -141c-78 0 -142 62 -142 141c0 77 64 141 142 141z" />
    <glyph glyph-name="uni1EDC" unicode="&#x1edc;" horiz-adv-x="1650" 
d="M899 1567h-148l-225 263l116 84zM1493 1510h125v-137c0 -178 -81 -233 -177 -233h-14c74 -114 117 -259 117 -426c0 -452 -310 -733 -719 -733c-410 0 -720 281 -720 733c0 451 310 732 720 732c195 0 367 -64 494 -179c30 -13 58 -18 80 -18c70 0 94 43 94 146v115z
M825 203c270 0 481 187 481 511c0 321 -211 509 -481 509s-481 -188 -481 -509c0 -324 211 -511 481 -511z" />
    <glyph glyph-name="uni1EDE" unicode="&#x1ede;" horiz-adv-x="1650" 
d="M810 1843c-30 0 -59 -11 -86 -35l-59 83c40 33 91 54 153 54c117 0 191 -71 191 -172c0 -90 -55 -135 -128 -157v-80h-108v127c74 14 115 47 115 103c0 43 -27 77 -78 77zM1493 1510h125v-137c0 -178 -81 -233 -177 -233h-14c74 -114 117 -259 117 -426
c0 -452 -310 -733 -719 -733c-410 0 -720 281 -720 733c0 451 310 732 720 732c195 0 367 -64 494 -179c30 -13 58 -18 80 -18c70 0 94 43 94 146v115zM825 203c270 0 481 187 481 511c0 321 -211 509 -481 509s-481 -188 -481 -509c0 -324 211 -511 481 -511z" />
    <glyph glyph-name="uni1EE0" unicode="&#x1ee0;" horiz-adv-x="1650" 
d="M701 1729c-64 0 -96 -63 -96 -146h-123c0 148 81 255 216 255c86 0 133 -41 167 -83c30 -36 55 -76 105 -76c62 0 92 57 92 144h125c0 -144 -76 -254 -217 -254c-92 0 -137 46 -170 88c-27 37 -51 72 -99 72zM1493 1510h125v-137c0 -178 -81 -233 -177 -233h-14
c74 -114 117 -259 117 -426c0 -452 -310 -733 -719 -733c-410 0 -720 281 -720 733c0 451 310 732 720 732c195 0 367 -64 494 -179c30 -13 58 -18 80 -18c70 0 94 43 94 146v115zM825 203c270 0 481 187 481 511c0 321 -211 509 -481 509s-481 -188 -481 -509
c0 -324 211 -511 481 -511z" />
    <glyph glyph-name="Ohungarumlaut" unicode="&#x150;" horiz-adv-x="1650" 
d="M566 1567l257 347l117 -84l-225 -263h-149zM935 1567l257 347l116 -84l-225 -263h-148zM825 -19c-410 0 -720 281 -720 733c0 451 310 732 720 732c409 0 719 -281 719 -732c0 -452 -310 -733 -719 -733zM825 203c270 0 481 187 481 511c0 321 -211 509 -481 509
s-481 -188 -481 -509c0 -324 211 -511 481 -511z" />
    <glyph glyph-name="Omacron" unicode="&#x14c;" horiz-adv-x="1650" 
d="M498 1567v140h655v-140h-655zM825 -19c-410 0 -720 281 -720 733c0 451 310 732 720 732c409 0 719 -281 719 -732c0 -452 -310 -733 -719 -733zM825 203c270 0 481 187 481 511c0 321 -211 509 -481 509s-481 -188 -481 -509c0 -324 211 -511 481 -511z" />
    <glyph glyph-name="Oslash" unicode="&#xd8;" horiz-adv-x="1650" 
d="M1297 1286c153 -127 247 -323 247 -572c0 -452 -310 -733 -719 -733c-138 0 -265 32 -373 92l-128 -184l-104 62l132 190c-153 127 -247 324 -247 573c0 451 310 732 720 732c138 0 265 -32 372 -92l129 185l103 -63zM344 714c0 -164 54 -293 143 -380l578 831
c-70 38 -152 58 -240 58c-270 0 -481 -188 -481 -509zM825 203c270 0 481 187 481 511c0 163 -55 292 -144 379l-578 -831c70 -39 152 -59 241 -59z" />
    <glyph glyph-name="Otilde" unicode="&#xd5;" horiz-adv-x="1650" 
d="M970 1569c-92 0 -137 46 -170 88c-27 37 -51 72 -99 72c-64 0 -96 -63 -96 -146h-123c0 148 81 255 216 255c86 0 133 -41 167 -83c30 -36 55 -76 105 -76c62 0 92 57 92 144h125c0 -144 -76 -254 -217 -254zM825 -19c-410 0 -720 281 -720 733c0 451 310 732 720 732
c409 0 719 -281 719 -732c0 -452 -310 -733 -719 -733zM825 203c270 0 481 187 481 511c0 321 -211 509 -481 509s-481 -188 -481 -509c0 -324 211 -511 481 -511z" />
    <glyph glyph-name="OE" unicode="&#x152;" horiz-adv-x="1979" 
d="M822 0c-499 0 -717 281 -717 716c0 434 218 710 717 710h1036v-214h-591v-390h505v-214h-505v-394h591v-214h-1036zM834 214h194v998h-194c-353 0 -480 -176 -480 -496c0 -321 127 -502 480 -502z" />
    <glyph glyph-name="P" unicode="P" horiz-adv-x="1289" 
d="M771 1426c268 0 439 -201 439 -449c0 -252 -171 -445 -439 -445h-328v-532h-239v1426h567zM733 736c160 0 244 98 244 244c0 141 -84 244 -244 244h-290v-488h290z" />
    <glyph glyph-name="Thorn" unicode="&#xde;" horiz-adv-x="1225" 
d="M750 1318c221 0 397 -197 397 -446c0 -240 -176 -432 -397 -432h-315v-440h-231v1531h231v-213h315zM739 648c110 0 196 103 196 232c0 131 -86 230 -196 230h-304v-462h304z" />
    <glyph glyph-name="Q" unicode="Q" horiz-adv-x="1676" 
d="M1595 -66l-205 -74l-191 210c-107 -58 -233 -89 -370 -89c-413 0 -726 281 -726 733c0 451 313 732 726 732s726 -281 726 -732c0 -217 -72 -394 -193 -520zM342 714c0 -334 214 -521 487 -521c274 0 487 187 487 521c0 321 -213 509 -487 509
c-273 0 -487 -188 -487 -509z" />
    <glyph glyph-name="R" unicode="R" horiz-adv-x="1307" 
d="M967 0l-370 636h-154v-636h-239v1426h495c309 0 445 -185 445 -414c0 -199 -118 -333 -307 -367l411 -645h-281zM443 1224v-411h221c175 0 250 82 250 204c0 121 -75 207 -250 207h-221z" />
    <glyph glyph-name="Racute" unicode="&#x154;" horiz-adv-x="1307" 
d="M944 1830l-225 -263h-149l257 347zM967 0l-370 636h-154v-636h-239v1426h495c309 0 445 -185 445 -414c0 -199 -118 -333 -307 -367l411 -645h-281zM443 1224v-411h221c175 0 250 82 250 204c0 121 -75 207 -250 207h-221z" />
    <glyph glyph-name="Rcaron" unicode="&#x158;" horiz-adv-x="1307" 
d="M723 1567h-150l-220 297h148l146 -191l147 191h148zM967 0l-370 636h-154v-636h-239v1426h495c309 0 445 -185 445 -414c0 -199 -118 -333 -307 -367l411 -645h-281zM443 1224v-411h221c175 0 250 82 250 204c0 121 -75 207 -250 207h-221z" />
    <glyph glyph-name="Rcommaaccent" unicode="&#x156;" horiz-adv-x="1307" 
d="M837 645l411 -645h-281l-370 636h-154v-636h-239v1426h495c309 0 445 -185 445 -414c0 -199 -118 -333 -307 -367zM443 1224v-411h221c175 0 250 82 250 204c0 121 -75 207 -250 207h-221zM381 -513l164 370h205l-252 -423z" />
    <glyph glyph-name="S" unicode="S" horiz-adv-x="1284" 
d="M662 -19c-302 0 -528 144 -574 396l246 57c26 -164 161 -254 337 -254c139 0 265 59 263 209c-2 156 -175 201 -362 254c-216 63 -438 135 -438 397c0 266 218 406 489 406c250 0 487 -105 542 -361l-231 -58c-32 152 -150 219 -299 219c-133 0 -259 -57 -259 -202
c0 -132 151 -173 324 -221c223 -62 481 -138 481 -424c0 -295 -247 -418 -519 -418z" />
    <glyph glyph-name="Sacute" unicode="&#x15a;" horiz-adv-x="1284" 
d="M566 1567l257 347l117 -84l-225 -263h-149zM662 -19c-302 0 -528 144 -574 396l246 57c26 -164 161 -254 337 -254c139 0 265 59 263 209c-2 156 -175 201 -362 254c-216 63 -438 135 -438 397c0 266 218 406 489 406c250 0 487 -105 542 -361l-231 -58
c-32 152 -150 219 -299 219c-133 0 -259 -57 -259 -202c0 -132 151 -173 324 -221c223 -62 481 -138 481 -424c0 -295 -247 -418 -519 -418z" />
    <glyph glyph-name="Scaron" unicode="&#x160;" horiz-adv-x="1284" 
d="M569 1567l-220 297h148l146 -191l147 191h148l-219 -297h-150zM662 -19c-302 0 -528 144 -574 396l246 57c26 -164 161 -254 337 -254c139 0 265 59 263 209c-2 156 -175 201 -362 254c-216 63 -438 135 -438 397c0 266 218 406 489 406c250 0 487 -105 542 -361
l-231 -58c-32 152 -150 219 -299 219c-133 0 -259 -57 -259 -202c0 -132 151 -173 324 -221c223 -62 481 -138 481 -424c0 -295 -247 -418 -519 -418z" />
    <glyph glyph-name="Scedilla" unicode="&#x15e;" horiz-adv-x="1284" 
d="M1181 399c0 -284 -229 -409 -490 -418l-58 -111c17 3 34 6 51 6c113 0 197 -78 197 -191c0 -121 -94 -217 -216 -217c-107 0 -202 62 -237 141l106 40c25 -42 80 -70 127 -70c57 0 107 43 107 106c0 66 -50 102 -111 102c-27 0 -54 -8 -77 -26l-90 56l88 168
c-259 24 -448 164 -490 392l246 57c26 -164 161 -254 337 -254c139 0 265 59 263 209c-2 156 -175 201 -362 254c-216 63 -438 135 -438 397c0 266 218 406 489 406c250 0 487 -105 542 -361l-231 -58c-32 152 -150 219 -299 219c-133 0 -259 -57 -259 -202
c0 -132 151 -173 324 -221c223 -62 481 -138 481 -424z" />
    <glyph glyph-name="Scommaaccent" unicode="&#x218;" horiz-adv-x="1284" 
d="M662 -19c-302 0 -528 144 -574 396l246 57c26 -164 161 -254 337 -254c139 0 265 59 263 209c-2 156 -175 201 -362 254c-216 63 -438 135 -438 397c0 266 218 406 489 406c250 0 487 -105 542 -361l-231 -58c-32 152 -150 219 -299 219c-133 0 -259 -57 -259 -202
c0 -132 151 -173 324 -221c223 -62 481 -138 481 -424c0 -295 -247 -418 -519 -418zM494 -566l-117 53l164 370h205z" />
    <glyph glyph-name="T" unicode="T" horiz-adv-x="1039" 
d="M991 1426v-213h-352v-1213h-238v1213h-353v213h943z" />
    <glyph glyph-name="Tbar" unicode="&#x166;" horiz-adv-x="1039" 
d="M991 1213h-352v-426h206v-145h-206v-642h-238v642h-204v145h204v426h-353v213h943v-213z" />
    <glyph glyph-name="Tcaron" unicode="&#x164;" horiz-adv-x="1039" 
d="M595 1567h-150l-220 297h148l146 -191l147 191h148zM991 1426v-213h-352v-1213h-238v1213h-353v213h943z" />
    <glyph glyph-name="uni0162" unicode="&#x162;" horiz-adv-x="1039" 
d="M639 0h-62l-68 -130c17 3 34 6 51 6c113 0 197 -78 197 -191c0 -121 -94 -217 -216 -217c-107 0 -202 62 -237 141l106 40c25 -42 80 -70 127 -70c57 0 107 43 107 106c0 66 -50 102 -111 102c-27 0 -54 -8 -77 -26l-90 56l96 183h-61v1213h-353v213h943v-213h-352v-1213
z" />
    <glyph glyph-name="uni021A" unicode="&#x21a;" horiz-adv-x="1039" 
d="M991 1426v-213h-352v-1213h-238v1213h-353v213h943zM253 -513l164 370h205l-252 -423z" />
    <glyph glyph-name="U" unicode="U" horiz-adv-x="1427" 
d="M713 -19c-303 0 -539 169 -539 505v940h240v-907c0 -227 131 -324 299 -324s301 98 301 324v907h239v-940c0 -336 -236 -505 -540 -505z" />
    <glyph glyph-name="Uacute" unicode="&#xda;" horiz-adv-x="1427" 
d="M635 1567l257 347l117 -84l-225 -263h-149zM713 -19c-303 0 -539 169 -539 505v940h240v-907c0 -227 131 -324 299 -324s301 98 301 324v907h239v-940c0 -336 -236 -505 -540 -505z" />
    <glyph glyph-name="uni01D3" unicode="&#x1d3;" horiz-adv-x="1427" 
d="M638 1567l-220 297h148l146 -191l147 191h148l-219 -297h-150zM713 -19c-303 0 -539 169 -539 505v940h240v-907c0 -227 131 -324 299 -324s301 98 301 324v907h239v-940c0 -336 -236 -505 -540 -505z" />
    <glyph glyph-name="Ucircumflex" unicode="&#xdb;" horiz-adv-x="1427" 
d="M566 1567h-148l219 297h151l219 -297h-148l-147 189zM713 -19c-303 0 -539 169 -539 505v940h240v-907c0 -227 131 -324 299 -324s301 98 301 324v907h239v-940c0 -336 -236 -505 -540 -505z" />
    <glyph glyph-name="Udieresis" unicode="&#xdc;" horiz-adv-x="1427" 
d="M512 1536c-78 0 -142 63 -142 141s64 141 142 141c76 0 141 -63 141 -141s-65 -141 -141 -141zM915 1536c-78 0 -143 63 -143 141s65 141 143 141c75 0 140 -63 140 -141s-65 -141 -140 -141zM713 -19c-303 0 -539 169 -539 505v940h240v-907c0 -227 131 -324 299 -324
s301 98 301 324v907h239v-940c0 -336 -236 -505 -540 -505z" />
    <glyph glyph-name="uni01D7" unicode="&#x1d7;" horiz-adv-x="1427" 
d="M635 1959l257 347l117 -84l-225 -263h-149zM512 1536c-78 0 -142 63 -142 141s64 141 142 141c76 0 141 -63 141 -141s-65 -141 -141 -141zM915 1536c-78 0 -143 63 -143 141s65 141 143 141c75 0 140 -63 140 -141s-65 -141 -140 -141zM713 -19
c-303 0 -539 169 -539 505v940h240v-907c0 -227 131 -324 299 -324s301 98 301 324v907h239v-940c0 -336 -236 -505 -540 -505z" />
    <glyph glyph-name="uni01D9" unicode="&#x1d9;" horiz-adv-x="1427" 
d="M638 1959l-220 297h148l146 -191l147 191h148l-219 -297h-150zM512 1536c-78 0 -142 63 -142 141s64 141 142 141c76 0 141 -63 141 -141s-65 -141 -141 -141zM915 1536c-78 0 -143 63 -143 141s65 141 143 141c75 0 140 -63 140 -141s-65 -141 -140 -141zM713 -19
c-303 0 -539 169 -539 505v940h240v-907c0 -227 131 -324 299 -324s301 98 301 324v907h239v-940c0 -336 -236 -505 -540 -505z" />
    <glyph glyph-name="uni01DB" unicode="&#x1db;" horiz-adv-x="1427" 
d="M639 1959l-225 263l116 84l257 -347h-148zM512 1536c-78 0 -142 63 -142 141s64 141 142 141c76 0 141 -63 141 -141s-65 -141 -141 -141zM915 1536c-78 0 -143 63 -143 141s65 141 143 141c75 0 140 -63 140 -141s-65 -141 -140 -141zM713 -19c-303 0 -539 169 -539 505
v940h240v-907c0 -227 131 -324 299 -324s301 98 301 324v907h239v-940c0 -336 -236 -505 -540 -505z" />
    <glyph glyph-name="uni01D5" unicode="&#x1d5;" horiz-adv-x="1427" 
d="M386 1959v140h655v-140h-655zM512 1536c-78 0 -142 63 -142 141s64 141 142 141c76 0 141 -63 141 -141s-65 -141 -141 -141zM915 1536c-78 0 -143 63 -143 141s65 141 143 141c75 0 140 -63 140 -141s-65 -141 -140 -141zM713 -19c-303 0 -539 169 -539 505v940h240
v-907c0 -227 131 -324 299 -324s301 98 301 324v907h239v-940c0 -336 -236 -505 -540 -505z" />
    <glyph glyph-name="uni1EE4" unicode="&#x1ee4;" horiz-adv-x="1427" 
d="M713 -19c-303 0 -539 169 -539 505v940h240v-907c0 -227 131 -324 299 -324s301 98 301 324v907h239v-940c0 -336 -236 -505 -540 -505zM714 -512c-78 0 -142 62 -142 141c0 77 64 141 142 141c76 0 141 -64 141 -141c0 -79 -65 -141 -141 -141z" />
    <glyph glyph-name="Ugrave" unicode="&#xd9;" horiz-adv-x="1427" 
d="M639 1567l-225 263l116 84l257 -347h-148zM713 -19c-303 0 -539 169 -539 505v940h240v-907c0 -227 131 -324 299 -324s301 98 301 324v907h239v-940c0 -336 -236 -505 -540 -505z" />
    <glyph glyph-name="uni1EE6" unicode="&#x1ee6;" horiz-adv-x="1427" 
d="M661 1536v127c74 14 115 47 115 103c0 43 -27 77 -78 77c-30 0 -59 -11 -86 -35l-59 83c40 33 91 54 153 54c117 0 191 -71 191 -172c0 -90 -55 -135 -128 -157v-80h-108zM713 -19c-303 0 -539 169 -539 505v940h240v-907c0 -227 131 -324 299 -324s301 98 301 324v907
h239v-940c0 -336 -236 -505 -540 -505z" />
    <glyph glyph-name="Uhorn" unicode="&#x1af;" horiz-adv-x="1427" 
d="M1411 1572h125v-137c0 -178 -81 -233 -177 -233c-32 0 -69 7 -106 20v-736c0 -336 -236 -505 -540 -505c-303 0 -539 169 -539 505v940h240v-907c0 -227 131 -324 299 -324s301 98 301 324v907h239v-103c24 -8 46 -12 64 -12c70 0 94 43 94 146v115z" />
    <glyph glyph-name="uni1EE8" unicode="&#x1ee8;" horiz-adv-x="1427" 
d="M1009 1830l-225 -263h-149l257 347zM1411 1572h125v-137c0 -178 -81 -233 -177 -233c-32 0 -69 7 -106 20v-736c0 -336 -236 -505 -540 -505c-303 0 -539 169 -539 505v940h240v-907c0 -227 131 -324 299 -324s301 98 301 324v907h239v-103c24 -8 46 -12 64 -12
c70 0 94 43 94 146v115z" />
    <glyph glyph-name="uni1EF0" unicode="&#x1ef0;" horiz-adv-x="1427" 
d="M1411 1572h125v-137c0 -178 -81 -233 -177 -233c-32 0 -69 7 -106 20v-736c0 -336 -236 -505 -540 -505c-303 0 -539 169 -539 505v940h240v-907c0 -227 131 -324 299 -324s301 98 301 324v907h239v-103c24 -8 46 -12 64 -12c70 0 94 43 94 146v115zM714 -230
c76 0 141 -64 141 -141c0 -79 -65 -141 -141 -141c-78 0 -142 62 -142 141c0 77 64 141 142 141z" />
    <glyph glyph-name="uni1EEA" unicode="&#x1eea;" horiz-adv-x="1427" 
d="M787 1567h-148l-225 263l116 84zM1411 1572h125v-137c0 -178 -81 -233 -177 -233c-32 0 -69 7 -106 20v-736c0 -336 -236 -505 -540 -505c-303 0 -539 169 -539 505v940h240v-907c0 -227 131 -324 299 -324s301 98 301 324v907h239v-103c24 -8 46 -12 64 -12
c70 0 94 43 94 146v115z" />
    <glyph glyph-name="uni1EEC" unicode="&#x1eec;" horiz-adv-x="1427" 
d="M698 1843c-30 0 -59 -11 -86 -35l-59 83c40 33 91 54 153 54c117 0 191 -71 191 -172c0 -90 -55 -135 -128 -157v-80h-108v127c74 14 115 47 115 103c0 43 -27 77 -78 77zM1411 1572h125v-137c0 -178 -81 -233 -177 -233c-32 0 -69 7 -106 20v-736
c0 -336 -236 -505 -540 -505c-303 0 -539 169 -539 505v940h240v-907c0 -227 131 -324 299 -324s301 98 301 324v907h239v-103c24 -8 46 -12 64 -12c70 0 94 43 94 146v115z" />
    <glyph glyph-name="uni1EEE" unicode="&#x1eee;" horiz-adv-x="1427" 
d="M589 1729c-64 0 -96 -63 -96 -146h-123c0 148 81 255 216 255c86 0 133 -41 167 -83c30 -36 55 -76 105 -76c62 0 92 57 92 144h125c0 -144 -76 -254 -217 -254c-92 0 -137 46 -170 88c-27 37 -51 72 -99 72zM1411 1572h125v-137c0 -178 -81 -233 -177 -233
c-32 0 -69 7 -106 20v-736c0 -336 -236 -505 -540 -505c-303 0 -539 169 -539 505v940h240v-907c0 -227 131 -324 299 -324s301 98 301 324v907h239v-103c24 -8 46 -12 64 -12c70 0 94 43 94 146v115z" />
    <glyph glyph-name="Uhungarumlaut" unicode="&#x170;" horiz-adv-x="1427" 
d="M454 1567l257 347l117 -84l-225 -263h-149zM823 1567l257 347l116 -84l-225 -263h-148zM713 -19c-303 0 -539 169 -539 505v940h240v-907c0 -227 131 -324 299 -324s301 98 301 324v907h239v-940c0 -336 -236 -505 -540 -505z" />
    <glyph glyph-name="Umacron" unicode="&#x16a;" horiz-adv-x="1427" 
d="M386 1567v140h655v-140h-655zM713 -19c-303 0 -539 169 -539 505v940h240v-907c0 -227 131 -324 299 -324s301 98 301 324v907h239v-940c0 -336 -236 -505 -540 -505z" />
    <glyph glyph-name="Uogonek" unicode="&#x172;" horiz-adv-x="1427" 
d="M1014 1426h239v-940c0 -232 -113 -385 -282 -457c-62 -59 -149 -151 -149 -203c0 -26 22 -39 68 -39c34 0 76 13 102 35v-155c-36 -14 -82 -23 -126 -23c-113 0 -184 36 -184 102c0 67 67 158 147 244c-37 -6 -76 -9 -116 -9c-303 0 -539 169 -539 505v940h240v-907
c0 -227 131 -324 299 -324s301 98 301 324v907z" />
    <glyph glyph-name="Uring" unicode="&#x16e;" horiz-adv-x="1427" 
d="M713 1567c-125 0 -226 102 -226 225s101 223 226 223c122 0 222 -100 222 -223s-100 -225 -222 -225zM713 1670c67 0 121 50 121 122c0 67 -54 124 -121 124c-69 0 -121 -57 -121 -124c0 -72 52 -122 121 -122zM713 -19c-303 0 -539 169 -539 505v940h240v-907
c0 -227 131 -324 299 -324s301 98 301 324v907h239v-940c0 -336 -236 -505 -540 -505z" />
    <glyph glyph-name="Utilde" unicode="&#x168;" horiz-adv-x="1427" 
d="M858 1569c-92 0 -137 46 -170 88c-27 37 -51 72 -99 72c-64 0 -96 -63 -96 -146h-123c0 148 81 255 216 255c86 0 133 -41 167 -83c30 -36 55 -76 105 -76c62 0 92 57 92 144h125c0 -144 -76 -254 -217 -254zM713 -19c-303 0 -539 169 -539 505v940h240v-907
c0 -227 131 -324 299 -324s301 98 301 324v907h239v-940c0 -336 -236 -505 -540 -505z" />
    <glyph glyph-name="V" unicode="V" horiz-adv-x="1396" 
d="M1097 1426h254l-526 -1426h-257l-523 1426h253l400 -1139z" />
    <glyph glyph-name="W" unicode="W" horiz-adv-x="2108" 
d="M447 0l-390 1426h249l308 -1127l337 1127h206l336 -1127l310 1127h248l-390 -1426h-298l-309 988l-309 -988h-298z" />
    <glyph glyph-name="Wacute" unicode="&#x1e82;" horiz-adv-x="2108" 
d="M976 1567l257 347l117 -84l-225 -263h-149zM447 0l-390 1426h249l308 -1127l337 1127h206l336 -1127l310 1127h248l-390 -1426h-298l-309 988l-309 -988h-298z" />
    <glyph glyph-name="Wcircumflex" unicode="&#x174;" horiz-adv-x="2108" 
d="M907 1567h-148l219 297h151l219 -297h-148l-147 189zM447 0l-390 1426h249l308 -1127l337 1127h206l336 -1127l310 1127h248l-390 -1426h-298l-309 988l-309 -988h-298z" />
    <glyph glyph-name="Wdieresis" unicode="&#x1e84;" horiz-adv-x="2108" 
d="M853 1536c-78 0 -142 63 -142 141s64 141 142 141c76 0 141 -63 141 -141s-65 -141 -141 -141zM1256 1536c-78 0 -143 63 -143 141s65 141 143 141c75 0 140 -63 140 -141s-65 -141 -140 -141zM447 0l-390 1426h249l308 -1127l337 1127h206l336 -1127l310 1127h248
l-390 -1426h-298l-309 988l-309 -988h-298z" />
    <glyph glyph-name="Wgrave" unicode="&#x1e80;" horiz-adv-x="2108" 
d="M980 1567l-225 263l116 84l257 -347h-148zM447 0l-390 1426h249l308 -1127l337 1127h206l336 -1127l310 1127h248l-390 -1426h-298l-309 988l-309 -988h-298z" />
    <glyph glyph-name="X" unicode="X" horiz-adv-x="1482" 
d="M43 0l556 744l-536 682h291l387 -510l386 510h291l-535 -682l556 -744h-304l-394 554l-394 -554h-304z" />
    <glyph glyph-name="Y" unicode="Y" horiz-adv-x="1242" 
d="M1211 1426l-469 -745v-681h-240v678l-471 748h268l322 -533l323 533h267z" />
    <glyph glyph-name="Yacute" unicode="&#xdd;" horiz-adv-x="1242" 
d="M918 1830l-225 -263h-149l257 347zM1211 1426l-469 -745v-681h-240v678l-471 748h268l322 -533l323 533h267z" />
    <glyph glyph-name="Ycircumflex" unicode="&#x176;" horiz-adv-x="1242" 
d="M621 1756l-146 -189h-148l219 297h151l219 -297h-148zM1211 1426l-469 -745v-681h-240v678l-471 748h268l322 -533l323 533h267z" />
    <glyph glyph-name="Ydieresis" unicode="&#x178;" horiz-adv-x="1242" 
d="M421 1536c-78 0 -142 63 -142 141s64 141 142 141c76 0 141 -63 141 -141s-65 -141 -141 -141zM824 1536c-78 0 -143 63 -143 141s65 141 143 141c75 0 140 -63 140 -141s-65 -141 -140 -141zM1211 1426l-469 -745v-681h-240v678l-471 748h268l322 -533l323 533h267z" />
    <glyph glyph-name="uni1EF4" unicode="&#x1ef4;" horiz-adv-x="1242" 
d="M502 0v678l-471 748h268l322 -533l323 533h267l-469 -745v-681h-240zM624 -230c76 0 141 -64 141 -141c0 -79 -65 -141 -141 -141c-78 0 -142 62 -142 141c0 77 64 141 142 141z" />
    <glyph glyph-name="Ygrave" unicode="&#x1ef2;" horiz-adv-x="1242" 
d="M696 1567h-148l-225 263l116 84zM1211 1426l-469 -745v-681h-240v678l-471 748h268l322 -533l323 533h267z" />
    <glyph glyph-name="uni1EF6" unicode="&#x1ef6;" horiz-adv-x="1242" 
d="M607 1843c-30 0 -59 -11 -86 -35l-59 83c40 33 91 54 153 54c117 0 191 -71 191 -172c0 -90 -55 -135 -128 -157v-80h-108v127c74 14 115 47 115 103c0 43 -27 77 -78 77zM1211 1426l-469 -745v-681h-240v678l-471 748h268l322 -533l323 533h267z" />
    <glyph glyph-name="uni1EF8" unicode="&#x1ef8;" horiz-adv-x="1242" 
d="M498 1729c-64 0 -96 -63 -96 -146h-123c0 148 81 255 216 255c86 0 133 -41 167 -83c30 -36 55 -76 105 -76c62 0 92 57 92 144h125c0 -144 -76 -254 -217 -254c-92 0 -137 46 -170 88c-27 37 -51 72 -99 72zM1211 1426l-469 -745v-681h-240v678l-471 748h268l322 -533
l323 533h267z" />
    <glyph glyph-name="Z" unicode="Z" horiz-adv-x="1232" 
d="M385 214h757v-214h-1048v191l742 1022h-740v213h1026v-192z" />
    <glyph glyph-name="Zacute" unicode="&#x179;" horiz-adv-x="1232" 
d="M931 1830l-225 -263h-149l257 347zM385 214h757v-214h-1048v191l742 1022h-740v213h1026v-192z" />
    <glyph glyph-name="Zcaron" unicode="&#x17d;" horiz-adv-x="1232" 
d="M710 1567h-150l-220 297h148l146 -191l147 191h148zM385 214h757v-214h-1048v191l742 1022h-740v213h1026v-192z" />
    <glyph glyph-name="Zdotaccent" unicode="&#x17b;" horiz-adv-x="1232" 
d="M636 1536c-78 0 -142 63 -142 141s64 141 142 141c76 0 141 -63 141 -141s-65 -141 -141 -141zM385 214h757v-214h-1048v191l742 1022h-740v213h1026v-192z" />
    <glyph glyph-name="G.ss02" horiz-adv-x="1597" 
d="M829 -19c-419 0 -724 277 -724 729c0 455 310 736 720 736c268 0 494 -118 618 -334l-211 -113c-84 159 -234 234 -407 234c-271 0 -479 -185 -479 -517c0 -327 202 -523 493 -523c235 0 417 142 431 362h-436v197h666c4 -58 4 -113 0 -165c-26 -405 -315 -606 -671 -606
z" />
    <glyph glyph-name="Gbreve.ss02" horiz-adv-x="1597" 
d="M817 1567c-205 0 -352 79 -352 282h137c0 -118 88 -170 215 -170c129 0 217 52 217 170h136c0 -203 -146 -282 -353 -282zM829 -19c-419 0 -724 277 -724 729c0 455 310 736 720 736c268 0 494 -118 618 -334l-211 -113c-84 159 -234 234 -407 234
c-271 0 -479 -185 -479 -517c0 -327 202 -523 493 -523c235 0 417 142 431 362h-436v197h666c4 -58 4 -113 0 -165c-26 -405 -315 -606 -671 -606z" />
    <glyph glyph-name="Gcommaaccent.ss02" horiz-adv-x="1597" 
d="M829 -19c-419 0 -724 277 -724 729c0 455 310 736 720 736c268 0 494 -118 618 -334l-211 -113c-84 159 -234 234 -407 234c-271 0 -479 -185 -479 -517c0 -327 202 -523 493 -523c235 0 417 142 431 362h-436v197h666c4 -58 4 -113 0 -165c-26 -405 -315 -606 -671 -606
zM667 -566l-117 53l164 370h205z" />
    <glyph glyph-name="Gdotaccent.ss02" horiz-adv-x="1597" 
d="M819 1536c-78 0 -142 63 -142 141s64 141 142 141c76 0 141 -63 141 -141s-65 -141 -141 -141zM829 -19c-419 0 -724 277 -724 729c0 455 310 736 720 736c268 0 494 -118 618 -334l-211 -113c-84 159 -234 234 -407 234c-271 0 -479 -185 -479 -517
c0 -327 202 -523 493 -523c235 0 417 142 431 362h-436v197h666c4 -58 4 -113 0 -165c-26 -405 -315 -606 -671 -606z" />
    <glyph glyph-name="G.ss03" horiz-adv-x="1597" 
d="M829 -19c-419 0 -724 277 -724 729c0 455 310 736 720 736c268 0 494 -118 618 -334l-211 -113c-84 159 -234 234 -407 234c-271 0 -479 -185 -479 -517c0 -327 202 -523 493 -523c235 0 417 142 431 362h-436v197h666c4 -58 4 -113 0 -165c-26 -405 -315 -606 -671 -606
z" />
    <glyph glyph-name="Gbreve.ss03" horiz-adv-x="1597" 
d="M817 1567c-205 0 -352 79 -352 282h137c0 -118 88 -170 215 -170c129 0 217 52 217 170h136c0 -203 -146 -282 -353 -282zM829 -19c-419 0 -724 277 -724 729c0 455 310 736 720 736c268 0 494 -118 618 -334l-211 -113c-84 159 -234 234 -407 234
c-271 0 -479 -185 -479 -517c0 -327 202 -523 493 -523c235 0 417 142 431 362h-436v197h666c4 -58 4 -113 0 -165c-26 -405 -315 -606 -671 -606z" />
    <glyph glyph-name="Gcommaaccent.ss03" horiz-adv-x="1597" 
d="M829 -19c-419 0 -724 277 -724 729c0 455 310 736 720 736c268 0 494 -118 618 -334l-211 -113c-84 159 -234 234 -407 234c-271 0 -479 -185 -479 -517c0 -327 202 -523 493 -523c235 0 417 142 431 362h-436v197h666c4 -58 4 -113 0 -165c-26 -405 -315 -606 -671 -606
zM667 -566l-117 53l164 370h205z" />
    <glyph glyph-name="Gdotaccent.ss03" horiz-adv-x="1597" 
d="M819 1536c-78 0 -142 63 -142 141s64 141 142 141c76 0 141 -63 141 -141s-65 -141 -141 -141zM829 -19c-419 0 -724 277 -724 729c0 455 310 736 720 736c268 0 494 -118 618 -334l-211 -113c-84 159 -234 234 -407 234c-271 0 -479 -185 -479 -517
c0 -327 202 -523 493 -523c235 0 417 142 431 362h-436v197h666c4 -58 4 -113 0 -165c-26 -405 -315 -606 -671 -606z" />
    <glyph glyph-name="a" unicode="a" horiz-adv-x="1112" 
d="M400 -19c-163 0 -310 78 -310 274c0 215 175 282 385 320l152 28c66 13 93 43 93 91c0 124 -97 165 -197 165c-109 0 -198 -48 -213 -177l-207 38c35 208 185 304 434 304c201 0 404 -72 404 -355v-390c0 -95 25 -122 95 -122h16v-157h-109c-113 0 -181 40 -204 133h-11
c-78 -110 -207 -152 -328 -152zM454 162c158 0 281 117 281 301l-257 -57c-106 -20 -165 -56 -165 -132c0 -79 62 -112 141 -112z" />
    <glyph glyph-name="aacute" unicode="&#xe1;" horiz-adv-x="1112" 
d="M481 1161l257 348l117 -84l-225 -264h-149zM400 -19c-163 0 -310 78 -310 274c0 215 175 282 385 320l152 28c66 13 93 43 93 91c0 124 -97 165 -197 165c-109 0 -198 -48 -213 -177l-207 38c35 208 185 304 434 304c201 0 404 -72 404 -355v-390c0 -95 25 -122 95 -122
h16v-157h-109c-113 0 -181 40 -204 133h-11c-78 -110 -207 -152 -328 -152zM454 162c158 0 281 117 281 301l-257 -57c-106 -20 -165 -56 -165 -132c0 -79 62 -112 141 -112z" />
    <glyph glyph-name="abreve" unicode="&#x103;" horiz-adv-x="1112" 
d="M558 1149c-205 0 -352 120 -352 334h147c0 -129 78 -221 205 -221c129 0 206 92 206 221h147c0 -214 -147 -334 -353 -334zM400 -19c-163 0 -310 78 -310 274c0 215 175 282 385 320l152 28c66 13 93 43 93 91c0 124 -97 165 -197 165c-109 0 -198 -48 -213 -177l-207 38
c35 208 185 304 434 304c201 0 404 -72 404 -355v-390c0 -95 25 -122 95 -122h16v-157h-109c-113 0 -181 40 -204 133h-11c-78 -110 -207 -152 -328 -152zM454 162c158 0 281 117 281 301l-257 -57c-106 -20 -165 -56 -165 -132c0 -79 62 -112 141 -112z" />
    <glyph glyph-name="uni1EAF" unicode="&#x1eaf;" horiz-adv-x="1112" 
d="M481 1638l257 348l117 -84l-225 -264h-149zM558 1149c-205 0 -352 120 -352 334h147c0 -129 78 -221 205 -221c129 0 206 92 206 221h147c0 -214 -147 -334 -353 -334zM400 -19c-163 0 -310 78 -310 274c0 215 175 282 385 320l152 28c66 13 93 43 93 91
c0 124 -97 165 -197 165c-109 0 -198 -48 -213 -177l-207 38c35 208 185 304 434 304c201 0 404 -72 404 -355v-390c0 -95 25 -122 95 -122h16v-157h-109c-113 0 -181 40 -204 133h-11c-78 -110 -207 -152 -328 -152zM454 162c158 0 281 117 281 301l-257 -57
c-106 -20 -165 -56 -165 -132c0 -79 62 -112 141 -112z" />
    <glyph glyph-name="uni1EB7" unicode="&#x1eb7;" horiz-adv-x="1112" 
d="M558 1149c-205 0 -352 120 -352 334h147c0 -129 78 -221 205 -221c129 0 206 92 206 221h147c0 -214 -147 -334 -353 -334zM400 -19c-163 0 -310 78 -310 274c0 215 175 282 385 320l152 28c66 13 93 43 93 91c0 124 -97 165 -197 165c-109 0 -198 -48 -213 -177l-207 38
c35 208 185 304 434 304c201 0 404 -72 404 -355v-390c0 -95 25 -122 95 -122h16v-157h-109c-113 0 -181 40 -204 133h-11c-78 -110 -207 -152 -328 -152zM454 162c158 0 281 117 281 301l-257 -57c-106 -20 -165 -56 -165 -132c0 -79 62 -112 141 -112zM557 -512
c-78 0 -142 62 -142 141c0 77 64 141 142 141c76 0 141 -64 141 -141c0 -79 -65 -141 -141 -141z" />
    <glyph glyph-name="uni1EB1" unicode="&#x1eb1;" horiz-adv-x="1112" 
d="M485 1638l-225 264l116 84l257 -348h-148zM558 1149c-205 0 -352 120 -352 334h147c0 -129 78 -221 205 -221c129 0 206 92 206 221h147c0 -214 -147 -334 -353 -334zM400 -19c-163 0 -310 78 -310 274c0 215 175 282 385 320l152 28c66 13 93 43 93 91
c0 124 -97 165 -197 165c-109 0 -198 -48 -213 -177l-207 38c35 208 185 304 434 304c201 0 404 -72 404 -355v-390c0 -95 25 -122 95 -122h16v-157h-109c-113 0 -181 40 -204 133h-11c-78 -110 -207 -152 -328 -152zM454 162c158 0 281 117 281 301l-257 -57
c-106 -20 -165 -56 -165 -132c0 -79 62 -112 141 -112z" />
    <glyph glyph-name="uni1EB3" unicode="&#x1eb3;" horiz-adv-x="1112" 
d="M507 1572v127c74 14 115 47 115 103c0 43 -27 77 -78 77c-30 0 -59 -11 -86 -35l-59 83c40 33 91 53 153 53c117 0 191 -70 191 -172c0 -89 -55 -134 -128 -156v-80h-108zM558 1149c-205 0 -352 120 -352 334h147c0 -129 78 -221 205 -221c129 0 206 92 206 221h147
c0 -214 -147 -334 -353 -334zM400 -19c-163 0 -310 78 -310 274c0 215 175 282 385 320l152 28c66 13 93 43 93 91c0 124 -97 165 -197 165c-109 0 -198 -48 -213 -177l-207 38c35 208 185 304 434 304c201 0 404 -72 404 -355v-390c0 -95 25 -122 95 -122h16v-157h-109
c-113 0 -181 40 -204 133h-11c-78 -110 -207 -152 -328 -152zM454 162c158 0 281 117 281 301l-257 -57c-106 -20 -165 -56 -165 -132c0 -79 62 -112 141 -112z" />
    <glyph glyph-name="uni1EB5" unicode="&#x1eb5;" horiz-adv-x="1112" 
d="M690 1630c-74 0 -129 35 -170 99c-20 32 -41 45 -69 45c-51 0 -78 -55 -78 -131h-117c0 143 73 246 191 246c76 0 133 -42 169 -100c17 -27 37 -44 71 -44c51 0 77 51 77 130h117c0 -138 -69 -245 -191 -245zM558 1149c-205 0 -352 120 -352 334h147
c0 -129 78 -221 205 -221c129 0 206 92 206 221h147c0 -214 -147 -334 -353 -334zM400 -19c-163 0 -310 78 -310 274c0 215 175 282 385 320l152 28c66 13 93 43 93 91c0 124 -97 165 -197 165c-109 0 -198 -48 -213 -177l-207 38c35 208 185 304 434 304
c201 0 404 -72 404 -355v-390c0 -95 25 -122 95 -122h16v-157h-109c-113 0 -181 40 -204 133h-11c-78 -110 -207 -152 -328 -152zM454 162c158 0 281 117 281 301l-257 -57c-106 -20 -165 -56 -165 -132c0 -79 62 -112 141 -112z" />
    <glyph glyph-name="uni01CE" unicode="&#x1ce;" horiz-adv-x="1112" 
d="M484 1186l-220 297h148l146 -190l147 190h148l-219 -297h-150zM400 -19c-163 0 -310 78 -310 274c0 215 175 282 385 320l152 28c66 13 93 43 93 91c0 124 -97 165 -197 165c-109 0 -198 -48 -213 -177l-207 38c35 208 185 304 434 304c201 0 404 -72 404 -355v-390
c0 -95 25 -122 95 -122h16v-157h-109c-113 0 -181 40 -204 133h-11c-78 -110 -207 -152 -328 -152zM454 162c158 0 281 117 281 301l-257 -57c-106 -20 -165 -56 -165 -132c0 -79 62 -112 141 -112z" />
    <glyph glyph-name="acircumflex" unicode="&#xe2;" horiz-adv-x="1112" 
d="M412 1186h-148l219 297h151l219 -297h-148l-147 189zM400 -19c-163 0 -310 78 -310 274c0 215 175 282 385 320l152 28c66 13 93 43 93 91c0 124 -97 165 -197 165c-109 0 -198 -48 -213 -177l-207 38c35 208 185 304 434 304c201 0 404 -72 404 -355v-390
c0 -95 25 -122 95 -122h16v-157h-109c-113 0 -181 40 -204 133h-11c-78 -110 -207 -152 -328 -152zM454 162c158 0 281 117 281 301l-257 -57c-106 -20 -165 -56 -165 -132c0 -79 62 -112 141 -112z" />
    <glyph glyph-name="uni1EA5" unicode="&#x1ea5;" horiz-adv-x="1112" 
d="M480 1638l257 348l117 -84l-225 -264h-149zM412 1186h-148l219 297h151l219 -297h-148l-147 189zM400 -19c-163 0 -310 78 -310 274c0 215 175 282 385 320l152 28c66 13 93 43 93 91c0 124 -97 165 -197 165c-109 0 -198 -48 -213 -177l-207 38c35 208 185 304 434 304
c201 0 404 -72 404 -355v-390c0 -95 25 -122 95 -122h16v-157h-109c-113 0 -181 40 -204 133h-11c-78 -110 -207 -152 -328 -152zM454 162c158 0 281 117 281 301l-257 -57c-106 -20 -165 -56 -165 -132c0 -79 62 -112 141 -112z" />
    <glyph glyph-name="uni1EAD" unicode="&#x1ead;" horiz-adv-x="1112" 
d="M412 1186h-148l219 297h151l219 -297h-148l-147 189zM400 -19c-163 0 -310 78 -310 274c0 215 175 282 385 320l152 28c66 13 93 43 93 91c0 124 -97 165 -197 165c-109 0 -198 -48 -213 -177l-207 38c35 208 185 304 434 304c201 0 404 -72 404 -355v-390
c0 -95 25 -122 95 -122h16v-157h-109c-113 0 -181 40 -204 133h-11c-78 -110 -207 -152 -328 -152zM454 162c158 0 281 117 281 301l-257 -57c-106 -20 -165 -56 -165 -132c0 -79 62 -112 141 -112zM557 -512c-78 0 -142 62 -142 141c0 77 64 141 142 141
c76 0 141 -64 141 -141c0 -79 -65 -141 -141 -141z" />
    <glyph glyph-name="uni1EA7" unicode="&#x1ea7;" horiz-adv-x="1112" 
d="M484 1638l-225 264l116 84l257 -348h-148zM412 1186h-148l219 297h151l219 -297h-148l-147 189zM400 -19c-163 0 -310 78 -310 274c0 215 175 282 385 320l152 28c66 13 93 43 93 91c0 124 -97 165 -197 165c-109 0 -198 -48 -213 -177l-207 38c35 208 185 304 434 304
c201 0 404 -72 404 -355v-390c0 -95 25 -122 95 -122h16v-157h-109c-113 0 -181 40 -204 133h-11c-78 -110 -207 -152 -328 -152zM454 162c158 0 281 117 281 301l-257 -57c-106 -20 -165 -56 -165 -132c0 -79 62 -112 141 -112z" />
    <glyph glyph-name="uni1EA9" unicode="&#x1ea9;" horiz-adv-x="1112" 
d="M506 1572v127c74 14 115 47 115 103c0 43 -27 77 -78 77c-30 0 -59 -11 -86 -35l-59 83c40 33 91 53 153 53c117 0 191 -70 191 -172c0 -89 -55 -134 -128 -156v-80h-108zM412 1186h-148l219 297h151l219 -297h-148l-147 189zM400 -19c-163 0 -310 78 -310 274
c0 215 175 282 385 320l152 28c66 13 93 43 93 91c0 124 -97 165 -197 165c-109 0 -198 -48 -213 -177l-207 38c35 208 185 304 434 304c201 0 404 -72 404 -355v-390c0 -95 25 -122 95 -122h16v-157h-109c-113 0 -181 40 -204 133h-11c-78 -110 -207 -152 -328 -152z
M454 162c158 0 281 117 281 301l-257 -57c-106 -20 -165 -56 -165 -132c0 -79 62 -112 141 -112z" />
    <glyph glyph-name="uni1EAB" unicode="&#x1eab;" horiz-adv-x="1112" 
d="M689 1630c-74 0 -129 35 -170 99c-20 32 -41 45 -69 45c-51 0 -78 -55 -78 -131h-117c0 143 73 246 191 246c76 0 133 -42 169 -100c17 -27 37 -44 71 -44c51 0 77 51 77 130h117c0 -138 -69 -245 -191 -245zM412 1186h-148l219 297h151l219 -297h-148l-147 189zM400 -19
c-163 0 -310 78 -310 274c0 215 175 282 385 320l152 28c66 13 93 43 93 91c0 124 -97 165 -197 165c-109 0 -198 -48 -213 -177l-207 38c35 208 185 304 434 304c201 0 404 -72 404 -355v-390c0 -95 25 -122 95 -122h16v-157h-109c-113 0 -181 40 -204 133h-11
c-78 -110 -207 -152 -328 -152zM454 162c158 0 281 117 281 301l-257 -57c-106 -20 -165 -56 -165 -132c0 -79 62 -112 141 -112z" />
    <glyph glyph-name="adieresis" unicode="&#xe4;" horiz-adv-x="1112" 
d="M358 1198c-78 0 -142 64 -142 141c0 78 64 141 142 141c76 0 141 -63 141 -141c0 -77 -65 -141 -141 -141zM761 1198c-78 0 -143 64 -143 141c0 78 65 141 143 141c75 0 140 -63 140 -141c0 -77 -65 -141 -140 -141zM400 -19c-163 0 -310 78 -310 274
c0 215 175 282 385 320l152 28c66 13 93 43 93 91c0 124 -97 165 -197 165c-109 0 -198 -48 -213 -177l-207 38c35 208 185 304 434 304c201 0 404 -72 404 -355v-390c0 -95 25 -122 95 -122h16v-157h-109c-113 0 -181 40 -204 133h-11c-78 -110 -207 -152 -328 -152z
M454 162c158 0 281 117 281 301l-257 -57c-106 -20 -165 -56 -165 -132c0 -79 62 -112 141 -112z" />
    <glyph glyph-name="uni1EA1" unicode="&#x1ea1;" horiz-adv-x="1112" 
d="M400 -19c-163 0 -310 78 -310 274c0 215 175 282 385 320l152 28c66 13 93 43 93 91c0 124 -97 165 -197 165c-109 0 -198 -48 -213 -177l-207 38c35 208 185 304 434 304c201 0 404 -72 404 -355v-390c0 -95 25 -122 95 -122h16v-157h-109c-113 0 -181 40 -204 133h-11
c-78 -110 -207 -152 -328 -152zM454 162c158 0 281 117 281 301l-257 -57c-106 -20 -165 -56 -165 -132c0 -79 62 -112 141 -112zM557 -512c-78 0 -142 62 -142 141c0 77 64 141 142 141c76 0 141 -64 141 -141c0 -79 -65 -141 -141 -141z" />
    <glyph glyph-name="agrave" unicode="&#xe0;" horiz-adv-x="1112" 
d="M485 1161l-225 264l116 84l257 -348h-148zM400 -19c-163 0 -310 78 -310 274c0 215 175 282 385 320l152 28c66 13 93 43 93 91c0 124 -97 165 -197 165c-109 0 -198 -48 -213 -177l-207 38c35 208 185 304 434 304c201 0 404 -72 404 -355v-390c0 -95 25 -122 95 -122
h16v-157h-109c-113 0 -181 40 -204 133h-11c-78 -110 -207 -152 -328 -152zM454 162c158 0 281 117 281 301l-257 -57c-106 -20 -165 -56 -165 -132c0 -79 62 -112 141 -112z" />
    <glyph glyph-name="uni1EA3" unicode="&#x1ea3;" horiz-adv-x="1112" 
d="M507 1095v127c74 14 115 47 115 103c0 43 -27 77 -78 77c-30 0 -59 -11 -86 -35l-59 83c40 33 91 53 153 53c117 0 191 -70 191 -172c0 -89 -55 -134 -128 -156v-80h-108zM400 -19c-163 0 -310 78 -310 274c0 215 175 282 385 320l152 28c66 13 93 43 93 91
c0 124 -97 165 -197 165c-109 0 -198 -48 -213 -177l-207 38c35 208 185 304 434 304c201 0 404 -72 404 -355v-390c0 -95 25 -122 95 -122h16v-157h-109c-113 0 -181 40 -204 133h-11c-78 -110 -207 -152 -328 -152zM454 162c158 0 281 117 281 301l-257 -57
c-106 -20 -165 -56 -165 -132c0 -79 62 -112 141 -112z" />
    <glyph glyph-name="amacron" unicode="&#x101;" horiz-adv-x="1112" 
d="M232 1188v140h655v-140h-655zM400 -19c-163 0 -310 78 -310 274c0 215 175 282 385 320l152 28c66 13 93 43 93 91c0 124 -97 165 -197 165c-109 0 -198 -48 -213 -177l-207 38c35 208 185 304 434 304c201 0 404 -72 404 -355v-390c0 -95 25 -122 95 -122h16v-157h-109
c-113 0 -181 40 -204 133h-11c-78 -110 -207 -152 -328 -152zM454 162c158 0 281 117 281 301l-257 -57c-106 -20 -165 -56 -165 -132c0 -79 62 -112 141 -112z" />
    <glyph glyph-name="aogonek" unicode="&#x105;" horiz-adv-x="1112" 
d="M1052 0c-60 -57 -170 -165 -170 -224c0 -26 22 -39 68 -39c34 0 76 13 102 35v-155c-36 -14 -82 -23 -126 -23c-113 0 -184 36 -184 102c0 83 103 203 206 304h-5c-113 0 -181 40 -204 133h-11c-78 -110 -207 -152 -328 -152c-163 0 -310 78 -310 274
c0 215 175 282 385 320l152 28c66 13 93 43 93 91c0 124 -97 165 -197 165c-109 0 -198 -48 -213 -177l-207 38c35 208 185 304 434 304c201 0 404 -72 404 -355v-390c0 -95 25 -122 95 -122h16v-157zM454 162c158 0 281 117 281 301l-257 -57c-106 -20 -165 -56 -165 -132
c0 -79 62 -112 141 -112z" />
    <glyph glyph-name="aring" unicode="&#xe5;" horiz-adv-x="1112" 
d="M559 1129c-125 0 -226 102 -226 225s101 223 226 223c122 0 222 -100 222 -223s-100 -225 -222 -225zM559 1232c67 0 121 50 121 122c0 67 -54 124 -121 124c-69 0 -121 -57 -121 -124c0 -72 52 -122 121 -122zM400 -19c-163 0 -310 78 -310 274c0 215 175 282 385 320
l152 28c66 13 93 43 93 91c0 124 -97 165 -197 165c-109 0 -198 -48 -213 -177l-207 38c35 208 185 304 434 304c201 0 404 -72 404 -355v-390c0 -95 25 -122 95 -122h16v-157h-109c-113 0 -181 40 -204 133h-11c-78 -110 -207 -152 -328 -152zM454 162
c158 0 281 117 281 301l-257 -57c-106 -20 -165 -56 -165 -132c0 -79 62 -112 141 -112z" />
    <glyph glyph-name="atilde" unicode="&#xe3;" horiz-adv-x="1112" 
d="M690 1153c-74 0 -129 35 -170 99c-20 32 -41 45 -69 45c-51 0 -78 -55 -78 -131h-117c0 143 73 246 191 246c76 0 133 -42 169 -100c17 -27 37 -44 71 -44c51 0 77 51 77 130h117c0 -138 -69 -245 -191 -245zM400 -19c-163 0 -310 78 -310 274c0 215 175 282 385 320
l152 28c66 13 93 43 93 91c0 124 -97 165 -197 165c-109 0 -198 -48 -213 -177l-207 38c35 208 185 304 434 304c201 0 404 -72 404 -355v-390c0 -95 25 -122 95 -122h16v-157h-109c-113 0 -181 40 -204 133h-11c-78 -110 -207 -152 -328 -152zM454 162
c158 0 281 117 281 301l-257 -57c-106 -20 -165 -56 -165 -132c0 -79 62 -112 141 -112z" />
    <glyph glyph-name="ae" unicode="&#xe6;" horiz-adv-x="1778" 
d="M1696 520l-3 -63h-765c11 -196 139 -291 292 -291c110 0 201 57 247 158l210 -36c-71 -197 -242 -307 -462 -307c-173 0 -317 63 -408 180h-6c-118 -136 -249 -180 -392 -180c-176 0 -319 78 -319 274c0 216 176 282 385 320l152 28c66 13 93 43 93 91
c0 124 -97 165 -197 165c-109 0 -198 -48 -213 -177l-207 38c35 208 185 304 434 304c127 0 251 -29 325 -121c89 80 211 123 352 123c277 0 481 -162 482 -506zM1209 860c-138 0 -245 -76 -274 -240h531c-13 157 -110 240 -257 240zM472 162c105 0 198 65 253 162
c-13 45 -21 93 -23 144l-203 -41c-118 -21 -183 -59 -183 -141c0 -86 69 -124 156 -124z" />
    <glyph glyph-name="b" unicode="b" horiz-adv-x="1283" 
d="M725 1025c260 0 476 -201 476 -523c0 -324 -215 -525 -476 -525c-149 0 -277 70 -336 184l-6 -161h-220v1536h229l1 -687c61 111 186 176 332 176zM673 172c166 0 298 128 298 330c0 201 -132 329 -298 329s-297 -136 -297 -329c0 -194 130 -330 297 -330z" />
    <glyph glyph-name="c" unicode="c" horiz-adv-x="1144" 
d="M599 -18c-302 0 -521 208 -521 522c0 313 219 521 521 521c239 0 422 -127 477 -351l-214 -28c-39 128 -138 194 -265 194c-168 0 -289 -133 -289 -336s121 -336 289 -336c127 0 226 65 265 193l214 -27c-55 -224 -242 -352 -477 -352z" />
    <glyph glyph-name="cacute" unicode="&#x107;" horiz-adv-x="1144" 
d="M510 1161l257 348l117 -84l-225 -264h-149zM599 -18c-302 0 -521 208 -521 522c0 313 219 521 521 521c239 0 422 -127 477 -351l-214 -28c-39 128 -138 194 -265 194c-168 0 -289 -133 -289 -336s121 -336 289 -336c127 0 226 65 265 193l214 -27
c-55 -224 -242 -352 -477 -352z" />
    <glyph glyph-name="ccaron" unicode="&#x10d;" horiz-adv-x="1144" 
d="M513 1186l-220 297h148l146 -190l147 190h148l-219 -297h-150zM599 -18c-302 0 -521 208 -521 522c0 313 219 521 521 521c239 0 422 -127 477 -351l-214 -28c-39 128 -138 194 -265 194c-168 0 -289 -133 -289 -336s121 -336 289 -336c127 0 226 65 265 193l214 -27
c-55 -224 -242 -352 -477 -352z" />
    <glyph glyph-name="ccedilla" unicode="&#xe7;" horiz-adv-x="1144" 
d="M597 168c127 0 226 65 265 193l214 -27c-52 -212 -222 -338 -440 -351l-59 -113c17 3 34 6 51 6c113 0 197 -78 197 -191c0 -121 -94 -217 -216 -217c-107 0 -202 62 -237 141l106 40c25 -42 80 -70 127 -70c57 0 107 43 107 106c0 66 -50 102 -111 102
c-27 0 -54 -8 -77 -26l-90 56l89 170c-262 32 -445 230 -445 517c0 313 219 521 521 521c239 0 422 -127 477 -351l-214 -28c-39 128 -138 194 -265 194c-168 0 -289 -133 -289 -336s121 -336 289 -336z" />
    <glyph glyph-name="cdotaccent" unicode="&#x10b;" horiz-adv-x="1144" 
d="M589 1198c-78 0 -142 64 -142 141c0 78 64 141 142 141c76 0 141 -63 141 -141c0 -77 -65 -141 -141 -141zM599 -18c-302 0 -521 208 -521 522c0 313 219 521 521 521c239 0 422 -127 477 -351l-214 -28c-39 128 -138 194 -265 194c-168 0 -289 -133 -289 -336
s121 -336 289 -336c127 0 226 65 265 193l214 -27c-55 -224 -242 -352 -477 -352z" />
    <glyph glyph-name="d" unicode="d" horiz-adv-x="1283" 
d="M890 1536h230v-1536h-220l-6 160c-60 -114 -188 -183 -335 -183c-261 0 -477 201 -477 525c0 322 217 523 477 523c143 0 269 -65 331 -174v685zM610 172c167 0 297 136 297 330c0 193 -131 329 -297 329s-298 -128 -298 -329c0 -202 132 -330 298 -330z" />
    <glyph glyph-name="eth" unicode="&#xf0;" horiz-adv-x="1176" 
d="M975 857c84 -119 125 -237 124 -361c-2 -302 -225 -514 -511 -514c-276 0 -512 211 -510 521c2 313 203 493 442 516c32 2 67 -1 103 -9l-165 222l-258 -66l-21 77l228 58l-174 235h255l130 -181l240 62l21 -77l-212 -54zM883 505c1 178 -118 320 -289 320
c-169 0 -288 -123 -290 -318c-2 -194 124 -317 291 -317c171 0 287 120 288 315z" />
    <glyph glyph-name="dcaron" unicode="&#x10f;" horiz-adv-x="1464" 
d="M534 -19c-252 0 -449 200 -449 524c0 322 198 523 449 523c143 0 266 -71 340 -185l2 693h229v-1536h-231v167c-74 -115 -197 -186 -340 -186zM1256 899l125 637h239l-197 -637h-167zM610 175c165 0 292 136 292 330c0 193 -129 330 -292 330c-165 0 -295 -128 -295 -330
s130 -330 295 -330z" />
    <glyph glyph-name="dcroat" unicode="&#x111;" horiz-adv-x="1283" 
d="M1270 1335v-145h-150v-1190h-220l-6 160c-60 -114 -188 -183 -335 -183c-261 0 -477 201 -477 525c0 322 217 523 477 523c143 0 269 -65 331 -174v339h-268v145h268v201h230v-201h150zM610 172c167 0 297 136 297 330c0 193 -131 329 -297 329s-298 -128 -298 -329
c0 -202 132 -330 298 -330z" />
    <glyph glyph-name="e" unicode="e" horiz-adv-x="1158" 
d="M1076 520l-3 -58h-765c9 -200 138 -296 291 -296c112 0 203 57 249 158l210 -36c-70 -194 -244 -307 -457 -307c-309 0 -519 192 -519 522s215 523 512 523c277 0 481 -162 482 -506zM595 855c-141 0 -245 -68 -277 -221h527c-18 149 -117 221 -250 221z" />
    <glyph glyph-name="eacute" unicode="&#xe9;" horiz-adv-x="1158" 
d="M897 1428l-225 -264h-149l257 348zM1076 520l-3 -58h-765c9 -200 138 -296 291 -296c112 0 203 57 249 158l210 -36c-70 -194 -244 -307 -457 -307c-309 0 -519 192 -519 522s215 523 512 523c277 0 481 -162 482 -506zM595 855c-141 0 -245 -68 -277 -221h527
c-18 149 -117 221 -250 221z" />
    <glyph glyph-name="ecaron" unicode="&#x11b;" horiz-adv-x="1158" 
d="M676 1189h-150l-220 297h148l146 -190l147 190h148zM1076 520l-3 -58h-765c9 -200 138 -296 291 -296c112 0 203 57 249 158l210 -36c-70 -194 -244 -307 -457 -307c-309 0 -519 192 -519 522s215 523 512 523c277 0 481 -162 482 -506zM595 855
c-141 0 -245 -68 -277 -221h527c-18 149 -117 221 -250 221z" />
    <glyph glyph-name="ecircumflex" unicode="&#xea;" horiz-adv-x="1158" 
d="M600 1378l-146 -189h-148l219 297h151l219 -297h-148zM1076 520l-3 -58h-765c9 -200 138 -296 291 -296c112 0 203 57 249 158l210 -36c-70 -194 -244 -307 -457 -307c-309 0 -519 192 -519 522s215 523 512 523c277 0 481 -162 482 -506zM595 855
c-141 0 -245 -68 -277 -221h527c-18 149 -117 221 -250 221z" />
    <glyph glyph-name="uni1EBF" unicode="&#x1ebf;" horiz-adv-x="1158" 
d="M896 1905l-225 -264h-149l257 348zM600 1378l-146 -189h-148l219 297h151l219 -297h-148zM1076 520l-3 -58h-765c9 -200 138 -296 291 -296c112 0 203 57 249 158l210 -36c-70 -194 -244 -307 -457 -307c-309 0 -519 192 -519 522s215 523 512 523
c277 0 481 -162 482 -506zM595 855c-141 0 -245 -68 -277 -221h527c-18 149 -117 221 -250 221z" />
    <glyph glyph-name="uni1EC7" unicode="&#x1ec7;" horiz-adv-x="1158" 
d="M600 1378l-146 -189h-148l219 297h151l219 -297h-148zM1076 520l-3 -58h-765c9 -200 138 -296 291 -296c112 0 203 57 249 158l210 -36c-70 -194 -244 -307 -457 -307c-309 0 -519 192 -519 522s215 523 512 523c277 0 481 -162 482 -506zM595 855
c-141 0 -245 -68 -277 -221h527c-18 149 -117 221 -250 221zM611 -231c76 0 141 -64 141 -141c0 -79 -65 -141 -141 -141c-78 0 -142 62 -142 141c0 77 64 141 142 141z" />
    <glyph glyph-name="uni1EC1" unicode="&#x1ec1;" horiz-adv-x="1158" 
d="M674 1641h-148l-225 264l116 84zM306 1189l219 297h151l219 -297h-148l-147 189l-146 -189h-148zM1076 520l-3 -58h-765c9 -200 138 -296 291 -296c112 0 203 57 249 158l210 -36c-70 -194 -244 -307 -457 -307c-309 0 -519 192 -519 522s215 523 512 523
c277 0 481 -162 482 -506zM595 855c-141 0 -245 -68 -277 -221h527c-18 149 -117 221 -250 221z" />
    <glyph glyph-name="uni1EC3" unicode="&#x1ec3;" horiz-adv-x="1158" 
d="M585 1882c-30 0 -59 -11 -86 -35l-59 83c40 33 91 53 153 53c117 0 191 -70 191 -172c0 -89 -55 -134 -128 -156v-80h-108v127c74 14 115 47 115 103c0 43 -27 77 -78 77zM600 1378l-146 -189h-148l219 297h151l219 -297h-148zM1076 520l-3 -58h-765
c9 -200 138 -296 291 -296c112 0 203 57 249 158l210 -36c-70 -194 -244 -307 -457 -307c-309 0 -519 192 -519 522s215 523 512 523c277 0 481 -162 482 -506zM595 855c-141 0 -245 -68 -277 -221h527c-18 149 -117 221 -250 221z" />
    <glyph glyph-name="uni1EC5" unicode="&#x1ec5;" horiz-adv-x="1158" 
d="M492 1777c-51 0 -78 -55 -78 -131h-117c0 143 73 246 191 246c76 0 133 -42 169 -100c17 -27 37 -44 71 -44c51 0 77 51 77 130h117c0 -138 -69 -245 -191 -245c-74 0 -129 35 -170 99c-20 32 -41 45 -69 45zM525 1486h151l219 -297h-148l-147 189l-146 -189h-148z
M1076 520l-3 -58h-765c9 -200 138 -296 291 -296c112 0 203 57 249 158l210 -36c-70 -194 -244 -307 -457 -307c-309 0 -519 192 -519 522s215 523 512 523c277 0 481 -162 482 -506zM595 855c-141 0 -245 -68 -277 -221h527c-18 149 -117 221 -250 221z" />
    <glyph glyph-name="edieresis" unicode="&#xeb;" horiz-adv-x="1158" 
d="M400 1201c-78 0 -142 64 -142 141c0 78 64 141 142 141c76 0 141 -63 141 -141c0 -77 -65 -141 -141 -141zM803 1201c-78 0 -143 64 -143 141c0 78 65 141 143 141c75 0 140 -63 140 -141c0 -77 -65 -141 -140 -141zM1076 520l-3 -58h-765c9 -200 138 -296 291 -296
c112 0 203 57 249 158l210 -36c-70 -194 -244 -307 -457 -307c-309 0 -519 192 -519 522s215 523 512 523c277 0 481 -162 482 -506zM595 855c-141 0 -245 -68 -277 -221h527c-18 149 -117 221 -250 221z" />
    <glyph glyph-name="edotaccent" unicode="&#x117;" horiz-adv-x="1158" 
d="M602 1201c-78 0 -142 64 -142 141c0 78 64 141 142 141c76 0 141 -63 141 -141c0 -77 -65 -141 -141 -141zM1076 520l-3 -58h-765c9 -200 138 -296 291 -296c112 0 203 57 249 158l210 -36c-70 -194 -244 -307 -457 -307c-309 0 -519 192 -519 522s215 523 512 523
c277 0 481 -162 482 -506zM595 855c-141 0 -245 -68 -277 -221h527c-18 149 -117 221 -250 221z" />
    <glyph glyph-name="uni1EB9" unicode="&#x1eb9;" horiz-adv-x="1158" 
d="M1076 520l-3 -58h-765c9 -200 138 -296 291 -296c112 0 203 57 249 158l210 -36c-70 -194 -244 -307 -457 -307c-309 0 -519 192 -519 522s215 523 512 523c277 0 481 -162 482 -506zM595 855c-141 0 -245 -68 -277 -221h527c-18 149 -117 221 -250 221zM611 -231
c76 0 141 -64 141 -141c0 -79 -65 -141 -141 -141c-78 0 -142 62 -142 141c0 77 64 141 142 141z" />
    <glyph glyph-name="egrave" unicode="&#xe8;" horiz-adv-x="1158" 
d="M675 1164h-148l-225 264l116 84zM1076 520l-3 -58h-765c9 -200 138 -296 291 -296c112 0 203 57 249 158l210 -36c-70 -194 -244 -307 -457 -307c-309 0 -519 192 -519 522s215 523 512 523c277 0 481 -162 482 -506zM595 855c-141 0 -245 -68 -277 -221h527
c-18 149 -117 221 -250 221z" />
    <glyph glyph-name="uni1EBB" unicode="&#x1ebb;" horiz-adv-x="1158" 
d="M586 1405c-30 0 -59 -11 -86 -35l-59 83c40 33 91 53 153 53c117 0 191 -70 191 -172c0 -89 -55 -134 -128 -156v-80h-108v127c74 14 115 47 115 103c0 43 -27 77 -78 77zM1076 520l-3 -58h-765c9 -200 138 -296 291 -296c112 0 203 57 249 158l210 -36
c-70 -194 -244 -307 -457 -307c-309 0 -519 192 -519 522s215 523 512 523c277 0 481 -162 482 -506zM595 855c-141 0 -245 -68 -277 -221h527c-18 149 -117 221 -250 221z" />
    <glyph glyph-name="emacron" unicode="&#x113;" horiz-adv-x="1158" 
d="M929 1331v-140h-655v140h655zM1076 520l-3 -58h-765c9 -200 138 -296 291 -296c112 0 203 57 249 158l210 -36c-70 -194 -244 -307 -457 -307c-309 0 -519 192 -519 522s215 523 512 523c277 0 481 -162 482 -506zM595 855c-141 0 -245 -68 -277 -221h527
c-18 149 -117 221 -250 221z" />
    <glyph glyph-name="eogonek" unicode="&#x119;" horiz-adv-x="1158" 
d="M1076 520l-3 -58h-765c9 -200 138 -296 291 -296c112 0 203 57 249 158l210 -36c-20 -56 -49 -106 -85 -147l1 -1l-14 -14c-8 -8 -17 -17 -26 -25c-59 -58 -130 -138 -130 -185c0 -26 22 -39 68 -39c34 0 76 13 102 35v-155c-36 -14 -82 -23 -126 -23
c-113 0 -184 36 -184 102c0 46 32 103 78 163c-45 -12 -92 -18 -141 -18c-309 0 -519 192 -519 522s215 523 512 523c277 0 481 -162 482 -506zM595 855c-141 0 -245 -68 -277 -221h527c-18 149 -117 221 -250 221z" />
    <glyph glyph-name="uni1EBD" unicode="&#x1ebd;" horiz-adv-x="1158" 
d="M493 1300c-51 0 -78 -55 -78 -131h-117c0 143 73 246 191 246c76 0 133 -42 169 -100c17 -27 37 -44 71 -44c51 0 77 51 77 130h117c0 -138 -69 -245 -191 -245c-74 0 -129 35 -170 99c-20 32 -41 45 -69 45zM1076 520l-3 -58h-765c9 -200 138 -296 291 -296
c112 0 203 57 249 158l210 -36c-70 -194 -244 -307 -457 -307c-309 0 -519 192 -519 522s215 523 512 523c277 0 481 -162 482 -506zM595 855c-141 0 -245 -68 -277 -221h527c-18 149 -117 221 -250 221z" />
    <glyph glyph-name="f" unicode="f" horiz-adv-x="697" 
d="M678 1349c-104 0 -224 3 -224 -187v-156h224v-180h-224v-826h-230v826h-195v180h195v158c0 325 190 372 454 372v-187z" />
    <glyph glyph-name="g" unicode="g" horiz-adv-x="1256" 
d="M872 1006h222v-943c0 -367 -200 -539 -512 -539c-271 0 -428 118 -504 310l191 86c58 -141 153 -212 304 -212c194 0 289 126 289 340v149c-60 -97 -186 -165 -328 -165c-250 0 -459 201 -459 498s210 495 461 495c148 0 272 -72 330 -177zM590 222
c165 0 293 139 293 308s-127 309 -293 309c-164 0 -292 -131 -292 -309c0 -176 130 -308 292 -308z" />
    <glyph glyph-name="gbreve" unicode="&#x11f;" horiz-adv-x="1256" 
d="M601 1149c-205 0 -352 120 -352 334h147c0 -129 78 -221 205 -221c129 0 206 92 206 221h147c0 -214 -147 -334 -353 -334zM872 1006h222v-943c0 -367 -200 -539 -512 -539c-271 0 -428 118 -504 310l191 86c58 -141 153 -212 304 -212c194 0 289 126 289 340v149
c-60 -97 -186 -165 -328 -165c-250 0 -459 201 -459 498s210 495 461 495c148 0 272 -72 330 -177zM590 222c165 0 293 139 293 308s-127 309 -293 309c-164 0 -292 -131 -292 -309c0 -176 130 -308 292 -308z" />
    <glyph glyph-name="gcommaaccent" unicode="&#x123;" horiz-adv-x="1256" 
d="M788 1478l-124 -316h-238l196 316h166zM872 1006h222v-943c0 -367 -200 -539 -512 -539c-271 0 -428 118 -504 310l191 86c58 -141 153 -212 304 -212c194 0 289 126 289 340v149c-60 -97 -186 -165 -328 -165c-250 0 -459 201 -459 498s210 495 461 495
c148 0 272 -72 330 -177zM590 222c165 0 293 139 293 308s-127 309 -293 309c-164 0 -292 -131 -292 -309c0 -176 130 -308 292 -308z" />
    <glyph glyph-name="gdotaccent" unicode="&#x121;" horiz-adv-x="1256" 
d="M603 1198c-78 0 -142 64 -142 141c0 78 64 141 142 141c76 0 141 -63 141 -141c0 -77 -65 -141 -141 -141zM872 1006h222v-943c0 -367 -200 -539 -512 -539c-271 0 -428 118 -504 310l191 86c58 -141 153 -212 304 -212c194 0 289 126 289 340v149
c-60 -97 -186 -165 -328 -165c-250 0 -459 201 -459 498s210 495 461 495c148 0 272 -72 330 -177zM590 222c165 0 293 139 293 308s-127 309 -293 309c-164 0 -292 -131 -292 -309c0 -176 130 -308 292 -308z" />
    <glyph glyph-name="h" unicode="h" horiz-adv-x="1202" 
d="M709 1025c213 0 351 -124 351 -369v-656h-232v616c0 163 -91 221 -200 221c-119 0 -234 -67 -235 -259v-578h-230v1536h230v-656c68 91 178 145 316 145z" />
    <glyph glyph-name="hbar" unicode="&#x127;" horiz-adv-x="1202" 
d="M709 1025c213 0 351 -124 351 -369v-656h-232v616c0 163 -91 221 -200 221c-119 0 -234 -67 -235 -259v-578h-230v1191h-129v145h129v200h230v-200h289v-145h-289v-311c68 91 178 145 316 145z" />
    <glyph glyph-name="i" unicode="i" horiz-adv-x="557" 
d="M281 1198c-78 0 -142 64 -142 141c0 78 64 141 142 141c76 0 141 -63 141 -141c0 -77 -65 -141 -141 -141zM163 0v1006h231v-1006h-231z" />
    <glyph glyph-name="dotlessi" unicode="&#x131;" horiz-adv-x="557" 
d="M163 0v1006h231v-1006h-231z" />
    <glyph glyph-name="iacute" unicode="&#xed;" horiz-adv-x="557" 
d="M202 1161l257 348l117 -84l-225 -264h-149zM163 0v1006h231v-1006h-231z" />
    <glyph glyph-name="uni01D0" unicode="&#x1d0;" horiz-adv-x="557" 
d="M205 1186l-220 297h148l146 -190l147 190h148l-219 -297h-150zM163 0v1006h231v-1006h-231z" />
    <glyph glyph-name="icircumflex" unicode="&#xee;" horiz-adv-x="557" 
d="M133 1186h-148l219 297h151l219 -297h-148l-147 189zM163 0v1006h231v-1006h-231z" />
    <glyph glyph-name="idieresis" unicode="&#xef;" horiz-adv-x="557" 
d="M79 1198c-78 0 -142 64 -142 141c0 78 64 141 142 141c76 0 141 -63 141 -141c0 -77 -65 -141 -141 -141zM482 1198c-78 0 -143 64 -143 141c0 78 65 141 143 141c75 0 140 -63 140 -141c0 -77 -65 -141 -140 -141zM163 0v1006h231v-1006h-231z" />
    <glyph glyph-name="i.loclTRK" horiz-adv-x="557" 
d="M281 1198c-78 0 -142 64 -142 141c0 78 64 141 142 141c76 0 141 -63 141 -141c0 -77 -65 -141 -141 -141zM163 0v1006h231v-1006h-231z" />
    <glyph glyph-name="uni1ECB" unicode="&#x1ecb;" horiz-adv-x="557" 
d="M281 1198c-78 0 -142 64 -142 141c0 78 64 141 142 141c76 0 141 -63 141 -141c0 -77 -65 -141 -141 -141zM163 0v1006h231v-1006h-231zM281 -512c-78 0 -142 62 -142 141c0 77 64 141 142 141c76 0 141 -64 141 -141c0 -79 -65 -141 -141 -141z" />
    <glyph glyph-name="igrave" unicode="&#xec;" horiz-adv-x="557" 
d="M206 1161l-225 264l116 84l257 -348h-148zM163 0v1006h231v-1006h-231z" />
    <glyph glyph-name="uni1EC9" unicode="&#x1ec9;" horiz-adv-x="557" 
d="M228 1095v127c74 14 115 47 115 103c0 43 -27 77 -78 77c-30 0 -59 -11 -86 -35l-59 83c40 33 91 53 153 53c117 0 191 -70 191 -172c0 -89 -55 -134 -128 -156v-80h-108zM163 0v1006h231v-1006h-231z" />
    <glyph glyph-name="imacron" unicode="&#x12b;" horiz-adv-x="557" 
d="M-47 1188v140h655v-140h-655zM163 0v1006h231v-1006h-231z" />
    <glyph glyph-name="iogonek" unicode="&#x12f;" horiz-adv-x="557" 
d="M281 1198c-78 0 -142 64 -142 141c0 78 64 141 142 141c76 0 141 -63 141 -141c0 -77 -65 -141 -141 -141zM163 0v1006h231v-1006c-60 -57 -170 -165 -170 -224c0 -26 22 -39 68 -39c34 0 76 13 102 35v-155c-36 -14 -82 -23 -126 -23c-113 0 -184 36 -184 102
c0 83 103 203 206 304h-127z" />
    <glyph glyph-name="itilde" unicode="&#x129;" horiz-adv-x="557" 
d="M411 1153c-74 0 -129 35 -170 99c-20 32 -41 45 -69 45c-51 0 -78 -55 -78 -131h-117c0 143 73 246 191 246c76 0 133 -42 169 -100c17 -27 37 -44 71 -44c51 0 77 51 77 130h117c0 -138 -69 -245 -191 -245zM163 0v1006h231v-1006h-231z" />
    <glyph glyph-name="j" unicode="j" horiz-adv-x="559" 
d="M282 1198c-78 0 -142 64 -142 141c0 78 64 141 142 141c76 0 141 -63 141 -141c0 -77 -65 -141 -141 -141zM-55 -471v186c180 0 218 71 218 310v981h233v-981c0 -352 -125 -496 -451 -496z" />
    <glyph glyph-name="uni0237" unicode="&#x237;" horiz-adv-x="559" 
d="M-55 -471v186c180 0 218 71 218 310v981h233v-981c0 -352 -125 -496 -451 -496z" />
    <glyph glyph-name="k" unicode="k" horiz-adv-x="1110" 
d="M816 0l-351 443h-70v-443h-232v1536h232v-927h64l333 397h265l-401 -464l446 -542h-286z" />
    <glyph glyph-name="kcommaaccent" unicode="&#x137;" horiz-adv-x="1110" 
d="M656 542l446 -542h-286l-351 443h-70v-443h-232v1536h232v-927h64l333 397h265zM287 -513l164 370h205l-252 -423z" />
    <glyph glyph-name="l" unicode="l" horiz-adv-x="558" 
d="M163 0v1536h232v-1536h-232z" />
    <glyph glyph-name="lacute" unicode="&#x13a;" horiz-adv-x="558" 
d="M202 1691l257 348l117 -84l-225 -264h-149zM163 0v1536h232v-1536h-232z" />
    <glyph glyph-name="lcaron" unicode="&#x13e;" horiz-adv-x="727" 
d="M163 0v1536h230v-1536h-230zM520 899l125 637h239l-197 -637h-167z" />
    <glyph glyph-name="lcommaaccent" unicode="&#x13c;" horiz-adv-x="558" 
d="M163 0v1536h232v-1536h-232zM129 -566l-117 53l164 370h205z" />
    <glyph glyph-name="lslash" unicode="&#x142;" horiz-adv-x="558" 
d="M572 1047v-156l-177 -132v-759h-232v587l-179 -133v155l179 133v794h232v-621z" />
    <glyph glyph-name="m" unicode="m" horiz-adv-x="1758" 
d="M1274 1025c202 0 339 -112 339 -320v-705h-231v641c0 136 -82 196 -176 196c-110 0 -200 -68 -200 -243v-594h-234v636c0 139 -81 201 -179 201c-108 0 -201 -68 -201 -253v-584h-229v1006h229v-124c63 91 162 143 284 143c137 0 244 -55 296 -157
c66 104 172 157 302 157z" />
    <glyph glyph-name="n" unicode="n" horiz-adv-x="1203" 
d="M698 1025c225 0 362 -124 362 -348v-677h-232v627c0 152 -92 210 -198 210c-127 0 -236 -72 -237 -259v-578h-230v1006h230v-119c67 87 174 138 305 138z" />
    <glyph glyph-name="nacute" unicode="&#x144;" horiz-adv-x="1203" 
d="M895 1425l-225 -264h-149l257 348zM698 1025c225 0 362 -124 362 -348v-677h-232v627c0 152 -92 210 -198 210c-127 0 -236 -72 -237 -259v-578h-230v1006h230v-119c67 87 174 138 305 138z" />
    <glyph glyph-name="ncaron" unicode="&#x148;" horiz-adv-x="1203" 
d="M674 1186h-150l-220 297h148l146 -190l147 190h148zM698 1025c225 0 362 -124 362 -348v-677h-232v627c0 152 -92 210 -198 210c-127 0 -236 -72 -237 -259v-578h-230v1006h230v-119c67 87 174 138 305 138z" />
    <glyph glyph-name="ncommaaccent" unicode="&#x146;" horiz-adv-x="1203" 
d="M698 1025c225 0 362 -124 362 -348v-677h-232v627c0 152 -92 210 -198 210c-127 0 -236 -72 -237 -259v-578h-230v1006h230v-119c67 87 174 138 305 138zM332 -513l164 370h205l-252 -423z" />
    <glyph glyph-name="eng" unicode="&#x14b;" horiz-adv-x="1204" 
d="M706 1025c218 0 355 -124 355 -355v-829c0 -187 -116 -314 -305 -314h-157v166h96c76 0 134 42 134 136v798c0 152 -91 210 -203 210c-122 0 -232 -65 -233 -251v-586h-230v1006h230v-118c70 86 179 137 313 137z" />
    <glyph glyph-name="ntilde" unicode="&#xf1;" horiz-adv-x="1203" 
d="M491 1297c-51 0 -78 -55 -78 -131h-117c0 143 73 246 191 246c76 0 133 -42 169 -100c17 -27 37 -44 71 -44c51 0 77 51 77 130h117c0 -138 -69 -245 -191 -245c-74 0 -129 35 -170 99c-20 32 -41 45 -69 45zM698 1025c225 0 362 -124 362 -348v-677h-232v627
c0 152 -92 210 -198 210c-127 0 -236 -72 -237 -259v-578h-230v1006h230v-119c67 87 174 138 305 138z" />
    <glyph glyph-name="o" unicode="o" horiz-adv-x="1219" 
d="M609 -19c-304 0 -529 197 -529 523c0 323 223 521 529 521c307 0 530 -198 530 -521c0 -326 -224 -523 -530 -523zM607 167c175 0 303 133 303 337c0 203 -128 336 -303 336c-172 0 -298 -133 -298 -336c0 -204 126 -337 298 -337z" />
    <glyph glyph-name="oacute" unicode="&#xf3;" horiz-adv-x="1219" 
d="M531 1160l257 348l117 -84l-225 -264h-149zM609 -19c-304 0 -529 197 -529 523c0 323 223 521 529 521c307 0 530 -198 530 -521c0 -326 -224 -523 -530 -523zM607 167c175 0 303 133 303 337c0 203 -128 336 -303 336c-172 0 -298 -133 -298 -336
c0 -204 126 -337 298 -337z" />
    <glyph glyph-name="uni01D2" unicode="&#x1d2;" horiz-adv-x="1219" 
d="M534 1185l-220 297h148l146 -190l147 190h148l-219 -297h-150zM609 -19c-304 0 -529 197 -529 523c0 323 223 521 529 521c307 0 530 -198 530 -521c0 -326 -224 -523 -530 -523zM607 167c175 0 303 133 303 337c0 203 -128 336 -303 336c-172 0 -298 -133 -298 -336
c0 -204 126 -337 298 -337z" />
    <glyph glyph-name="ocircumflex" unicode="&#xf4;" horiz-adv-x="1219" 
d="M462 1185h-148l219 297h151l219 -297h-148l-147 189zM609 -19c-304 0 -529 197 -529 523c0 323 223 521 529 521c307 0 530 -198 530 -521c0 -326 -224 -523 -530 -523zM607 167c175 0 303 133 303 337c0 203 -128 336 -303 336c-172 0 -298 -133 -298 -336
c0 -204 126 -337 298 -337z" />
    <glyph glyph-name="uni1ED1" unicode="&#x1ed1;" horiz-adv-x="1219" 
d="M530 1637l257 348l117 -84l-225 -264h-149zM462 1185h-148l219 297h151l219 -297h-148l-147 189zM609 -19c-304 0 -529 197 -529 523c0 323 223 521 529 521c307 0 530 -198 530 -521c0 -326 -224 -523 -530 -523zM607 167c175 0 303 133 303 337
c0 203 -128 336 -303 336c-172 0 -298 -133 -298 -336c0 -204 126 -337 298 -337z" />
    <glyph glyph-name="uni1ED9" unicode="&#x1ed9;" horiz-adv-x="1219" 
d="M462 1185h-148l219 297h151l219 -297h-148l-147 189zM609 -19c-304 0 -529 197 -529 523c0 323 223 521 529 521c307 0 530 -198 530 -521c0 -326 -224 -523 -530 -523zM607 167c175 0 303 133 303 337c0 203 -128 336 -303 336c-172 0 -298 -133 -298 -336
c0 -204 126 -337 298 -337zM610 -512c-78 0 -142 62 -142 141c0 77 64 141 142 141c76 0 141 -64 141 -141c0 -79 -65 -141 -141 -141z" />
    <glyph glyph-name="uni1ED3" unicode="&#x1ed3;" horiz-adv-x="1219" 
d="M534 1637l-225 264l116 84l257 -348h-148zM462 1185h-148l219 297h151l219 -297h-148l-147 189zM609 -19c-304 0 -529 197 -529 523c0 323 223 521 529 521c307 0 530 -198 530 -521c0 -326 -224 -523 -530 -523zM607 167c175 0 303 133 303 337c0 203 -128 336 -303 336
c-172 0 -298 -133 -298 -336c0 -204 126 -337 298 -337z" />
    <glyph glyph-name="uni1ED5" unicode="&#x1ed5;" horiz-adv-x="1219" 
d="M556 1571v127c74 14 115 47 115 103c0 43 -27 77 -78 77c-30 0 -59 -11 -86 -35l-59 83c40 33 91 53 153 53c117 0 191 -70 191 -172c0 -89 -55 -134 -128 -156v-80h-108zM462 1185h-148l219 297h151l219 -297h-148l-147 189zM609 -19c-304 0 -529 197 -529 523
c0 323 223 521 529 521c307 0 530 -198 530 -521c0 -326 -224 -523 -530 -523zM607 167c175 0 303 133 303 337c0 203 -128 336 -303 336c-172 0 -298 -133 -298 -336c0 -204 126 -337 298 -337z" />
    <glyph glyph-name="uni1ED7" unicode="&#x1ed7;" horiz-adv-x="1219" 
d="M739 1629c-74 0 -129 35 -170 99c-20 32 -41 45 -69 45c-51 0 -78 -55 -78 -131h-117c0 143 73 246 191 246c76 0 133 -42 169 -100c17 -27 37 -44 71 -44c51 0 77 51 77 130h117c0 -138 -69 -245 -191 -245zM462 1185h-148l219 297h151l219 -297h-148l-147 189zM609 -19
c-304 0 -529 197 -529 523c0 323 223 521 529 521c307 0 530 -198 530 -521c0 -326 -224 -523 -530 -523zM607 167c175 0 303 133 303 337c0 203 -128 336 -303 336c-172 0 -298 -133 -298 -336c0 -204 126 -337 298 -337z" />
    <glyph glyph-name="odieresis" unicode="&#xf6;" horiz-adv-x="1219" 
d="M408 1197c-78 0 -142 64 -142 141c0 78 64 141 142 141c76 0 141 -63 141 -141c0 -77 -65 -141 -141 -141zM811 1197c-78 0 -143 64 -143 141c0 78 65 141 143 141c75 0 140 -63 140 -141c0 -77 -65 -141 -140 -141zM609 -19c-304 0 -529 197 -529 523
c0 323 223 521 529 521c307 0 530 -198 530 -521c0 -326 -224 -523 -530 -523zM607 167c175 0 303 133 303 337c0 203 -128 336 -303 336c-172 0 -298 -133 -298 -336c0 -204 126 -337 298 -337z" />
    <glyph glyph-name="uni1ECD" unicode="&#x1ecd;" horiz-adv-x="1219" 
d="M609 -19c-304 0 -529 197 -529 523c0 323 223 521 529 521c307 0 530 -198 530 -521c0 -326 -224 -523 -530 -523zM607 167c175 0 303 133 303 337c0 203 -128 336 -303 336c-172 0 -298 -133 -298 -336c0 -204 126 -337 298 -337zM610 -512c-78 0 -142 62 -142 141
c0 77 64 141 142 141c76 0 141 -64 141 -141c0 -79 -65 -141 -141 -141z" />
    <glyph glyph-name="ograve" unicode="&#xf2;" horiz-adv-x="1219" 
d="M535 1160l-225 264l116 84l257 -348h-148zM609 -19c-304 0 -529 197 -529 523c0 323 223 521 529 521c307 0 530 -198 530 -521c0 -326 -224 -523 -530 -523zM607 167c175 0 303 133 303 337c0 203 -128 336 -303 336c-172 0 -298 -133 -298 -336
c0 -204 126 -337 298 -337z" />
    <glyph glyph-name="uni1ECF" unicode="&#x1ecf;" horiz-adv-x="1219" 
d="M557 1094v127c74 14 115 47 115 103c0 43 -27 77 -78 77c-30 0 -59 -11 -86 -35l-59 83c40 33 91 53 153 53c117 0 191 -70 191 -172c0 -89 -55 -134 -128 -156v-80h-108zM609 -19c-304 0 -529 197 -529 523c0 323 223 521 529 521c307 0 530 -198 530 -521
c0 -326 -224 -523 -530 -523zM607 167c175 0 303 133 303 337c0 203 -128 336 -303 336c-172 0 -298 -133 -298 -336c0 -204 126 -337 298 -337z" />
    <glyph glyph-name="ohorn" unicode="&#x1a1;" horiz-adv-x="1219" 
d="M1116 1156h125v-137c0 -176 -79 -232 -173 -233c45 -78 71 -173 71 -282c0 -326 -224 -523 -530 -523c-304 0 -529 197 -529 523c0 323 223 521 529 521c143 0 268 -43 361 -122c19 -6 37 -8 52 -8c70 0 94 43 94 146v115zM607 167c175 0 303 133 303 337
c0 203 -128 336 -303 336c-172 0 -298 -133 -298 -336c0 -204 126 -337 298 -337z" />
    <glyph glyph-name="uni1EDB" unicode="&#x1edb;" horiz-adv-x="1219" 
d="M905 1424l-225 -264h-149l257 348zM1116 1156h125v-137c0 -176 -79 -232 -173 -233c45 -78 71 -173 71 -282c0 -326 -224 -523 -530 -523c-304 0 -529 197 -529 523c0 323 223 521 529 521c143 0 268 -43 361 -122c19 -6 37 -8 52 -8c70 0 94 43 94 146v115zM607 167
c175 0 303 133 303 337c0 203 -128 336 -303 336c-172 0 -298 -133 -298 -336c0 -204 126 -337 298 -337z" />
    <glyph glyph-name="uni1EE3" unicode="&#x1ee3;" horiz-adv-x="1219" 
d="M1116 1156h125v-137c0 -176 -79 -232 -173 -233c45 -78 71 -173 71 -282c0 -326 -224 -523 -530 -523c-304 0 -529 197 -529 523c0 323 223 521 529 521c143 0 268 -43 361 -122c19 -6 37 -8 52 -8c70 0 94 43 94 146v115zM607 167c175 0 303 133 303 337
c0 203 -128 336 -303 336c-172 0 -298 -133 -298 -336c0 -204 126 -337 298 -337zM610 -230c76 0 141 -64 141 -141c0 -79 -65 -141 -141 -141c-78 0 -142 62 -142 141c0 77 64 141 142 141z" />
    <glyph glyph-name="uni1EDD" unicode="&#x1edd;" horiz-adv-x="1219" 
d="M683 1160h-148l-225 264l116 84zM1116 1156h125v-137c0 -176 -79 -232 -173 -233c45 -78 71 -173 71 -282c0 -326 -224 -523 -530 -523c-304 0 -529 197 -529 523c0 323 223 521 529 521c143 0 268 -43 361 -122c19 -6 37 -8 52 -8c70 0 94 43 94 146v115zM607 167
c175 0 303 133 303 337c0 203 -128 336 -303 336c-172 0 -298 -133 -298 -336c0 -204 126 -337 298 -337z" />
    <glyph glyph-name="uni1EDF" unicode="&#x1edf;" horiz-adv-x="1219" 
d="M594 1401c-30 0 -59 -11 -86 -35l-59 83c40 33 91 53 153 53c117 0 191 -70 191 -172c0 -89 -55 -134 -128 -156v-80h-108v127c74 14 115 47 115 103c0 43 -27 77 -78 77zM1116 1156h125v-137c0 -176 -79 -232 -173 -233c45 -78 71 -173 71 -282
c0 -326 -224 -523 -530 -523c-304 0 -529 197 -529 523c0 323 223 521 529 521c143 0 268 -43 361 -122c19 -6 37 -8 52 -8c70 0 94 43 94 146v115zM607 167c175 0 303 133 303 337c0 203 -128 336 -303 336c-172 0 -298 -133 -298 -336c0 -204 126 -337 298 -337z" />
    <glyph glyph-name="uni1EE1" unicode="&#x1ee1;" horiz-adv-x="1219" 
d="M501 1296c-51 0 -78 -55 -78 -131h-117c0 143 73 246 191 246c76 0 133 -42 169 -100c17 -27 37 -44 71 -44c51 0 77 51 77 130h117c0 -138 -69 -245 -191 -245c-74 0 -129 35 -170 99c-20 32 -41 45 -69 45zM1116 1156h125v-137c0 -176 -79 -232 -173 -233
c45 -78 71 -173 71 -282c0 -326 -224 -523 -530 -523c-304 0 -529 197 -529 523c0 323 223 521 529 521c143 0 268 -43 361 -122c19 -6 37 -8 52 -8c70 0 94 43 94 146v115zM607 167c175 0 303 133 303 337c0 203 -128 336 -303 336c-172 0 -298 -133 -298 -336
c0 -204 126 -337 298 -337z" />
    <glyph glyph-name="ohungarumlaut" unicode="&#x151;" horiz-adv-x="1219" 
d="M350 1160l257 348l117 -84l-225 -264h-149zM719 1160l257 348l116 -84l-225 -264h-148zM609 -19c-304 0 -529 197 -529 523c0 323 223 521 529 521c307 0 530 -198 530 -521c0 -326 -224 -523 -530 -523zM607 167c175 0 303 133 303 337c0 203 -128 336 -303 336
c-172 0 -298 -133 -298 -336c0 -204 126 -337 298 -337z" />
    <glyph glyph-name="omacron" unicode="&#x14d;" horiz-adv-x="1219" 
d="M282 1187v140h655v-140h-655zM609 -19c-304 0 -529 197 -529 523c0 323 223 521 529 521c307 0 530 -198 530 -521c0 -326 -224 -523 -530 -523zM607 167c175 0 303 133 303 337c0 203 -128 336 -303 336c-172 0 -298 -133 -298 -336c0 -204 126 -337 298 -337z" />
    <glyph glyph-name="oslash" unicode="&#xf8;" horiz-adv-x="1219" 
d="M962 910c110 -90 177 -230 177 -406c0 -326 -224 -523 -530 -523c-95 0 -181 19 -256 55l-100 -143l-100 60l102 146c-109 90 -175 229 -175 405c0 323 223 521 529 521c94 0 180 -19 254 -54l99 142l100 -60zM309 504c0 -92 26 -170 70 -227l369 530
c-41 21 -89 33 -141 33c-172 0 -298 -133 -298 -336zM607 167c175 0 303 133 303 337c0 92 -27 170 -72 228l-370 -531c41 -22 88 -34 139 -34z" />
    <glyph glyph-name="otilde" unicode="&#xf5;" horiz-adv-x="1219" 
d="M740 1152c-74 0 -129 35 -170 99c-20 32 -41 45 -69 45c-51 0 -78 -55 -78 -131h-117c0 143 73 246 191 246c76 0 133 -42 169 -100c17 -27 37 -44 71 -44c51 0 77 51 77 130h117c0 -138 -69 -245 -191 -245zM609 -19c-304 0 -529 197 -529 523c0 323 223 521 529 521
c307 0 530 -198 530 -521c0 -326 -224 -523 -530 -523zM607 167c175 0 303 133 303 337c0 203 -128 336 -303 336c-172 0 -298 -133 -298 -336c0 -204 126 -337 298 -337z" />
    <glyph glyph-name="oe" unicode="&#x153;" horiz-adv-x="1990" 
d="M1907 520l-3 -58h-765c9 -200 138 -296 291 -296c112 0 203 57 249 158l210 -36c-70 -194 -244 -307 -457 -307c-175 0 -318 62 -410 175c-95 -113 -241 -175 -413 -175c-304 0 -529 197 -529 523c0 323 223 521 529 521c173 0 319 -63 414 -175c91 114 233 176 402 176
c277 0 481 -162 482 -506zM1426 855c-141 0 -245 -68 -277 -221h527c-18 149 -117 221 -250 221zM607 167c175 0 303 133 303 337c0 203 -128 336 -303 336c-172 0 -298 -133 -298 -336c0 -204 126 -337 298 -337z" />
    <glyph glyph-name="p" unicode="p" horiz-adv-x="1283" 
d="M724 1025c261 0 476 -198 476 -523c0 -327 -215 -525 -476 -525c-144 0 -270 67 -331 176v-651h-230v1504h220l6 -164c60 115 188 183 335 183zM674 172c163 0 296 124 296 330c0 205 -133 328 -296 328c-168 0 -299 -136 -299 -328c0 -194 131 -330 299 -330z" />
    <glyph glyph-name="thorn" unicode="&#xfe;" horiz-adv-x="1283" 
d="M724 1025c261 0 476 -198 476 -523c0 -327 -215 -525 -476 -525c-144 0 -270 67 -331 176v-651h-230v2034h230v-687c61 111 187 176 331 176zM674 172c163 0 296 124 296 330c0 205 -133 328 -296 328c-168 0 -299 -136 -299 -328c0 -194 131 -330 299 -330z" />
    <glyph glyph-name="q" unicode="q" horiz-adv-x="1282" 
d="M899 1006h220v-1504h-230v648c-61 -108 -188 -173 -330 -173c-261 0 -477 198 -477 525c0 325 216 523 477 523c145 0 274 -67 334 -180zM608 172c169 0 299 136 299 330c0 192 -131 328 -299 328c-163 0 -296 -123 -296 -328c0 -206 133 -330 296 -330z" />
    <glyph glyph-name="r" unicode="r" horiz-adv-x="732" 
d="M385 837c49 100 178 179 324 180v-210c-205 0 -315 -75 -315 -294v-513h-231v1006h222v-169z" />
    <glyph glyph-name="racute" unicode="&#x155;" horiz-adv-x="732" 
d="M652 1425l-225 -264h-149l257 348zM385 837c49 100 178 179 324 180v-210c-205 0 -315 -75 -315 -294v-513h-231v1006h222v-169z" />
    <glyph glyph-name="rcaron" unicode="&#x159;" horiz-adv-x="732" 
d="M431 1186h-150l-220 297h148l146 -190l147 190h148zM385 837c49 100 178 179 324 180v-210c-205 0 -315 -75 -315 -294v-513h-231v1006h222v-169z" />
    <glyph glyph-name="rcommaaccent" unicode="&#x157;" horiz-adv-x="732" 
d="M385 837c49 100 178 179 324 180v-210c-205 0 -315 -75 -315 -294v-513h-231v1006h222v-169zM12 -513l164 370h205l-252 -423z" />
    <glyph glyph-name="s" unicode="s" horiz-adv-x="969" 
d="M499 -19c-219 0 -386 93 -420 279l195 55c27 -114 112 -169 225 -169c83 0 173 30 171 127c-2 114 -148 128 -309 182c-130 42 -256 101 -256 276c0 202 167 293 375 293c190 0 348 -77 383 -264l-182 -43c-27 106 -107 148 -200 148c-83 0 -164 -32 -164 -115
c0 -96 118 -116 246 -150c157 -41 329 -101 329 -314c0 -223 -186 -305 -393 -305z" />
    <glyph glyph-name="sacute" unicode="&#x15b;" horiz-adv-x="969" 
d="M410 1162l257 348l117 -84l-225 -264h-149zM499 -19c-219 0 -386 93 -420 279l195 55c27 -114 112 -169 225 -169c83 0 173 30 171 127c-2 114 -148 128 -309 182c-130 42 -256 101 -256 276c0 202 167 293 375 293c190 0 348 -77 383 -264l-182 -43
c-27 106 -107 148 -200 148c-83 0 -164 -32 -164 -115c0 -96 118 -116 246 -150c157 -41 329 -101 329 -314c0 -223 -186 -305 -393 -305z" />
    <glyph glyph-name="scaron" unicode="&#x161;" horiz-adv-x="969" 
d="M413 1187l-220 297h148l146 -190l147 190h148l-219 -297h-150zM499 -19c-219 0 -386 93 -420 279l195 55c27 -114 112 -169 225 -169c83 0 173 30 171 127c-2 114 -148 128 -309 182c-130 42 -256 101 -256 276c0 202 167 293 375 293c190 0 348 -77 383 -264l-182 -43
c-27 106 -107 148 -200 148c-83 0 -164 -32 -164 -115c0 -96 118 -116 246 -150c157 -41 329 -101 329 -314c0 -223 -186 -305 -393 -305z" />
    <glyph glyph-name="scedilla" unicode="&#x15f;" horiz-adv-x="969" 
d="M892 286c0 -210 -165 -295 -357 -304l-58 -111c17 3 34 6 51 6c113 0 197 -78 197 -191c0 -121 -94 -217 -216 -217c-107 0 -202 62 -237 141l106 40c25 -42 80 -70 127 -70c57 0 107 43 107 106c0 66 -50 102 -111 102c-27 0 -54 -8 -77 -26l-90 56l88 167
c-181 20 -313 112 -343 275l195 55c27 -114 112 -169 225 -169c83 0 173 30 171 127c-2 114 -148 128 -309 182c-130 42 -256 101 -256 276c0 202 167 293 375 293c190 0 348 -77 383 -264l-182 -43c-27 106 -107 148 -200 148c-83 0 -164 -32 -164 -115
c0 -96 118 -116 246 -150c157 -41 329 -101 329 -314z" />
    <glyph glyph-name="scommaaccent" unicode="&#x219;" horiz-adv-x="969" 
d="M499 -19c-219 0 -386 93 -420 279l195 55c27 -114 112 -169 225 -169c83 0 173 30 171 127c-2 114 -148 128 -309 182c-130 42 -256 101 -256 276c0 202 167 293 375 293c190 0 348 -77 383 -264l-182 -43c-27 106 -107 148 -200 148c-83 0 -164 -32 -164 -115
c0 -96 118 -116 246 -150c157 -41 329 -101 329 -314c0 -223 -186 -305 -393 -305zM338 -565l-117 53l164 370h205z" />
    <glyph glyph-name="germandbls" unicode="&#xdf;" horiz-adv-x="1249" 
d="M163 0v996c0 425 226 560 482 560c275 0 458 -163 458 -379s-168 -234 -168 -357c0 -134 250 -138 250 -445c0 -190 -122 -375 -383 -375h-196v175h132c142 0 217 96 217 206c0 236 -236 201 -236 419c0 204 167 198 167 368c0 120 -90 204 -237 204
c-159 0 -259 -89 -259 -335v-1037h-227z" />
    <glyph glyph-name="t" unicode="t" horiz-adv-x="749" 
d="M511 0c-180 0 -288 106 -288 294v532h-201v180h69c106 0 155 42 155 173v156h210v-329h219v-180h-219v-508c0 -94 51 -140 128 -140h91v-178h-164z" />
    <glyph glyph-name="tbar" unicode="&#x167;" horiz-adv-x="749" 
d="M675 826h-219v-249h158v-145h-158v-114c0 -94 51 -140 128 -140h91v-178h-164c-180 0 -288 106 -288 294v138h-146v145h146v249h-201v180h69c106 0 155 42 155 173v156h210v-329h219v-180z" />
    <glyph glyph-name="tcaron" unicode="&#x165;" horiz-adv-x="711" 
d="M581 1201l125 636h238l-196 -636h-167zM495 0c-181 0 -288 106 -288 294v532h-202v180h70c105 0 154 42 154 173v156h210v-329h219v-180h-219v-508c0 -94 51 -140 128 -140h91v-178h-163z" />
    <glyph glyph-name="uni0163" unicode="&#x163;" horiz-adv-x="749" 
d="M599 -124c113 0 197 -78 197 -191c0 -121 -94 -217 -216 -217c-107 0 -202 62 -237 141l106 40c25 -42 80 -70 127 -70c57 0 107 43 107 106c0 66 -50 102 -111 102c-27 0 -54 -8 -77 -26l-90 56l96 183c-174 4 -278 109 -278 294v532h-201v180h69c106 0 155 42 155 173
v156h210v-329h219v-180h-219v-508c0 -94 51 -140 128 -140h91v-178h-59l-68 -130c17 3 34 6 51 6z" />
    <glyph glyph-name="uni021B" unicode="&#x21b;" horiz-adv-x="749" 
d="M511 0c-180 0 -288 106 -288 294v532h-201v180h69c106 0 155 42 155 173v156h210v-329h219v-180h-219v-508c0 -94 51 -140 128 -140h91v-178h-164zM409 -566l-117 53l164 370h205z" />
    <glyph glyph-name="u" unicode="u" horiz-adv-x="1202" 
d="M809 1006h230v-1006h-219l-6 126c-67 -92 -176 -145 -310 -145c-224 0 -362 123 -362 348v677h232v-627c0 -152 92 -210 199 -210c127 0 235 72 236 259v578z" />
    <glyph glyph-name="uacute" unicode="&#xfa;" horiz-adv-x="1202" 
d="M899 1425l-225 -264h-149l257 348zM809 1006h230v-1006h-219l-6 126c-67 -92 -176 -145 -310 -145c-224 0 -362 123 -362 348v677h232v-627c0 -152 92 -210 199 -210c127 0 235 72 236 259v578z" />
    <glyph glyph-name="uni01D4" unicode="&#x1d4;" horiz-adv-x="1202" 
d="M678 1186h-150l-220 297h148l146 -190l147 190h148zM809 1006h230v-1006h-219l-6 126c-67 -92 -176 -145 -310 -145c-224 0 -362 123 -362 348v677h232v-627c0 -152 92 -210 199 -210c127 0 235 72 236 259v578z" />
    <glyph glyph-name="ucircumflex" unicode="&#xfb;" horiz-adv-x="1202" 
d="M602 1375l-146 -189h-148l219 297h151l219 -297h-148zM809 1006h230v-1006h-219l-6 126c-67 -92 -176 -145 -310 -145c-224 0 -362 123 -362 348v677h232v-627c0 -152 92 -210 199 -210c127 0 235 72 236 259v578z" />
    <glyph glyph-name="udieresis" unicode="&#xfc;" horiz-adv-x="1202" 
d="M402 1198c-78 0 -142 64 -142 141c0 78 64 141 142 141c76 0 141 -63 141 -141c0 -77 -65 -141 -141 -141zM805 1198c-78 0 -143 64 -143 141c0 78 65 141 143 141c75 0 140 -63 140 -141c0 -77 -65 -141 -140 -141zM809 1006h230v-1006h-219l-6 126
c-67 -92 -176 -145 -310 -145c-224 0 -362 123 -362 348v677h232v-627c0 -152 92 -210 199 -210c127 0 235 72 236 259v578z" />
    <glyph glyph-name="uni01D8" unicode="&#x1d8;" horiz-adv-x="1202" 
d="M899 1878l-225 -264h-149l257 348zM402 1198c-78 0 -142 64 -142 141c0 78 64 141 142 141c76 0 141 -63 141 -141c0 -77 -65 -141 -141 -141zM662 1339c0 78 65 141 143 141c75 0 140 -63 140 -141c0 -77 -65 -141 -140 -141c-78 0 -143 64 -143 141zM809 1006h230
v-1006h-219l-6 126c-67 -92 -176 -145 -310 -145c-224 0 -362 123 -362 348v677h232v-627c0 -152 92 -210 199 -210c127 0 235 72 236 259v578z" />
    <glyph glyph-name="uni01DA" unicode="&#x1da;" horiz-adv-x="1202" 
d="M678 1639h-150l-220 297h148l146 -190l147 190h148zM402 1198c-78 0 -142 64 -142 141c0 78 64 141 142 141c76 0 141 -63 141 -141c0 -77 -65 -141 -141 -141zM662 1339c0 78 65 141 143 141c75 0 140 -63 140 -141c0 -77 -65 -141 -140 -141c-78 0 -143 64 -143 141z
M809 1006h230v-1006h-219l-6 126c-67 -92 -176 -145 -310 -145c-224 0 -362 123 -362 348v677h232v-627c0 -152 92 -210 199 -210c127 0 235 72 236 259v578z" />
    <glyph glyph-name="uni01DC" unicode="&#x1dc;" horiz-adv-x="1202" 
d="M677 1614h-148l-225 264l116 84zM402 1198c-78 0 -142 64 -142 141c0 78 64 141 142 141c76 0 141 -63 141 -141c0 -77 -65 -141 -141 -141zM805 1198c-78 0 -143 64 -143 141c0 78 65 141 143 141c75 0 140 -63 140 -141c0 -77 -65 -141 -140 -141zM809 1006h230v-1006
h-219l-6 126c-67 -92 -176 -145 -310 -145c-224 0 -362 123 -362 348v677h232v-627c0 -152 92 -210 199 -210c127 0 235 72 236 259v578z" />
    <glyph glyph-name="uni01D6" unicode="&#x1d6;" horiz-adv-x="1202" 
d="M931 1781v-140h-655v140h655zM402 1198c-78 0 -142 64 -142 141c0 78 64 141 142 141c76 0 141 -63 141 -141c0 -77 -65 -141 -141 -141zM805 1480c75 0 140 -63 140 -141c0 -77 -65 -141 -140 -141c-78 0 -143 64 -143 141c0 78 65 141 143 141zM809 1006h230v-1006
h-219l-6 126c-67 -92 -176 -145 -310 -145c-224 0 -362 123 -362 348v677h232v-627c0 -152 92 -210 199 -210c127 0 235 72 236 259v578z" />
    <glyph glyph-name="uni1EE5" unicode="&#x1ee5;" horiz-adv-x="1202" 
d="M809 1006h230v-1006h-219l-6 126c-67 -92 -176 -145 -310 -145c-224 0 -362 123 -362 348v677h232v-627c0 -152 92 -210 199 -210c127 0 235 72 236 259v578zM604 -230c76 0 141 -64 141 -141c0 -79 -65 -141 -141 -141c-78 0 -142 62 -142 141c0 77 64 141 142 141z" />
    <glyph glyph-name="ugrave" unicode="&#xf9;" horiz-adv-x="1202" 
d="M677 1161h-148l-225 264l116 84zM809 1006h230v-1006h-219l-6 126c-67 -92 -176 -145 -310 -145c-224 0 -362 123 -362 348v677h232v-627c0 -152 92 -210 199 -210c127 0 235 72 236 259v578z" />
    <glyph glyph-name="uni1EE7" unicode="&#x1ee7;" horiz-adv-x="1202" 
d="M588 1402c-30 0 -59 -11 -86 -35l-59 83c40 33 91 53 153 53c117 0 191 -70 191 -172c0 -89 -55 -134 -128 -156v-80h-108v127c74 14 115 47 115 103c0 43 -27 77 -78 77zM809 1006h230v-1006h-219l-6 126c-67 -92 -176 -145 -310 -145c-224 0 -362 123 -362 348v677h232
v-627c0 -152 92 -210 199 -210c127 0 235 72 236 259v578z" />
    <glyph glyph-name="uhorn" unicode="&#x1b0;" horiz-adv-x="1202" 
d="M1200 1152h125v-137c0 -178 -81 -233 -177 -233c-33 0 -71 7 -109 21v-803h-219l-6 126c-67 -92 -176 -145 -310 -145c-224 0 -362 123 -362 348v677h232v-627c0 -152 92 -210 199 -210c127 0 235 72 236 259v578h230v-102c25 -9 48 -13 67 -13c70 0 94 43 94 146v115z
" />
    <glyph glyph-name="uni1EE9" unicode="&#x1ee9;" horiz-adv-x="1202" 
d="M899 1425l-225 -264h-149l257 348zM1200 1152h125v-137c0 -178 -81 -233 -177 -233c-33 0 -71 7 -109 21v-803h-219l-6 126c-67 -92 -176 -145 -310 -145c-224 0 -362 123 -362 348v677h232v-627c0 -152 92 -210 199 -210c127 0 235 72 236 259v578h230v-102
c25 -9 48 -13 67 -13c70 0 94 43 94 146v115z" />
    <glyph glyph-name="uni1EF1" unicode="&#x1ef1;" horiz-adv-x="1202" 
d="M1200 1152h125v-137c0 -178 -81 -233 -177 -233c-33 0 -71 7 -109 21v-803h-219l-6 126c-67 -92 -176 -145 -310 -145c-224 0 -362 123 -362 348v677h232v-627c0 -152 92 -210 199 -210c127 0 235 72 236 259v578h230v-102c25 -9 48 -13 67 -13c70 0 94 43 94 146v115z
M604 -230c76 0 141 -64 141 -141c0 -79 -65 -141 -141 -141c-78 0 -142 62 -142 141c0 77 64 141 142 141z" />
    <glyph glyph-name="uni1EEB" unicode="&#x1eeb;" horiz-adv-x="1202" 
d="M677 1161h-148l-225 264l116 84zM1200 1152h125v-137c0 -178 -81 -233 -177 -233c-33 0 -71 7 -109 21v-803h-219l-6 126c-67 -92 -176 -145 -310 -145c-224 0 -362 123 -362 348v677h232v-627c0 -152 92 -210 199 -210c127 0 235 72 236 259v578h230v-102
c25 -9 48 -13 67 -13c70 0 94 43 94 146v115z" />
    <glyph glyph-name="uni1EED" unicode="&#x1eed;" horiz-adv-x="1202" 
d="M588 1402c-30 0 -59 -11 -86 -35l-59 83c40 33 91 53 153 53c117 0 191 -70 191 -172c0 -89 -55 -134 -128 -156v-80h-108v127c74 14 115 47 115 103c0 43 -27 77 -78 77zM1200 1152h125v-137c0 -178 -81 -233 -177 -233c-33 0 -71 7 -109 21v-803h-219l-6 126
c-67 -92 -176 -145 -310 -145c-224 0 -362 123 -362 348v677h232v-627c0 -152 92 -210 199 -210c127 0 235 72 236 259v578h230v-102c25 -9 48 -13 67 -13c70 0 94 43 94 146v115z" />
    <glyph glyph-name="uni1EEF" unicode="&#x1eef;" horiz-adv-x="1202" 
d="M495 1297c-51 0 -78 -55 -78 -131h-117c0 143 73 246 191 246c76 0 133 -42 169 -100c17 -27 37 -44 71 -44c51 0 77 51 77 130h117c0 -138 -69 -245 -191 -245c-74 0 -129 35 -170 99c-20 32 -41 45 -69 45zM1200 1152h125v-137c0 -178 -81 -233 -177 -233
c-33 0 -71 7 -109 21v-803h-219l-6 126c-67 -92 -176 -145 -310 -145c-224 0 -362 123 -362 348v677h232v-627c0 -152 92 -210 199 -210c127 0 235 72 236 259v578h230v-102c25 -9 48 -13 67 -13c70 0 94 43 94 146v115z" />
    <glyph glyph-name="uhungarumlaut" unicode="&#x171;" horiz-adv-x="1202" 
d="M718 1425l-225 -264h-149l257 348zM861 1161h-148l257 348l116 -84zM809 428v578h230v-1006h-219l-6 126c-67 -92 -176 -145 -310 -145c-224 0 -362 123 -362 348v677h232v-627c0 -152 92 -210 199 -210c127 0 235 72 236 259z" />
    <glyph glyph-name="umacron" unicode="&#x16b;" horiz-adv-x="1202" 
d="M931 1328v-140h-655v140h655zM809 1006h230v-1006h-219l-6 126c-67 -92 -176 -145 -310 -145c-224 0 -362 123 -362 348v677h232v-627c0 -152 92 -210 199 -210c127 0 235 72 236 259v578z" />
    <glyph glyph-name="uogonek" unicode="&#x173;" horiz-adv-x="1202" 
d="M1039 0c-60 -57 -170 -165 -170 -224c0 -26 22 -39 68 -39c34 0 76 13 102 35v-155c-36 -14 -82 -23 -126 -23c-113 0 -184 36 -184 102c0 83 103 203 206 304h-115l-6 126c-67 -92 -176 -145 -310 -145c-224 0 -362 123 -362 348v677h232v-627c0 -152 92 -210 199 -210
c127 0 235 72 236 259v578h230v-1006z" />
    <glyph glyph-name="uring" unicode="&#x16f;" horiz-adv-x="1202" 
d="M603 1129c-125 0 -226 102 -226 225s101 223 226 223c122 0 222 -100 222 -223s-100 -225 -222 -225zM603 1478c-69 0 -121 -57 -121 -124c0 -72 52 -122 121 -122c67 0 121 50 121 122c0 67 -54 124 -121 124zM809 1006h230v-1006h-219l-6 126
c-67 -92 -176 -145 -310 -145c-224 0 -362 123 -362 348v677h232v-627c0 -152 92 -210 199 -210c127 0 235 72 236 259v578z" />
    <glyph glyph-name="utilde" unicode="&#x169;" horiz-adv-x="1202" 
d="M495 1297c-51 0 -78 -55 -78 -131h-117c0 143 73 246 191 246c76 0 133 -42 169 -100c17 -27 37 -44 71 -44c51 0 77 51 77 130h117c0 -138 -69 -245 -191 -245c-74 0 -129 35 -170 99c-20 32 -41 45 -69 45zM809 1006h230v-1006h-219l-6 126
c-67 -92 -176 -145 -310 -145c-224 0 -362 123 -362 348v677h232v-627c0 -152 92 -210 199 -210c127 0 235 72 236 259v578z" />
    <glyph glyph-name="v" unicode="v" horiz-adv-x="1064" 
d="M804 1006h245l-419 -1006h-199l-416 1006h244l271 -742z" />
    <glyph glyph-name="w" unicode="w" horiz-adv-x="1674" 
d="M1410 1006h240l-350 -1007h-211l-253 719l-253 -719h-214l-343 1007h238l228 -712l254 712h178l254 -711z" />
    <glyph glyph-name="wacute" unicode="&#x1e83;" horiz-adv-x="1674" 
d="M1142 1425l-225 -264h-149l257 348zM1410 1006h240l-350 -1007h-211l-253 719l-253 -719h-214l-343 1007h238l228 -712l254 712h178l254 -711z" />
    <glyph glyph-name="wcircumflex" unicode="&#x175;" horiz-adv-x="1674" 
d="M845 1375l-146 -189h-148l219 297h151l219 -297h-148zM1410 1006h240l-350 -1007h-211l-253 719l-253 -719h-214l-343 1007h238l228 -712l254 712h178l254 -711z" />
    <glyph glyph-name="wdieresis" unicode="&#x1e85;" horiz-adv-x="1674" 
d="M645 1198c-78 0 -142 64 -142 141c0 78 64 141 142 141c76 0 141 -63 141 -141c0 -77 -65 -141 -141 -141zM1048 1198c-78 0 -143 64 -143 141c0 78 65 141 143 141c75 0 140 -63 140 -141c0 -77 -65 -141 -140 -141zM1410 1006h240l-350 -1007h-211l-253 719l-253 -719
h-214l-343 1007h238l228 -712l254 712h178l254 -711z" />
    <glyph glyph-name="wgrave" unicode="&#x1e81;" horiz-adv-x="1674" 
d="M920 1161h-148l-225 264l116 84zM1410 1006h240l-350 -1007h-211l-253 719l-253 -719h-214l-343 1007h238l228 -712l254 712h178l254 -711z" />
    <glyph glyph-name="x" unicode="x" horiz-adv-x="1124" 
d="M23 0l400 504l-400 502h286l254 -351l255 351h284l-402 -503l402 -503h-285l-253 348l-255 -348h-286z" />
    <glyph glyph-name="y" unicode="y" horiz-adv-x="1059" 
d="M802 1006h239l-602 -1479h-235l216 506l-403 973h253l261 -720z" />
    <glyph glyph-name="yacute" unicode="&#xfd;" horiz-adv-x="1059" 
d="M826 1425l-225 -264h-149l257 348zM802 1006h239l-602 -1479h-235l216 506l-403 973h253l261 -720z" />
    <glyph glyph-name="ycircumflex" unicode="&#x177;" horiz-adv-x="1059" 
d="M529 1375l-146 -189h-148l219 297h151l219 -297h-148zM802 1006h239l-602 -1479h-235l216 506l-403 973h253l261 -720z" />
    <glyph glyph-name="ydieresis" unicode="&#xff;" horiz-adv-x="1059" 
d="M329 1198c-78 0 -142 64 -142 141c0 78 64 141 142 141c76 0 141 -63 141 -141c0 -77 -65 -141 -141 -141zM732 1198c-78 0 -143 64 -143 141c0 78 65 141 143 141c75 0 140 -63 140 -141c0 -77 -65 -141 -140 -141zM802 1006h239l-602 -1479h-235l216 506l-403 973h253
l261 -720z" />
    <glyph glyph-name="uni1EF5" unicode="&#x1ef5;" horiz-adv-x="1059" 
d="M802 1006h239l-602 -1479h-235l216 506l-403 973h253l261 -720zM885 -230c76 0 141 -64 141 -141c0 -79 -65 -141 -141 -141c-78 0 -142 62 -142 141c0 77 64 141 142 141z" />
    <glyph glyph-name="ygrave" unicode="&#x1ef3;" horiz-adv-x="1059" 
d="M604 1161h-148l-225 264l116 84zM802 1006h239l-602 -1479h-235l216 506l-403 973h253l261 -720z" />
    <glyph glyph-name="uni1EF7" unicode="&#x1ef7;" horiz-adv-x="1059" 
d="M515 1402c-30 0 -59 -11 -86 -35l-59 83c40 33 91 53 153 53c117 0 191 -70 191 -172c0 -89 -55 -134 -128 -156v-80h-108v127c74 14 115 47 115 103c0 43 -27 77 -78 77zM802 1006h239l-602 -1479h-235l216 506l-403 973h253l261 -720z" />
    <glyph glyph-name="uni1EF9" unicode="&#x1ef9;" horiz-adv-x="1059" 
d="M422 1297c-51 0 -78 -55 -78 -131h-117c0 143 73 246 191 246c76 0 133 -42 169 -100c17 -27 37 -44 71 -44c51 0 77 51 77 130h117c0 -138 -69 -245 -191 -245c-74 0 -129 35 -170 99c-20 32 -41 45 -69 45zM802 1006h239l-602 -1479h-235l216 506l-403 973h253
l261 -720z" />
    <glyph glyph-name="z" unicode="z" horiz-adv-x="924" 
d="M867 1006l-487 -825h480v-181h-815l484 824h-451v182h789z" />
    <glyph glyph-name="zacute" unicode="&#x17a;" horiz-adv-x="924" 
d="M771 1425l-225 -264h-149l257 348zM867 1006l-487 -825h480v-181h-815l484 824h-451v182h789z" />
    <glyph glyph-name="zcaron" unicode="&#x17e;" horiz-adv-x="924" 
d="M550 1186h-150l-220 297h148l146 -190l147 190h148zM867 1006l-487 -825h480v-181h-815l484 824h-451v182h789z" />
    <glyph glyph-name="zdotaccent" unicode="&#x17c;" horiz-adv-x="924" 
d="M476 1198c-78 0 -142 64 -142 141c0 78 64 141 142 141c76 0 141 -63 141 -141c0 -77 -65 -141 -141 -141zM867 1006l-487 -825h480v-181h-815l484 824h-451v182h789z" />
    <glyph glyph-name="g.ss01" horiz-adv-x="1118" 
d="M1062 1006v-165h-146c34 -55 54 -121 54 -196c0 -230 -187 -344 -415 -344c-81 0 -155 14 -218 41c-17 -24 -26 -47 -26 -71c0 -100 143 -110 318 -131c226 -26 431 -66 431 -288s-204 -332 -481 -332c-292 0 -467 121 -467 275c0 73 36 154 119 234
c-73 37 -123 96 -123 193c0 80 32 151 99 208c-55 59 -87 137 -87 229c0 229 192 367 420 367c52 0 101 -7 146 -20h376zM548 468c130 0 206 78 206 192c0 116 -77 197 -205 197c-129 0 -208 -81 -208 -198c0 -113 77 -191 207 -191zM838 -181c0 110 -131 121 -320 143
c-47 5 -96 12 -143 21c-42 -53 -62 -102 -62 -145c0 -98 109 -159 288 -159c127 0 237 36 237 140z" />
    <glyph glyph-name="gbreve.ss01" horiz-adv-x="1118" 
d="M558 1149c-205 0 -352 120 -352 334h147c0 -129 78 -221 205 -221c129 0 206 92 206 221h147c0 -214 -147 -334 -353 -334zM1062 1006v-165h-146c34 -55 54 -121 54 -196c0 -230 -187 -344 -415 -344c-81 0 -155 14 -218 41c-17 -24 -26 -47 -26 -71
c0 -100 143 -110 318 -131c226 -26 431 -66 431 -288s-204 -332 -481 -332c-292 0 -467 121 -467 275c0 73 36 154 119 234c-73 37 -123 96 -123 193c0 80 32 151 99 208c-55 59 -87 137 -87 229c0 229 192 367 420 367c52 0 101 -7 146 -20h376zM548 468
c130 0 206 78 206 192c0 116 -77 197 -205 197c-129 0 -208 -81 -208 -198c0 -113 77 -191 207 -191zM838 -181c0 110 -131 121 -320 143c-47 5 -96 12 -143 21c-42 -53 -62 -102 -62 -145c0 -98 109 -159 288 -159c127 0 237 36 237 140z" />
    <glyph glyph-name="gcommaaccent.ss01" horiz-adv-x="1118" 
d="M745 1478l-124 -316h-238l196 316h166zM1062 1006v-165h-146c34 -55 54 -121 54 -196c0 -230 -187 -344 -415 -344c-81 0 -155 14 -218 41c-17 -24 -26 -47 -26 -71c0 -100 143 -110 318 -131c226 -26 431 -66 431 -288s-204 -332 -481 -332c-292 0 -467 121 -467 275
c0 73 36 154 119 234c-73 37 -123 96 -123 193c0 80 32 151 99 208c-55 59 -87 137 -87 229c0 229 192 367 420 367c52 0 101 -7 146 -20h376zM548 468c130 0 206 78 206 192c0 116 -77 197 -205 197c-129 0 -208 -81 -208 -198c0 -113 77 -191 207 -191zM838 -181
c0 110 -131 121 -320 143c-47 5 -96 12 -143 21c-42 -53 -62 -102 -62 -145c0 -98 109 -159 288 -159c127 0 237 36 237 140z" />
    <glyph glyph-name="gdotaccent.ss01" horiz-adv-x="1118" 
d="M560 1198c-78 0 -142 64 -142 141c0 78 64 141 142 141c76 0 141 -63 141 -141c0 -77 -65 -141 -141 -141zM1062 1006v-165h-146c34 -55 54 -121 54 -196c0 -230 -187 -344 -415 -344c-81 0 -155 14 -218 41c-17 -24 -26 -47 -26 -71c0 -100 143 -110 318 -131
c226 -26 431 -66 431 -288s-204 -332 -481 -332c-292 0 -467 121 -467 275c0 73 36 154 119 234c-73 37 -123 96 -123 193c0 80 32 151 99 208c-55 59 -87 137 -87 229c0 229 192 367 420 367c52 0 101 -7 146 -20h376zM548 468c130 0 206 78 206 192
c0 116 -77 197 -205 197c-129 0 -208 -81 -208 -198c0 -113 77 -191 207 -191zM838 -181c0 110 -131 121 -320 143c-47 5 -96 12 -143 21c-42 -53 -62 -102 -62 -145c0 -98 109 -159 288 -159c127 0 237 36 237 140z" />
    <glyph glyph-name="a.ss02" horiz-adv-x="1283" 
d="M900 1006h220v-1006h-220l-6 160c-60 -114 -188 -183 -335 -183c-261 0 -477 201 -477 525c0 322 217 523 477 523c152 0 284 -72 341 -193v174zM610 172c167 0 297 136 297 330c0 193 -131 329 -297 329s-298 -128 -298 -329c0 -202 132 -330 298 -330z" />
    <glyph glyph-name="aacute.ss02" horiz-adv-x="1283" 
d="M938 1425l-225 -264h-149l257 348zM900 1006h220v-1006h-220l-6 160c-60 -114 -188 -183 -335 -183c-261 0 -477 201 -477 525c0 322 217 523 477 523c152 0 284 -72 341 -193v174zM610 172c167 0 297 136 297 330c0 193 -131 329 -297 329s-298 -128 -298 -329
c0 -202 132 -330 298 -330z" />
    <glyph glyph-name="abreve.ss02" horiz-adv-x="1283" 
d="M641 1149c-205 0 -352 120 -352 334h147c0 -129 78 -221 205 -221c129 0 206 92 206 221h147c0 -214 -147 -334 -353 -334zM900 1006h220v-1006h-220l-6 160c-60 -114 -188 -183 -335 -183c-261 0 -477 201 -477 525c0 322 217 523 477 523c152 0 284 -72 341 -193v174z
M610 172c167 0 297 136 297 330c0 193 -131 329 -297 329s-298 -128 -298 -329c0 -202 132 -330 298 -330z" />
    <glyph glyph-name="uni1EAF.ss02" horiz-adv-x="1283" 
d="M938 1902l-225 -264h-149l257 348zM641 1149c-205 0 -352 120 -352 334h147c0 -129 78 -221 205 -221c129 0 206 92 206 221h147c0 -214 -147 -334 -353 -334zM900 1006h220v-1006h-220l-6 160c-60 -114 -188 -183 -335 -183c-261 0 -477 201 -477 525
c0 322 217 523 477 523c152 0 284 -72 341 -193v174zM610 172c167 0 297 136 297 330c0 193 -131 329 -297 329s-298 -128 -298 -329c0 -202 132 -330 298 -330z" />
    <glyph glyph-name="uni1EB7.ss02" horiz-adv-x="1283" 
d="M641 1149c-205 0 -352 120 -352 334h147c0 -129 78 -221 205 -221c129 0 206 92 206 221h147c0 -214 -147 -334 -353 -334zM900 1006h220v-1006h-220l-6 160c-60 -114 -188 -183 -335 -183c-261 0 -477 201 -477 525c0 322 217 523 477 523c152 0 284 -72 341 -193v174z
M610 172c167 0 297 136 297 330c0 193 -131 329 -297 329s-298 -128 -298 -329c0 -202 132 -330 298 -330zM643 -230c76 0 141 -64 141 -141c0 -79 -65 -141 -141 -141c-78 0 -142 62 -142 141c0 77 64 141 142 141z" />
    <glyph glyph-name="uni1EB1.ss02" horiz-adv-x="1283" 
d="M716 1638h-148l-225 264l116 84zM641 1149c-205 0 -352 120 -352 334h147c0 -129 78 -221 205 -221c129 0 206 92 206 221h147c0 -214 -147 -334 -353 -334zM900 1006h220v-1006h-220l-6 160c-60 -114 -188 -183 -335 -183c-261 0 -477 201 -477 525
c0 322 217 523 477 523c152 0 284 -72 341 -193v174zM610 172c167 0 297 136 297 330c0 193 -131 329 -297 329s-298 -128 -298 -329c0 -202 132 -330 298 -330z" />
    <glyph glyph-name="uni1EB3.ss02" horiz-adv-x="1283" 
d="M627 1879c-30 0 -59 -11 -86 -35l-59 83c40 33 91 53 153 53c117 0 191 -70 191 -172c0 -89 -55 -134 -128 -156v-80h-108v127c74 14 115 47 115 103c0 43 -27 77 -78 77zM641 1149c-205 0 -352 120 -352 334h147c0 -129 78 -221 205 -221c129 0 206 92 206 221h147
c0 -214 -147 -334 -353 -334zM900 1006h220v-1006h-220l-6 160c-60 -114 -188 -183 -335 -183c-261 0 -477 201 -477 525c0 322 217 523 477 523c152 0 284 -72 341 -193v174zM610 172c167 0 297 136 297 330c0 193 -131 329 -297 329s-298 -128 -298 -329
c0 -202 132 -330 298 -330z" />
    <glyph glyph-name="uni1EB5.ss02" horiz-adv-x="1283" 
d="M534 1774c-51 0 -78 -55 -78 -131h-117c0 143 73 246 191 246c76 0 133 -42 169 -100c17 -27 37 -44 71 -44c51 0 77 51 77 130h117c0 -138 -69 -245 -191 -245c-74 0 -129 35 -170 99c-20 32 -41 45 -69 45zM641 1149c-205 0 -352 120 -352 334h147
c0 -129 78 -221 205 -221c129 0 206 92 206 221h147c0 -214 -147 -334 -353 -334zM900 1006h220v-1006h-220l-6 160c-60 -114 -188 -183 -335 -183c-261 0 -477 201 -477 525c0 322 217 523 477 523c152 0 284 -72 341 -193v174zM610 172c167 0 297 136 297 330
c0 193 -131 329 -297 329s-298 -128 -298 -329c0 -202 132 -330 298 -330z" />
    <glyph glyph-name="uni01CE.ss02" horiz-adv-x="1283" 
d="M717 1186h-150l-220 297h148l146 -190l147 190h148zM900 1006h220v-1006h-220l-6 160c-60 -114 -188 -183 -335 -183c-261 0 -477 201 -477 525c0 322 217 523 477 523c152 0 284 -72 341 -193v174zM610 172c167 0 297 136 297 330c0 193 -131 329 -297 329
s-298 -128 -298 -329c0 -202 132 -330 298 -330z" />
    <glyph glyph-name="acircumflex.ss02" horiz-adv-x="1283" 
d="M641 1375l-146 -189h-148l219 297h151l219 -297h-148zM900 1006h220v-1006h-220l-6 160c-60 -114 -188 -183 -335 -183c-261 0 -477 201 -477 525c0 322 217 523 477 523c152 0 284 -72 341 -193v174zM610 172c167 0 297 136 297 330c0 193 -131 329 -297 329
s-298 -128 -298 -329c0 -202 132 -330 298 -330z" />
    <glyph glyph-name="uni1EA5.ss02" horiz-adv-x="1283" 
d="M937 1902l-225 -264h-149l257 348zM641 1375l-146 -189h-148l219 297h151l219 -297h-148zM900 1006h220v-1006h-220l-6 160c-60 -114 -188 -183 -335 -183c-261 0 -477 201 -477 525c0 322 217 523 477 523c152 0 284 -72 341 -193v174zM610 172c167 0 297 136 297 330
c0 193 -131 329 -297 329s-298 -128 -298 -329c0 -202 132 -330 298 -330z" />
    <glyph glyph-name="uni1EAD.ss02" horiz-adv-x="1283" 
d="M641 1375l-146 -189h-148l219 297h151l219 -297h-148zM900 1006h220v-1006h-220l-6 160c-60 -114 -188 -183 -335 -183c-261 0 -477 201 -477 525c0 322 217 523 477 523c152 0 284 -72 341 -193v174zM610 172c167 0 297 136 297 330c0 193 -131 329 -297 329
s-298 -128 -298 -329c0 -202 132 -330 298 -330zM643 -230c76 0 141 -64 141 -141c0 -79 -65 -141 -141 -141c-78 0 -142 62 -142 141c0 77 64 141 142 141z" />
    <glyph glyph-name="uni1EA7.ss02" horiz-adv-x="1283" 
d="M715 1638h-148l-225 264l116 84zM347 1186l219 297h151l219 -297h-148l-147 189l-146 -189h-148zM900 1006h220v-1006h-220l-6 160c-60 -114 -188 -183 -335 -183c-261 0 -477 201 -477 525c0 322 217 523 477 523c152 0 284 -72 341 -193v174zM610 172
c167 0 297 136 297 330c0 193 -131 329 -297 329s-298 -128 -298 -329c0 -202 132 -330 298 -330z" />
    <glyph glyph-name="uni1EA9.ss02" horiz-adv-x="1283" 
d="M626 1879c-30 0 -59 -11 -86 -35l-59 83c40 33 91 53 153 53c117 0 191 -70 191 -172c0 -89 -55 -134 -128 -156v-80h-108v127c74 14 115 47 115 103c0 43 -27 77 -78 77zM641 1375l-146 -189h-148l219 297h151l219 -297h-148zM900 1006h220v-1006h-220l-6 160
c-60 -114 -188 -183 -335 -183c-261 0 -477 201 -477 525c0 322 217 523 477 523c152 0 284 -72 341 -193v174zM610 172c167 0 297 136 297 330c0 193 -131 329 -297 329s-298 -128 -298 -329c0 -202 132 -330 298 -330z" />
    <glyph glyph-name="uni1EAB.ss02" horiz-adv-x="1283" 
d="M533 1774c-51 0 -78 -55 -78 -131h-117c0 143 73 246 191 246c76 0 133 -42 169 -100c17 -27 37 -44 71 -44c51 0 77 51 77 130h117c0 -138 -69 -245 -191 -245c-74 0 -129 35 -170 99c-20 32 -41 45 -69 45zM566 1483h151l219 -297h-148l-147 189l-146 -189h-148z
M900 1006h220v-1006h-220l-6 160c-60 -114 -188 -183 -335 -183c-261 0 -477 201 -477 525c0 322 217 523 477 523c152 0 284 -72 341 -193v174zM610 172c167 0 297 136 297 330c0 193 -131 329 -297 329s-298 -128 -298 -329c0 -202 132 -330 298 -330z" />
    <glyph glyph-name="adieresis.ss02" horiz-adv-x="1283" 
d="M441 1198c-78 0 -142 64 -142 141c0 78 64 141 142 141c76 0 141 -63 141 -141c0 -77 -65 -141 -141 -141zM844 1198c-78 0 -143 64 -143 141c0 78 65 141 143 141c75 0 140 -63 140 -141c0 -77 -65 -141 -140 -141zM900 1006h220v-1006h-220l-6 160
c-60 -114 -188 -183 -335 -183c-261 0 -477 201 -477 525c0 322 217 523 477 523c152 0 284 -72 341 -193v174zM610 172c167 0 297 136 297 330c0 193 -131 329 -297 329s-298 -128 -298 -329c0 -202 132 -330 298 -330z" />
    <glyph glyph-name="uni1EA1.ss02" horiz-adv-x="1283" 
d="M900 1006h220v-1006h-220l-6 160c-60 -114 -188 -183 -335 -183c-261 0 -477 201 -477 525c0 322 217 523 477 523c152 0 284 -72 341 -193v174zM610 172c167 0 297 136 297 330c0 193 -131 329 -297 329s-298 -128 -298 -329c0 -202 132 -330 298 -330zM643 -230
c76 0 141 -64 141 -141c0 -79 -65 -141 -141 -141c-78 0 -142 62 -142 141c0 77 64 141 142 141z" />
    <glyph glyph-name="agrave.ss02" horiz-adv-x="1283" 
d="M716 1161h-148l-225 264l116 84zM900 1006h220v-1006h-220l-6 160c-60 -114 -188 -183 -335 -183c-261 0 -477 201 -477 525c0 322 217 523 477 523c152 0 284 -72 341 -193v174zM610 172c167 0 297 136 297 330c0 193 -131 329 -297 329s-298 -128 -298 -329
c0 -202 132 -330 298 -330z" />
    <glyph glyph-name="uni1EA3.ss02" horiz-adv-x="1283" 
d="M627 1402c-30 0 -59 -11 -86 -35l-59 83c40 33 91 53 153 53c117 0 191 -70 191 -172c0 -89 -55 -134 -128 -156v-80h-108v127c74 14 115 47 115 103c0 43 -27 77 -78 77zM900 1006h220v-1006h-220l-6 160c-60 -114 -188 -183 -335 -183c-261 0 -477 201 -477 525
c0 322 217 523 477 523c152 0 284 -72 341 -193v174zM610 172c167 0 297 136 297 330c0 193 -131 329 -297 329s-298 -128 -298 -329c0 -202 132 -330 298 -330z" />
    <glyph glyph-name="amacron.ss02" horiz-adv-x="1283" 
d="M970 1328v-140h-655v140h655zM900 1006h220v-1006h-220l-6 160c-60 -114 -188 -183 -335 -183c-261 0 -477 201 -477 525c0 322 217 523 477 523c152 0 284 -72 341 -193v174zM610 172c167 0 297 136 297 330c0 193 -131 329 -297 329s-298 -128 -298 -329
c0 -202 132 -330 298 -330z" />
    <glyph glyph-name="aogonek.ss02" horiz-adv-x="1283" 
d="M1120 0c-60 -57 -170 -165 -170 -224c0 -26 22 -39 68 -39c34 0 76 13 102 35v-155c-36 -14 -82 -23 -126 -23c-113 0 -184 36 -184 102c0 83 103 203 206 304h-116l-6 160c-60 -114 -188 -183 -335 -183c-261 0 -477 201 -477 525c0 322 217 523 477 523
c152 0 284 -72 341 -193v174h220v-1006zM610 172c167 0 297 136 297 330c0 193 -131 329 -297 329s-298 -128 -298 -329c0 -202 132 -330 298 -330z" />
    <glyph glyph-name="aring.ss02" horiz-adv-x="1283" 
d="M642 1129c-125 0 -226 102 -226 225s101 223 226 223c122 0 222 -100 222 -223s-100 -225 -222 -225zM642 1478c-69 0 -121 -57 -121 -124c0 -72 52 -122 121 -122c67 0 121 50 121 122c0 67 -54 124 -121 124zM900 1006h220v-1006h-220l-6 160
c-60 -114 -188 -183 -335 -183c-261 0 -477 201 -477 525c0 322 217 523 477 523c152 0 284 -72 341 -193v174zM610 172c167 0 297 136 297 330c0 193 -131 329 -297 329s-298 -128 -298 -329c0 -202 132 -330 298 -330z" />
    <glyph glyph-name="atilde.ss02" horiz-adv-x="1283" 
d="M534 1297c-51 0 -78 -55 -78 -131h-117c0 143 73 246 191 246c76 0 133 -42 169 -100c17 -27 37 -44 71 -44c51 0 77 51 77 130h117c0 -138 -69 -245 -191 -245c-74 0 -129 35 -170 99c-20 32 -41 45 -69 45zM900 1006h220v-1006h-220l-6 160
c-60 -114 -188 -183 -335 -183c-261 0 -477 201 -477 525c0 322 217 523 477 523c152 0 284 -72 341 -193v174zM610 172c167 0 297 136 297 330c0 193 -131 329 -297 329s-298 -128 -298 -329c0 -202 132 -330 298 -330z" />
    <glyph glyph-name="f_t" horiz-adv-x="1355" 
d="M224 0v826h-195v180h195v158c0 325 190 372 454 372v-187c-104 0 -224 3 -224 -187v-156h248c109 0 163 47 163 152v177h197v-329h219v-180h-219v-508c0 -94 51 -140 128 -140h88v-178h-161c-180 0 -288 106 -288 294v532h-375v-826h-230z" />
    <glyph glyph-name="t_t" horiz-adv-x="1395" 
d="M511 0c-180 0 -288 106 -288 294v532h-201v180h79c96 0 143 47 143 132v146h212v-278h292c95 0 142 47 142 132v146h212v-278h219v-180h-219v-508c0 -94 51 -140 128 -140h88v-178h-161c-180 0 -288 106 -288 294v532h-413v-508c0 -94 51 -140 128 -140h88v-178h-161z
" />
    <glyph glyph-name="ordfeminine" unicode="&#xaa;" horiz-adv-x="957" 
d="M643 1426h137v-614h-137v103c-51 -71 -131 -115 -227 -115c-170 0 -307 141 -307 319c0 177 137 320 307 320c96 0 176 -45 227 -116v103zM443 920c110 0 200 89 200 199s-90 198 -200 198c-109 0 -198 -88 -198 -198s89 -199 198 -199z" />
    <glyph glyph-name="ordmasculine" unicode="&#xba;" horiz-adv-x="882" 
d="M439 808c-186 0 -335 141 -335 319s149 320 335 320c189 0 337 -142 337 -320s-148 -319 -337 -319zM439 928c110 0 200 89 200 199s-90 198 -200 198c-109 0 -198 -88 -198 -198s89 -199 198 -199z" />
    <glyph glyph-name="uni0394" unicode="&#x394;" horiz-adv-x="1567" 
d="M908 1536l617 -1536h-1483l616 1536h250zM367 215h832l-415 1072z" />
    <glyph glyph-name="uni03A9" unicode="&#x3a9;" horiz-adv-x="1804" 
d="M114 0v199h326v3c-134 108 -283 341 -283 623c0 407 305 722 750 722c478 0 741 -364 741 -719c0 -273 -140 -509 -292 -628v-1h334v-199h-647v157c183 99 346 313 346 635c0 300 -171 554 -480 554c-285 0 -493 -220 -493 -556c0 -317 168 -544 346 -633v-157h-648z" />
    <glyph glyph-name="uni03BC" unicode="&#x3bc;" horiz-adv-x="1221" 
d="M830 990h231v-990h-231v122c-71 -87 -175 -140 -291 -140c-77 0 -149 23 -209 64v-500h-170v1444h231v-590c0 -120 94 -217 213 -217c126 0 226 97 226 217v590z" />
    <glyph glyph-name="pi" unicode="&#x3c0;" horiz-adv-x="1282" 
d="M144 0c73 200 137 559 143 793c-117 0 -183 -8 -233 -26l-24 140c52 34 153 58 328 58h894l-18 -172h-165v-503c0 -142 11 -230 29 -290h-211c-25 38 -34 140 -34 273v520h-353c-12 -223 -70 -622 -145 -793h-211z" />
    <glyph glyph-name="zero" unicode="0" horiz-adv-x="1188" 
d="M595 -19c-314 0 -497 243 -497 733c0 489 180 732 497 732c315 0 496 -243 496 -732c0 -490 -184 -733 -496 -733zM595 190c166 0 265 164 265 524c0 365 -103 522 -265 522c-164 0 -265 -157 -265 -522c0 -360 97 -524 265 -524z" />
    <glyph glyph-name="one" unicode="1" horiz-adv-x="1188" 
d="M580 1426h218v-1426h-230v1184l-335 -301v240z" />
    <glyph glyph-name="two" unicode="2" horiz-adv-x="1188" 
d="M426 208h658v-208h-984v174l570 585c111 114 143 200 143 280c0 140 -90 218 -226 218c-135 0 -235 -71 -235 -266v-105l-229 22v80c0 302 186 460 463 460c260 0 454 -149 454 -408c0 -150 -65 -263 -195 -398z" />
    <glyph glyph-name="three" unicode="3" horiz-adv-x="1188" 
d="M588 -19c-342 0 -494 178 -494 518l236 11c0 -209 49 -326 258 -326c167 0 266 101 266 243c0 157 -106 241 -246 241h-63v185h60c108 0 193 86 193 203c0 116 -91 188 -214 188c-169 0 -206 -120 -206 -260l-234 10c0 294 163 452 438 452c249 0 432 -162 432 -372
c0 -151 -96 -257 -190 -297c137 -39 265 -152 265 -360c0 -264 -205 -436 -501 -436z" />
    <glyph glyph-name="four" unicode="4" horiz-adv-x="1188" 
d="M1141 486v-207h-196v-279h-230v279h-670v208l549 939h351v-940h196zM269 486h446v792z" />
    <glyph glyph-name="five" unicode="5" horiz-adv-x="1188" 
d="M563 922c365 0 534 -168 534 -453c0 -293 -198 -488 -491 -488c-263 0 -492 159 -492 447c0 23 2 46 5 72l231 14c-4 -27 -7 -50 -7 -72c0 -178 130 -248 258 -248c167 0 264 110 264 267c0 156 -87 265 -335 265h-367l74 699h795v-208h-594l-31 -295h156z" />
    <glyph glyph-name="six" unicode="6" horiz-adv-x="1188" 
d="M1103 477c3 -293 -234 -494 -510 -494c-287 0 -511 203 -511 488c0 117 40 229 125 345l461 610h265l-382 -489c30 6 61 9 93 9c238 0 456 -179 459 -469zM587 193c168 0 292 114 291 289c-1 177 -122 292 -291 292c-170 0 -288 -130 -288 -294c0 -178 117 -287 288 -287
z" />
    <glyph glyph-name="seven" unicode="7" horiz-adv-x="1188" 
d="M104 1426h991v-183l-671 -1243h-262l674 1219h-732v207z" />
    <glyph glyph-name="eight" unicode="8" horiz-adv-x="1188" 
d="M596 -19c-284 0 -502 165 -502 434c0 177 97 307 246 371c-107 61 -176 164 -176 291c0 218 182 369 432 369c245 0 428 -151 428 -369c0 -127 -69 -230 -172 -291c146 -64 245 -194 245 -371c0 -269 -218 -434 -501 -434zM596 857c120 0 217 90 217 207
c0 115 -97 203 -217 203c-123 0 -218 -88 -218 -203c0 -117 95 -207 218 -207zM596 189c150 0 269 97 269 253c0 154 -119 249 -269 249c-153 0 -271 -95 -271 -249c0 -156 118 -253 271 -253z" />
    <glyph glyph-name="nine" unicode="9" horiz-adv-x="1188" 
d="M594 1444c286 0 511 -204 511 -489c0 -115 -40 -229 -126 -345l-461 -610h-267l380 489c-29 -6 -59 -9 -90 -9c-236 0 -454 180 -457 469c-3 294 232 495 510 495zM600 652c170 0 287 130 287 294c0 177 -117 288 -287 288c-167 0 -293 -115 -292 -290
c1 -176 123 -292 292 -292z" />
    <glyph glyph-name="zero.subs" horiz-adv-x="796" 
d="M397 -381c-198 0 -337 196 -337 473c0 278 139 473 337 473c200 0 339 -195 339 -473c0 -277 -139 -473 -339 -473zM398 -240c110 0 193 134 193 332c0 199 -83 332 -193 332c-109 0 -192 -133 -192 -332c0 -198 83 -332 192 -332z" />
    <glyph glyph-name="one.subs" horiz-adv-x="480" 
d="M217 553h133v-922h-142v783l-206 -160v140z" />
    <glyph glyph-name="two.subs" horiz-adv-x="719" 
d="M186 -254h480v-115h-629v136c408 308 467 413 467 513c0 124 -75 167 -152 165c-101 -4 -149 -77 -149 -169h-149c-1 171 130 291 306 291c164 0 280 -107 283 -270c3 -168 -118 -325 -457 -551z" />
    <glyph glyph-name="three.subs" horiz-adv-x="698" 
d="M497 139c89 -44 145 -125 145 -230c0 -160 -130 -290 -306 -290c-167 0 -300 116 -300 270h140c3 -92 77 -148 164 -148c95 0 161 64 161 164c0 97 -65 160 -167 160h-64v112h55c84 0 138 53 138 138c0 84 -54 132 -130 132c-72 0 -130 -44 -133 -136l-138 1
c0 151 117 253 269 253c149 0 260 -102 260 -243c0 -79 -35 -143 -94 -183z" />
    <glyph glyph-name="four.subs" horiz-adv-x="727" 
d="M676 -63v-111h-99v-195h-139v195h-430v119l383 608h186v-616h99zM134 -63h304v500z" />
    <glyph glyph-name="five.subs" horiz-adv-x="765" 
d="M376 227c235 0 330 -123 330 -297c0 -189 -140 -309 -322 -309c-165 0 -311 86 -326 269h146c14 -106 96 -148 176 -148c110 0 181 76 181 184c0 117 -62 185 -209 185h-270l89 443h498v-122h-395l-40 -205h142z" />
    <glyph glyph-name="six.subs" horiz-adv-x="713" 
d="M685 -51c5 -196 -153 -324 -326 -328s-333 116 -337 309c-3 83 29 154 76 213l313 410h171l-250 -307c13 3 28 6 46 6c157 2 302 -134 307 -303zM359 -245c104 4 192 85 187 195c-5 112 -97 185 -199 181c-105 -4 -189 -83 -185 -197c4 -112 95 -183 197 -179z" />
    <glyph glyph-name="seven.subs" horiz-adv-x="640" 
d="M22 553h624v-101l-450 -821h-166l443 789h-451v133z" />
    <glyph glyph-name="eight.subs" horiz-adv-x="732" 
d="M534 141c86 -48 141 -134 141 -238c0 -159 -132 -284 -309 -284s-310 125 -310 284c0 104 55 190 142 238c-58 42 -87 109 -87 188c0 133 107 236 256 236c145 0 254 -103 254 -236c0 -80 -29 -146 -87 -188zM367 447c-76 0 -133 -56 -133 -132c0 -73 57 -131 133 -131
c73 0 130 58 130 131c0 76 -57 132 -130 132zM366 -255c94 0 166 77 166 173c0 94 -72 167 -166 167c-96 0 -167 -73 -167 -167c0 -96 71 -173 167 -173z" />
    <glyph glyph-name="nine.subs" horiz-adv-x="714" 
d="M691 254c2 -83 -31 -154 -76 -213l-312 -410h-172l251 308c-13 -4 -29 -7 -48 -7c-155 -2 -302 135 -307 304c-5 194 153 323 326 327s334 -116 338 -309zM367 53c104 4 188 83 184 197c-4 112 -94 183 -197 179c-104 -4 -192 -85 -187 -195c5 -113 98 -185 200 -181z
" />
    <glyph glyph-name="zero.dnom" horiz-adv-x="796" 
d="M397 -12c-198 0 -337 195 -337 473c0 277 139 473 337 473c200 0 339 -196 339 -473c0 -278 -139 -473 -339 -473zM398 129c110 0 193 133 193 332c0 198 -83 332 -193 332c-109 0 -192 -134 -192 -332c0 -199 83 -332 192 -332z" />
    <glyph glyph-name="one.dnom" horiz-adv-x="480" 
d="M217 922h133v-922h-142v783l-206 -160v140z" />
    <glyph glyph-name="two.dnom" horiz-adv-x="719" 
d="M186 115h480v-115h-629v135c408 308 467 414 467 513c0 125 -75 168 -152 166c-101 -4 -149 -78 -149 -169h-149c-1 171 130 291 306 291c164 0 280 -108 283 -270c3 -168 -118 -325 -457 -551z" />
    <glyph glyph-name="three.dnom" horiz-adv-x="698" 
d="M497 508c89 -45 145 -126 145 -230c0 -160 -130 -290 -306 -290c-167 0 -300 115 -300 270h140c3 -92 77 -148 164 -148c95 0 161 64 161 163c0 98 -65 159 -167 159h-64v114h55c84 0 138 53 138 138c0 84 -54 132 -130 132c-72 0 -130 -45 -133 -136l-138 1
c0 150 117 253 269 253c149 0 260 -103 260 -244c0 -79 -35 -142 -94 -182z" />
    <glyph glyph-name="four.dnom" horiz-adv-x="727" 
d="M676 305v-110h-99v-195h-139v195h-430v118l383 609h186v-617h99zM134 305h304v501z" />
    <glyph glyph-name="five.dnom" horiz-adv-x="765" 
d="M376 596c235 0 330 -123 330 -297c0 -189 -140 -309 -322 -309c-165 0 -311 86 -326 269h146c14 -106 96 -148 176 -148c110 0 181 75 181 184c0 117 -62 184 -209 184h-270l89 444h498v-122h-395l-40 -205h142z" />
    <glyph glyph-name="six.dnom" horiz-adv-x="713" 
d="M685 317c5 -195 -153 -323 -326 -327s-333 115 -337 309c-3 83 29 154 76 213l313 410h171l-251 -307c13 3 29 6 47 6c157 2 302 -135 307 -304zM359 124c104 4 192 85 187 194c-5 113 -97 186 -199 182c-105 -4 -189 -83 -185 -197c4 -113 95 -183 197 -179z" />
    <glyph glyph-name="seven.dnom" horiz-adv-x="640" 
d="M22 922h624v-102l-450 -820h-166l443 788h-451v134z" />
    <glyph glyph-name="eight.dnom" horiz-adv-x="732" 
d="M534 509c86 -48 141 -134 141 -238c0 -158 -132 -283 -309 -283s-310 125 -310 283c0 104 55 191 142 239c-58 41 -87 108 -87 187c0 133 107 237 256 237c145 0 254 -104 254 -237c0 -80 -29 -146 -87 -188zM367 816c-76 0 -133 -57 -133 -132c0 -74 57 -131 133 -131
c73 0 130 57 130 131c0 75 -57 132 -130 132zM366 114c94 0 166 76 166 173c0 94 -72 167 -166 167c-96 0 -167 -73 -167 -167c0 -97 71 -173 167 -173z" />
    <glyph glyph-name="nine.dnom" horiz-adv-x="714" 
d="M691 623c2 -83 -31 -154 -76 -213l-312 -410h-172l250 307c-13 -4 -29 -6 -47 -6c-155 -2 -302 134 -307 303c-5 195 153 324 326 328s334 -116 338 -309zM367 422c104 4 188 83 184 196s-94 184 -197 180c-104 -4 -192 -85 -187 -195c5 -114 98 -185 200 -181z" />
    <glyph glyph-name="zero.numr" horiz-adv-x="796" 
d="M397 501c-198 0 -337 195 -337 473c0 277 139 473 337 473c200 0 339 -196 339 -473c0 -278 -139 -473 -339 -473zM398 642c110 0 193 133 193 332c0 198 -83 331 -193 331s-192 -133 -192 -331c0 -199 82 -332 192 -332z" />
    <glyph glyph-name="one.numr" horiz-adv-x="481" 
d="M218 1426h133v-921h-143l1 783l-206 -160l-1 140z" />
    <glyph glyph-name="two.numr" horiz-adv-x="719" 
d="M186 626h480v-115h-629v135c408 308 467 414 467 513c0 125 -75 168 -152 166c-101 -4 -149 -78 -149 -169h-149c-1 171 130 291 306 291c164 0 280 -108 283 -270c3 -168 -117 -326 -457 -551z" />
    <glyph glyph-name="three.numr" horiz-adv-x="698" 
d="M495 1021c91 -45 147 -126 147 -230c0 -161 -131 -290 -305 -290c-169 0 -301 115 -301 270h147c0 -92 69 -148 155 -148c92 0 158 64 158 164c0 97 -66 158 -173 158h-53v114h44c90 0 143 53 143 139c0 81 -54 131 -125 131c-72 0 -125 -45 -125 -136l-145 1
c0 151 116 253 270 253c148 0 259 -102 259 -245c0 -78 -35 -141 -96 -181z" />
    <glyph glyph-name="four.numr" horiz-adv-x="727" 
d="M676 810v-111h-99v-194h-139v194h-430v119l383 608h186v-616h99zM134 810h304v501z" />
    <glyph glyph-name="five.numr" horiz-adv-x="765" 
d="M376 1100c235 0 330 -123 330 -297c0 -190 -140 -309 -322 -309c-165 0 -311 86 -326 269h146c14 -107 96 -149 176 -149c110 0 181 76 181 185c0 115 -62 184 -209 184h-270l89 443h498v-121h-395l-40 -205h142z" />
    <glyph glyph-name="six.numr" horiz-adv-x="713" 
d="M685 822c5 -195 -153 -323 -326 -327c-173 -5 -333 115 -337 309c-3 83 29 153 76 213l313 409h171l-251 -307c13 3 29 6 47 6c157 3 302 -134 307 -303zM359 629c104 4 192 85 187 194c-5 113 -97 186 -199 182c-105 -5 -189 -83 -185 -197c4 -113 95 -183 197 -179z
" />
    <glyph glyph-name="seven.numr" horiz-adv-x="640" 
d="M22 1426h624v-101l-450 -820h-166l443 788h-451v133z" />
    <glyph glyph-name="eight.numr" horiz-adv-x="732" 
d="M534 1022c86 -48 141 -134 141 -238c0 -158 -132 -283 -309 -283s-310 125 -310 283c0 104 55 191 142 239c-58 41 -87 108 -87 187c0 133 107 237 256 237c144 0 254 -104 254 -237c0 -80 -29 -146 -87 -188zM367 1329c-76 0 -133 -57 -133 -132c0 -74 57 -131 133 -131
c73 0 130 57 130 131c0 75 -57 132 -130 132zM366 627c94 0 166 76 166 173c0 94 -72 167 -166 167c-96 0 -167 -73 -167 -167c0 -97 71 -173 167 -173z" />
    <glyph glyph-name="nine.numr" horiz-adv-x="713" 
d="M360 1447c174 0 331 -122 331 -317c0 -80 -32 -148 -76 -205l-312 -410h-172l251 308c-14 -4 -32 -7 -52 -7c-155 0 -303 139 -303 311c0 194 160 320 333 320zM359 937c105 0 192 77 192 189c0 114 -88 187 -190 187c-104 0 -194 -78 -194 -186c0 -115 91 -190 192 -190
z" />
    <glyph glyph-name="zero.sups" horiz-adv-x="796" 
d="M397 975c-198 0 -337 195 -337 473c0 277 139 473 337 473c200 0 339 -196 339 -473c0 -278 -139 -473 -339 -473zM398 1116c110 0 193 133 193 332s-83 331 -193 331s-192 -132 -192 -331s82 -332 192 -332z" />
    <glyph glyph-name="one.sups" horiz-adv-x="481" 
d="M218 1905h133v-922h-143l1 783l-206 -159l-1 139z" />
    <glyph glyph-name="two.sups" horiz-adv-x="719" 
d="M186 1098h480v-115h-629v135c408 308 467 414 467 513c0 125 -75 168 -152 166c-101 -4 -149 -78 -149 -169h-149c-1 171 130 291 306 291c164 0 280 -108 283 -270c3 -168 -118 -325 -457 -551z" />
    <glyph glyph-name="three.sups" horiz-adv-x="698" 
d="M495 1491c91 -45 147 -126 147 -230c0 -161 -131 -290 -305 -290c-169 0 -301 115 -301 270h147c0 -92 69 -148 155 -148c92 0 158 64 158 164c0 97 -66 158 -173 158h-53v114h44c90 0 143 53 143 139c0 81 -54 131 -125 131c-72 0 -125 -45 -125 -136l-145 1
c0 151 116 253 270 253c148 0 259 -102 259 -245c0 -78 -35 -141 -96 -181z" />
    <glyph glyph-name="four.sups" horiz-adv-x="727" 
d="M676 1288v-110h-99v-195h-139v195h-430v118l383 609h186v-617h99zM133 1288h305v501z" />
    <glyph glyph-name="five.sups" horiz-adv-x="765" 
d="M376 1579c235 0 330 -123 330 -297c0 -189 -140 -309 -322 -309c-165 0 -311 86 -326 269h146c14 -106 96 -148 176 -148c110 0 181 75 181 184c0 116 -62 184 -209 184h-270l89 444h498v-122h-395l-40 -205h142z" />
    <glyph glyph-name="six.sups" horiz-adv-x="713" 
d="M685 1300c5 -195 -153 -323 -326 -327s-333 116 -337 309c-3 83 29 154 76 213l313 410h171l-250 -307c13 3 28 6 46 6c157 2 302 -135 307 -304zM359 1107c104 4 192 85 187 195c-5 112 -97 185 -199 181c-105 -4 -189 -83 -185 -197c4 -112 95 -183 197 -179z" />
    <glyph glyph-name="seven.sups" horiz-adv-x="640" 
d="M22 1905h624v-102l-450 -820h-166l443 789h-451v133z" />
    <glyph glyph-name="eight.sups" horiz-adv-x="732" 
d="M534 1492c86 -48 141 -134 141 -238c0 -158 -132 -283 -309 -283s-310 125 -310 283c0 104 55 191 142 239c-58 41 -87 108 -87 187c0 134 107 237 256 237c144 0 254 -103 254 -237c0 -80 -29 -146 -87 -188zM367 1799c-76 0 -133 -57 -133 -132c0 -74 57 -131 133 -131
c73 0 130 57 130 131c0 75 -57 132 -130 132zM366 1097c94 0 166 77 166 173c0 94 -72 167 -166 167c-96 0 -167 -73 -167 -167c0 -96 71 -173 167 -173z" />
    <glyph glyph-name="nine.sups" horiz-adv-x="714" 
d="M691 1606c2 -83 -31 -154 -76 -213l-312 -410h-172l251 308c-14 -4 -29 -7 -48 -7c-155 -2 -302 134 -307 303c-5 195 153 324 326 328s334 -116 338 -309zM367 1405c104 4 188 83 184 197c-4 112 -94 183 -197 179c-104 -4 -192 -85 -187 -195c5 -113 98 -185 200 -181z
" />
    <glyph glyph-name="fraction" unicode="&#x2044;" horiz-adv-x="428" 
d="M-266 0l805 1426h155l-805 -1426h-155z" />
    <glyph glyph-name="onehalf" unicode="&#xbd;" horiz-adv-x="1628" 
d="M351 505h-143l1 783l-206 -160l-1 140l216 158h133v-921zM1020 1426h155l-805 -1426h-155zM1095 115h480v-115h-629v135c408 308 467 414 467 513c0 125 -75 168 -152 166c-101 -4 -149 -78 -149 -169h-149c-1 171 130 291 306 291c164 0 280 -108 283 -270
c3 -168 -118 -325 -457 -551z" />
    <glyph glyph-name="onequarter" unicode="&#xbc;" horiz-adv-x="1575" 
d="M351 505h-143l1 783l-206 -160l-1 140l216 158h133v-921zM1020 1426h155l-805 -1426h-155zM1524 305v-110h-99v-195h-139v195h-430v118l383 609h186v-617h99zM982 305h304v501z" />
    <glyph glyph-name="threequarters" unicode="&#xbe;" horiz-adv-x="1792" 
d="M642 791c0 -161 -131 -290 -305 -290c-169 0 -301 115 -301 270h147c0 -92 69 -148 155 -148c92 0 158 64 158 164c0 97 -66 158 -173 158h-53v114h44c90 0 143 53 143 139c0 81 -54 131 -125 131c-72 0 -125 -45 -125 -136l-145 1c0 151 116 253 270 253
c148 0 259 -102 259 -245c0 -78 -35 -141 -96 -181c91 -45 147 -126 147 -230zM1237 1426h155l-805 -1426h-155zM1741 305v-110h-99v-195h-139v195h-430v118l383 609h186v-617h99zM1199 305h304v501z" />
    <glyph glyph-name="asterisk" unicode="*" horiz-adv-x="996" 
d="M369 858l-113 68l155 198c25 33 10 60 -30 54l-254 -31v130l254 -32c40 -6 55 22 30 53l-155 202l113 65l99 -233c15 -39 47 -39 61 0l99 233l114 -65l-156 -202c-26 -31 -11 -59 30 -53l253 32v-130l-253 31c-41 6 -56 -20 -29 -54l155 -198l-114 -68l-99 233
c-14 38 -46 39 -61 0z" />
    <glyph glyph-name="backslash" unicode="\" horiz-adv-x="1185" 
d="M980 -389l-994 1925h219l994 -1925h-219z" />
    <glyph glyph-name="periodcentered" unicode="&#xb7;" horiz-adv-x="607" 
d="M304 629c-58 0 -108 47 -108 108c0 59 50 108 108 108c56 0 108 -49 108 -108c0 -61 -52 -108 -108 -108z" />
    <glyph glyph-name="bullet" unicode="&#x2022;" horiz-adv-x="901" 
d="M452 382c-156 0 -289 124 -289 287c0 154 133 287 289 287c152 0 286 -133 286 -287c0 -163 -134 -287 -286 -287z" />
    <glyph glyph-name="colon" unicode=":" horiz-adv-x="638" 
d="M317 655c-75 0 -140 64 -140 142c0 75 65 140 140 140c77 0 142 -65 142 -140c0 -78 -65 -142 -142 -142zM317 -20c-75 0 -140 63 -140 140s65 141 140 141c77 0 142 -64 142 -141s-65 -140 -142 -140z" />
    <glyph glyph-name="comma" unicode="," horiz-adv-x="660" 
d="M331 -365h-166l124 637h238z" />
    <glyph glyph-name="ellipsis" unicode="&#x2026;" horiz-adv-x="1948" 
d="M329 -20c-76 0 -141 63 -141 140s65 141 141 141c77 0 141 -64 141 -141s-64 -140 -141 -140zM977 -20c-76 0 -141 63 -141 140s65 141 141 141c77 0 141 -64 141 -141s-64 -140 -141 -140zM1617 -20c-76 0 -141 63 -141 140s65 141 141 141c77 0 141 -64 141 -141
s-64 -140 -141 -140z" />
    <glyph glyph-name="exclam" unicode="!" horiz-adv-x="662" 
d="M234 430l-20 996h231l-20 -996h-191zM330 -20c-77 0 -141 63 -141 140c0 79 64 141 141 141c78 0 141 -62 141 -141c0 -77 -63 -140 -141 -140z" />
    <glyph glyph-name="exclamdown" unicode="&#xa1;" horiz-adv-x="662" 
d="M330 1025c78 0 141 -63 141 -140c0 -79 -63 -141 -141 -141c-77 0 -141 62 -141 141c0 77 64 140 141 140zM234 575h191l20 -996h-231z" />
    <glyph glyph-name="numbersign" unicode="#" horiz-adv-x="1537" 
d="M324 0l47 336h-280l23 168h280l62 418h-283l28 165h275l51 343h165l-46 -343h351l49 343h167l-49 -343h283l-27 -165h-278l-59 -418h279l-24 -168h-277l-52 -336h-165l48 336h-355l-48 -336h-165zM562 504h352l61 418h-355z" />
    <glyph glyph-name="period" unicode="." horiz-adv-x="659" 
d="M329 -20c-76 0 -141 63 -141 140s65 141 141 141c77 0 141 -64 141 -141s-64 -140 -141 -140z" />
    <glyph glyph-name="question" unicode="?" horiz-adv-x="1054" 
d="M426 420v117c0 135 74 189 197 249c78 39 128 106 128 227c0 154 -99 242 -233 242c-137 0 -232 -100 -232 -241c0 -27 4 -57 10 -85l-205 23c-4 28 -6 53 -6 81c0 243 175 414 430 414c253 0 439 -167 439 -429c0 -219 -119 -327 -237 -374c-65 -27 -101 -59 -101 -129
v-95h-190zM526 -20c-76 0 -140 62 -140 140s65 140 140 140s139 -62 139 -140s-63 -140 -139 -140z" />
    <glyph glyph-name="questiondown" unicode="&#xbf;" horiz-adv-x="1054" 
d="M513 1026c76 0 140 -62 140 -140s-65 -140 -140 -140s-139 62 -139 140s63 140 139 140zM613 586v-117c0 -135 -74 -189 -197 -249c-78 -39 -128 -106 -128 -227c0 -154 99 -242 233 -242c137 0 232 100 232 241c0 27 -4 57 -10 85l205 -23c4 -28 6 -53 6 -81
c0 -243 -175 -414 -430 -414c-253 0 -439 167 -439 429c0 219 119 327 237 374c65 27 101 59 101 129v95h190z" />
    <glyph glyph-name="quotedbl" unicode="&#x22;" horiz-adv-x="1027" 
d="M240 778l-27 648h219l-20 -648h-172zM615 778l-19 648h217l-26 -648h-172z" />
    <glyph glyph-name="quotesingle" unicode="'" horiz-adv-x="648" 
d="M237 778l-20 648h217l-25 -648h-172z" />
    <glyph glyph-name="semicolon" unicode=";" horiz-adv-x="658" 
d="M356 655c-76 0 -141 64 -141 142c0 75 65 140 141 140s142 -65 142 -140c0 -78 -66 -142 -142 -142zM131 -365l124 637h239l-197 -637h-166z" />
    <glyph glyph-name="slash" unicode="/" horiz-adv-x="1185" 
d="M-14 -389l994 1925h219l-994 -1925h-219z" />
    <glyph glyph-name="underscore" unicode="_" horiz-adv-x="1341" 
d="M159 -193v193h1024v-193h-1024z" />
    <glyph glyph-name="braceleft" unicode="{" horiz-adv-x="655" 
d="M483 -500c-170 0 -273 111 -273 256v420c0 182 -24 224 -154 275v134c130 50 154 93 154 276v418c0 146 103 257 273 257h107v-161h-64c-65 0 -104 -45 -104 -131v-392c0 -157 -26 -270 -216 -334c190 -63 216 -178 216 -334v-395c0 -87 31 -127 104 -127h64v-162h-107z
" />
    <glyph glyph-name="braceright" unicode="}" horiz-adv-x="652" 
d="M169 -500h-107v162h64c73 0 104 40 104 127v395c0 156 26 271 216 334c-190 64 -216 177 -216 334v392c0 86 -39 131 -104 131h-64v161h107c170 0 273 -111 273 -257v-418c0 -183 24 -226 154 -276v-134c-130 -51 -154 -93 -154 -275v-420c0 -145 -103 -256 -273 -256z
" />
    <glyph glyph-name="bracketleft" unicode="[" horiz-adv-x="677" 
d="M163 -512v2048h466v-166h-263v-1716h263v-166h-466z" />
    <glyph glyph-name="bracketright" unicode="]" horiz-adv-x="672" 
d="M509 -512h-466v166h263v1716h-263v166h466v-2048z" />
    <glyph glyph-name="parenleft" unicode="(" horiz-adv-x="687" 
d="M527 -489c-263 180 -426 585 -426 1094c0 506 163 915 426 1095l128 -155c-209 -137 -347 -491 -347 -940c0 -451 138 -802 347 -939z" />
    <glyph glyph-name="parenright" unicode=")" horiz-adv-x="687" 
d="M160 -489l-128 155c209 137 347 488 347 939c0 449 -138 803 -347 940l128 155c263 -180 426 -589 426 -1095c0 -509 -163 -914 -426 -1094z" />
    <glyph glyph-name="emdash" unicode="&#x2014;" horiz-adv-x="2365" 
d="M159 436v193h2048v-193h-2048z" />
    <glyph glyph-name="endash" unicode="&#x2013;" horiz-adv-x="1341" 
d="M159 436v193h1024v-193h-1024z" />
    <glyph glyph-name="hyphen" unicode="-" horiz-adv-x="1034" 
d="M159 436v193h717v-193h-717z" />
    <glyph glyph-name="uni00AD" unicode="&#xad;" horiz-adv-x="1034" 
d="M159 447v203h717v-203h-717z" />
    <glyph glyph-name="guillemotleft" unicode="&#xab;" horiz-adv-x="1051" 
d="M369 252l-312 377l312 377h189l-311 -377l311 -377h-189zM792 252l-312 377l312 377h190l-311 -377l311 -377h-190z" />
    <glyph glyph-name="guillemotright" unicode="&#xbb;" horiz-adv-x="1051" 
d="M69 252l311 377l-311 377h189l311 -377l-311 -377h-189zM492 252l311 377l-311 377h190l311 -377l-311 -377h-190z" />
    <glyph glyph-name="guilsinglleft" unicode="&#x2039;" horiz-adv-x="627" 
d="M369 252l-312 377l312 377h189l-311 -377l311 -377h-189z" />
    <glyph glyph-name="guilsinglright" unicode="&#x203a;" horiz-adv-x="627" 
d="M69 252l311 377l-311 377h189l311 -377l-311 -377h-189z" />
    <glyph glyph-name="quotedblbase" unicode="&#x201e;" horiz-adv-x="1019" 
d="M298 -365h-166l124 637h238zM722 -365h-166l124 637h238z" />
    <glyph glyph-name="quotedblleft" unicode="&#x201c;" horiz-adv-x="1016" 
d="M297 1427h166l-124 -637h-238zM717 1427h166l-124 -637h-238z" />
    <glyph glyph-name="quotedblright" unicode="&#x201d;" horiz-adv-x="1015" 
d="M298 789h-166l124 637h238zM718 789h-166l124 637h238z" />
    <glyph glyph-name="quoteleft" unicode="&#x2018;" horiz-adv-x="596" 
d="M297 1427h166l-124 -637h-238z" />
    <glyph glyph-name="quoteright" unicode="&#x2019;" horiz-adv-x="595" 
d="M298 789h-166l124 637h238z" />
    <glyph glyph-name="quotesinglbase" unicode="&#x201a;" horiz-adv-x="595" 
d="M298 -365h-166l124 637h238z" />
    <glyph glyph-name="space" unicode=" " horiz-adv-x="604" 
 />
    <glyph glyph-name="cent" unicode="&#xa2;" horiz-adv-x="1174" 
d="M658 417c101 0 187 55 242 142l160 -137c-83 -109 -203 -182 -343 -198v-224h-139v227c-254 38 -439 252 -439 543c0 292 185 506 439 543v223h139v-220c140 -16 260 -89 343 -198l-160 -137c-55 87 -141 142 -242 142c-165 0 -299 -142 -299 -353s134 -353 299 -353z
" />
    <glyph glyph-name="currency" unicode="&#xa4;" horiz-adv-x="1396" 
d="M327 247l-123 130l105 104c-54 78 -82 169 -82 261c0 93 28 185 83 263l-104 103l123 130l107 -109c79 56 171 84 264 84s184 -27 261 -83l106 107l125 -125l-105 -105c55 -78 82 -171 82 -264c0 -91 -27 -184 -82 -263l104 -103l-123 -130l-107 108
c-77 -54 -170 -82 -263 -82s-185 28 -264 82zM698 447c167 0 295 139 295 297c0 162 -132 293 -294 293c-164 0 -296 -134 -296 -298c0 -166 137 -292 295 -292z" />
    <glyph glyph-name="dollar" unicode="$" horiz-adv-x="1367" 
d="M1224 398c0 -277 -218 -402 -479 -417v-135h-102v136c-266 15 -469 157 -512 394l246 57c23 -144 129 -230 266 -250v451c-9 3 -19 5 -28 8c-216 63 -438 135 -438 397c0 258 206 398 466 406v131h102v-135c219 -20 414 -128 463 -357l-231 -58
c-27 128 -115 196 -232 214v-419c223 -61 479 -138 479 -423zM419 1043c0 -106 97 -153 224 -192v393c-119 -10 -224 -69 -224 -201zM745 181c131 10 234 71 232 207c-2 119 -102 173 -232 216v-423z" />
    <glyph glyph-name="Euro" unicode="&#x20ac;" horiz-adv-x="1560" 
d="M912 201c144 0 257 75 328 197l202 -131c-117 -173 -306 -286 -529 -286c-306 0 -553 172 -624 518h-152v133h134c-2 27 -3 55 -3 84c0 27 1 53 2 78h-133v134h151c70 347 318 519 625 519c223 0 412 -113 529 -285l-202 -131c-72 126 -187 196 -328 196
c-178 0 -327 -83 -384 -299h452v-134h-473c-2 -25 -3 -51 -3 -78c0 -29 1 -57 3 -84h473v-133h-451c58 -214 206 -298 383 -298z" />
    <glyph glyph-name="florin" unicode="&#x192;" horiz-adv-x="1049" 
d="M152 -402l194 1224h-172l29 184h173l34 222c27 187 202 328 387 328c62 0 123 -18 146 -36l-19 -170c-27 22 -69 33 -104 33c-103 0 -182 -73 -199 -186l-30 -191h281l-28 -184h-282l-196 -1224h-214z" />
    <glyph glyph-name="sterling" unicode="&#xa3;" horiz-adv-x="1337" 
d="M153 0v144l59 10c62 10 93 49 93 113v339h-152v172h152v189c0 280 193 482 471 482c206 0 402 -121 402 -373c0 -24 -2 -48 -6 -72l-200 -45c7 34 11 65 11 90c0 134 -96 202 -211 202c-156 0 -253 -103 -253 -284v-189h308v-172h-308v-405h652v-201h-1018z" />
    <glyph glyph-name="yen" unicode="&#xa5;" horiz-adv-x="1436" 
d="M600 0v229h-374v146h374v203h-374v145h344l-453 703h267l335 -535l335 535h266l-454 -703h343v-145h-370v-203h370v-146h-370v-229h-239z" />
    <glyph glyph-name="plus" unicode="+" horiz-adv-x="1201" 
d="M511 206v395h-395v180h395v395h180v-395h394v-180h-394v-395h-180z" />
    <glyph glyph-name="minus" unicode="&#x2212;" horiz-adv-x="1305" 
d="M241 601v180h823v-180h-823z" />
    <glyph glyph-name="multiply" unicode="&#xd7;" horiz-adv-x="1073" 
d="M261 273l-128 129l276 276l-276 275l128 128l277 -274l273 273l129 -127l-275 -275l275 -276l-129 -128l-273 276z" />
    <glyph glyph-name="divide" unicode="&#xf7;" horiz-adv-x="1055" 
d="M520 932c-68 0 -129 56 -129 130c0 68 61 130 129 130c70 0 131 -62 131 -130c0 -74 -61 -130 -131 -130zM115 601v180h823v-180h-823zM520 190c-68 0 -129 57 -129 132c0 68 61 129 129 129c70 0 131 -61 131 -129c0 -75 -61 -132 -131 -132z" />
    <glyph glyph-name="equal" unicode="=" horiz-adv-x="1311" 
d="M244 819v180h823v-180h-823zM244 395v180h823v-180h-823z" />
    <glyph glyph-name="notequal" unicode="&#x2260;" horiz-adv-x="1258" 
d="M173 0l205 395h-205v180h297l126 244h-423v180h515l185 357h174l-185 -357h236v-180h-329l-126 -244h455v-180h-547l-205 -395h-173z" />
    <glyph glyph-name="greater" unicode="&#x3e;" horiz-adv-x="1367" 
d="M135 1408l1131 -567v-216l-1131 -572v203l943 476l-943 476v200z" />
    <glyph glyph-name="less" unicode="&#x3c;" horiz-adv-x="1367" 
d="M1232 1408v-200l-943 -476l943 -476v-203l-1131 572v216z" />
    <glyph glyph-name="greaterequal" unicode="&#x2265;" horiz-adv-x="1420" 
d="M156 1461l1130 -510v-216l-1130 -514v202l933 420l-933 419v199zM156 0v156h1130v-156h-1130z" />
    <glyph glyph-name="lessequal" unicode="&#x2264;" horiz-adv-x="1420" 
d="M1265 1461v-199l-934 -419l934 -420v-202l-1131 514v216zM134 0v156h1131v-156h-1131z" />
    <glyph glyph-name="plusminus" unicode="&#xb1;" horiz-adv-x="1256" 
d="M542 353v396h-395v180h395v395h181v-395h394v-180h-394v-396h-181zM137 1v181h970v-181h-970z" />
    <glyph glyph-name="approxequal" unicode="&#x2248;" horiz-adv-x="1407" 
d="M919 678c-151 0 -234 100 -285 156c-44 47 -81 69 -124 69c-94 0 -149 -87 -153 -207h-169c5 226 125 377 324 377c110 0 182 -51 262 -149c32 -38 68 -81 131 -81c84 0 144 77 149 204h167c-6 -210 -115 -369 -302 -369zM919 215c-151 0 -235 100 -285 156
c-38 42 -70 70 -124 69c-96 -3 -149 -87 -153 -207h-169c5 229 128 378 324 378c106 0 178 -50 262 -148c32 -38 68 -83 131 -83c84 0 144 77 149 206h167c-6 -210 -115 -371 -302 -371z" />
    <glyph glyph-name="asciitilde" unicode="~" horiz-adv-x="1407" 
d="M915 334c-150 0 -233 102 -284 155c-44 48 -80 71 -123 71c-99 0 -152 -99 -154 -208h-169c-8 223 120 377 327 377c120 0 188 -55 259 -147c35 -43 69 -83 130 -83c85 0 155 79 150 206h167c16 -211 -115 -371 -303 -371z" />
    <glyph glyph-name="logicalnot" unicode="&#xac;" horiz-adv-x="1666" 
d="M1234 292v524h-1112v190h1300v-714h-188z" />
    <glyph glyph-name="emptyset" unicode="&#x2205;" horiz-adv-x="1537" 
d="M769 -16c-153 0 -292 56 -398 148l-89 -89l-66 66l89 89c-92 106 -148 245 -148 398c0 338 274 612 612 612c153 0 292 -56 398 -148l89 89l66 -66l-89 -89c92 -106 148 -245 148 -398c0 -338 -274 -612 -612 -612zM436 329l600 600c-72 59 -166 93 -267 93
c-237 0 -426 -189 -426 -426c0 -101 34 -195 93 -267zM769 170c237 0 426 189 426 426c0 101 -34 195 -93 267l-600 -600c72 -59 166 -93 267 -93z" />
    <glyph glyph-name="infinity" unicode="&#x221e;" horiz-adv-x="1711" 
d="M479 279c-171 0 -297 132 -303 317c6 185 132 317 303 317c119 0 250 -72 375 -202c124 131 256 202 375 202c178 0 296 -123 302 -317c-6 -194 -124 -317 -302 -317c-119 0 -251 71 -375 201c-125 -129 -256 -201 -375 -201zM479 434c76 0 174 58 271 162
c-97 104 -195 162 -271 162c-80 0 -146 -69 -148 -162c2 -93 68 -162 148 -162zM1229 434c81 0 145 65 147 162c-2 97 -66 162 -147 162c-78 0 -174 -59 -273 -162c99 -103 195 -162 273 -162z" />
    <glyph glyph-name="integral" unicode="&#x222b;" horiz-adv-x="951" 
d="M79 -457v219c209 0 278 73 278 266v1101c0 186 136 318 313 318c67 0 153 -20 213 -76l-91 -173c-31 30 -66 45 -101 45c-67 0 -112 -51 -112 -153v-1076c0 -299 -202 -471 -500 -471z" />
    <glyph glyph-name="product" unicode="&#x220f;" horiz-adv-x="1673" 
d="M265 0v1222h-119v204h1382v-204h-120v-1222h-203v1222h-734v-1222h-206z" />
    <glyph glyph-name="summation" unicode="&#x2211;" horiz-adv-x="1414" 
d="M114 1v150l616 616l-616 617v152h1179v-183h-866l570 -586l-570 -585h866v-181h-1179z" />
    <glyph glyph-name="radical" unicode="&#x221a;" horiz-adv-x="1444" 
d="M462 0l-222 686h-147v193h283l191 -581l592 1238h211l-736 -1536h-172z" />
    <glyph glyph-name="uni00B5" unicode="&#xb5;" horiz-adv-x="1355" 
d="M964 1006h201v-1006h-201v143c-75 -100 -190 -163 -320 -163c-80 0 -155 24 -217 64v-556h-183v1518h202v-595c0 -141 113 -252 253 -252c147 0 265 111 265 252v595z" />
    <glyph glyph-name="partialdiff" unicode="&#x2202;" horiz-adv-x="1202" 
d="M359 1450c386 75 701 -286 692 -778c-8 -390 -226 -664 -527 -664c-323 0 -489 265 -358 616c116 311 387 444 644 347c-66 224 -223 357 -451 312v167zM843 672c1 40 1 80 -2 117c-199 123 -394 35 -482 -219s18 -409 176 -409c147 0 296 183 308 511z" />
    <glyph glyph-name="percent" unicode="%" horiz-adv-x="1619" 
d="M417 819c-173 0 -313 140 -313 315c0 172 141 313 313 313c174 0 312 -142 312 -313c0 -173 -138 -315 -312 -315zM329 -1l752 1429h200l-754 -1429h-198zM417 978c89 0 155 70 155 156s-69 154 -155 154c-85 0 -156 -67 -156 -154c0 -88 71 -156 156 -156zM1204 -17
c-175 0 -314 140 -314 313c0 174 141 313 314 313c171 0 310 -140 310 -313c0 -172 -138 -313 -310 -313zM1204 141c85 0 156 70 156 155c0 86 -72 156 -156 156c-88 0 -156 -68 -156 -156c0 -85 68 -155 156 -155z" />
    <glyph glyph-name="perthousand" unicode="&#x2030;" horiz-adv-x="2343" 
d="M417 819c-173 0 -313 140 -313 315c0 172 141 313 313 313c174 0 312 -142 312 -313c0 -173 -138 -315 -312 -315zM329 -1l752 1429h200l-754 -1429h-198zM417 978c89 0 155 70 155 156s-69 154 -155 154c-85 0 -156 -67 -156 -154c0 -88 71 -156 156 -156zM1204 -17
c-175 0 -314 140 -314 313c0 174 141 313 314 313c171 0 310 -140 310 -313c0 -172 -138 -313 -310 -313zM1930 -17c-175 0 -314 140 -314 313c0 174 141 313 314 313c171 0 311 -140 311 -313c0 -172 -139 -313 -311 -313zM1204 141c85 0 156 70 156 155
c0 86 -72 156 -156 156c-88 0 -156 -68 -156 -156c0 -85 68 -155 156 -155zM1930 141c85 0 156 70 156 155c0 86 -72 156 -156 156c-88 0 -156 -68 -156 -156c0 -85 68 -155 156 -155z" />
    <glyph glyph-name="lozenge" unicode="&#x25ca;" horiz-adv-x="1390" 
d="M695 106l-618 617l618 618l617 -616zM696 362l360 363l-360 359l-362 -361z" />
    <glyph glyph-name="uniF8FF" unicode="&#xf8ff;" horiz-adv-x="1823" 
d="M911 0c-428 0 -778 350 -778 778c0 430 350 778 778 778c430 0 779 -348 779 -778c0 -428 -349 -778 -779 -778zM911 74c389 0 705 317 705 704c0 389 -316 705 -705 705c-387 0 -704 -316 -704 -705c0 -387 317 -704 704 -704zM1319 444c-8 0 -17 6 -24 13l-297 295
c-15 16 -15 39 -1 53l297 297c15 14 37 14 52 0c14 -15 14 -39 0 -53l-271 -271l271 -270c14 -14 12 -35 0 -51c-7 -8 -17 -13 -27 -13zM504 444c-21 0 -37 17 -37 37v594c0 21 16 37 37 37c20 0 37 -16 37 -37v-594c0 -20 -17 -37 -37 -37zM911 444c-20 0 -37 17 -37 37
v594c0 21 17 37 37 37c21 0 37 -16 37 -37v-594c0 -20 -16 -37 -37 -37zM614 741c-20 0 -36 17 -36 37c0 21 16 37 36 37h187c20 0 37 -16 37 -37c0 -20 -17 -37 -37 -37h-187z" />
    <glyph glyph-name="at" unicode="@" horiz-adv-x="1784" 
d="M895 -210c-421 0 -761 338 -761 762c0 416 328 759 762 759c430 0 759 -338 759 -767c0 -294 -155 -399 -319 -399c-114 0 -206 35 -256 126h-11c-63 -83 -160 -118 -256 -118c-134 0 -250 69 -250 214c0 152 131 208 276 237l200 43v44c0 102 -64 134 -145 134
c-82 0 -143 -30 -161 -120l-158 37c30 128 144 203 319 203c158 0 314 -63 314 -275v-259c0 -89 42 -139 133 -139c103 0 172 70 172 257c0 373 -269 639 -616 639c-354 0 -621 -277 -621 -615c0 -345 277 -621 622 -621c113 0 221 30 320 90l65 -124
c-113 -70 -248 -108 -388 -108zM852 274c81 0 201 41 201 193v76l-171 -39c-108 -25 -151 -57 -151 -124c0 -69 44 -106 121 -106z" />
    <glyph glyph-name="ampersand" unicode="&#x26;" horiz-adv-x="1547" 
d="M1425 0h-268l-104 134c-131 -96 -291 -154 -465 -154c-272 0 -478 140 -478 402c0 210 133 313 384 471l-2 2c-106 137 -148 219 -148 309c0 91 40 161 105 209c63 48 152 74 251 74c213 0 361 -113 361 -286c0 -130 -83 -229 -279 -348l292 -369c80 116 125 254 125 378
h211c0 -199 -76 -394 -204 -545zM600 1252c-23 -22 -37 -55 -37 -95c0 -57 28 -98 96 -188l17 -22c117 73 177 140 177 216c0 81 -68 128 -147 128c-42 0 -79 -13 -106 -39zM597 172c127 0 241 46 334 119l-325 417c-171 -106 -281 -177 -281 -320c0 -145 115 -216 272 -216
z" />
    <glyph glyph-name="paragraph" unicode="&#xb6;" horiz-adv-x="1192" 
d="M513 -307v1047h-52c-225 0 -365 121 -365 344c0 224 140 342 365 342h173v-1733h-121zM825 -307v1733h123v-1733h-123z" />
    <glyph glyph-name="section" unicode="&#xa7;" horiz-adv-x="1324" 
d="M1070 190c57 -56 93 -130 93 -235c0 -276 -230 -391 -496 -391c-273 0 -483 135 -527 367l205 49c30 -158 164 -246 329 -246c152 0 285 58 283 215c-2 156 -174 202 -357 252c-208 57 -418 125 -418 373c0 105 38 188 104 248c-63 53 -104 128 -104 237
c0 252 207 380 457 380c239 0 457 -101 507 -335l-195 -50c-32 149 -153 215 -303 215c-133 0 -263 -58 -263 -207c0 -136 149 -177 318 -223c216 -59 460 -126 460 -399c0 -107 -35 -189 -93 -250zM385 578c0 -137 149 -178 318 -224c65 -18 134 -36 197 -61
c37 32 58 78 57 140c-2 157 -174 201 -357 252c-45 13 -90 26 -134 41c-49 -30 -81 -78 -81 -148z" />
    <glyph glyph-name="copyright" unicode="&#xa9;" horiz-adv-x="1745" 
d="M871 -20c-405 0 -736 331 -736 737c0 405 331 737 736 737c407 0 739 -332 739 -737c0 -406 -332 -737 -739 -737zM871 110c339 0 608 268 608 607c0 338 -269 607 -608 607c-337 0 -606 -269 -606 -607c0 -339 269 -607 606 -607zM873 297c-228 0 -415 186 -415 417
c0 230 185 415 415 415c126 0 245 -57 321 -149l-109 -89c-50 64 -128 101 -212 101c-152 0 -273 -120 -273 -278s121 -278 273 -278c85 0 162 37 212 101l109 -90c-76 -93 -195 -150 -321 -150z" />
    <glyph glyph-name="registered" unicode="&#xae;" horiz-adv-x="1776" 
d="M887 1454c406 0 738 -332 738 -737c0 -406 -332 -737 -738 -737s-736 331 -736 737c0 405 330 737 736 737zM887 110c339 0 607 268 607 607c0 338 -268 607 -607 607c-338 0 -606 -269 -606 -607c0 -339 268 -607 606 -607zM1208 894c0 -99 -56 -181 -138 -219l166 -381
h-154l-148 358h-161v-358h-140v846h330c137 0 245 -110 245 -246zM773 1013v-242h170c73 0 128 52 128 121c0 71 -55 121 -128 121h-170z" />
    <glyph glyph-name="trademark" unicode="&#x2122;" horiz-adv-x="1602" 
d="M121 1432v104h452v-104h-169v-615h-114v615h-169zM1237 1536h121v-719h-114v526l-228 -377l-230 376v-525h-115v719h125l219 -368z" />
    <glyph glyph-name="degree" unicode="&#xb0;" horiz-adv-x="947" 
d="M473 853c-165 0 -297 132 -297 297s132 297 297 297s297 -132 297 -297s-132 -297 -297 -297zM473 984c92 0 165 73 165 166c0 92 -73 166 -165 166s-165 -74 -165 -166c0 -93 73 -166 165 -166z" />
    <glyph glyph-name="bar" unicode="|" horiz-adv-x="635" 
d="M244 -307v1843h147v-1843h-147z" />
    <glyph glyph-name="brokenbar" unicode="&#xa6;" horiz-adv-x="635" 
d="M244 799v737h147v-737h-147zM244 -307v737h147v-737h-147z" />
    <glyph glyph-name="uni2113" unicode="&#x2113;" horiz-adv-x="1159" 
d="M638 -12c-237 0 -345 145 -372 318c0 6 0 13 -1 19c-36 -24 -72 -55 -112 -80l-63 120c60 46 118 85 171 129v482c0 356 168 490 363 490c204 0 295 -155 295 -333c0 -236 -169 -451 -437 -683l2 -58c3 -149 98 -224 206 -224c123 0 228 97 286 190l99 -99
c-109 -194 -270 -271 -437 -271zM483 651c159 161 278 330 278 482c0 106 -36 179 -129 179c-69 0 -149 -70 -149 -307v-354z" />
    <glyph glyph-name="dagger" unicode="&#x2020;" horiz-adv-x="1008" 
d="M925 1044v-149h-351v-1189h-151v1189h-340v149h340v382h151v-382h351z" />
    <glyph glyph-name="daggerdbl" unicode="&#x2021;" horiz-adv-x="1083" 
d="M963 895h-351v-645h351v-150h-351v-394h-151v394h-340v150h340v645h-340v149h340v382h151v-382h351v-149z" />
    <glyph glyph-name="estimated" unicode="&#x212e;" horiz-adv-x="1978" 
d="M1005 -18c-484 0 -875 352 -875 784c0 438 391 790 875 790c485 0 876 -352 876 -790v-21h-1417c-8 0 -12 -2 -12 -8v-430c0 -18 8 -35 18 -49c137 -141 328 -233 537 -233c227 0 428 102 565 262h125c-156 -185 -410 -305 -692 -305zM464 788h1087c7 0 9 9 9 15v430
c0 18 -7 39 -21 51c-137 135 -324 225 -532 225c-207 0 -396 -92 -535 -231c-12 -14 -20 -33 -20 -53v-422c0 -6 4 -15 12 -15z" />
    <glyph glyph-name="uni2116" unicode="&#x2116;" horiz-adv-x="2948" 
d="M1268 380v1156h237v-1536h-237l-788 1161v-1161h-236v1536h237zM2275 345c-305 0 -530 219 -530 551c0 330 224 549 530 549c307 0 530 -220 530 -549c0 -332 -225 -551 -530 -551zM2273 1248c-172 0 -298 -132 -298 -352c0 -222 125 -354 298 -354
c174 0 302 133 302 354c0 220 -128 352 -302 352zM1814 0v153h923v-153h-923z" />
    <glyph glyph-name="asciicircum" unicode="^" horiz-adv-x="1408" 
d="M1322 296h-197l-421 929l-421 -929h-197l512 1130h212z" />
    <glyph glyph-name="uni0308" unicode="&#x308;" 
d="M-668 1198c-78 0 -142 64 -142 141c0 78 64 141 142 141c76 0 141 -63 141 -141c0 -77 -65 -141 -141 -141zM-265 1198c-78 0 -143 64 -143 141c0 78 65 141 143 141c75 0 140 -63 140 -141c0 -77 -65 -141 -140 -141z" />
    <glyph glyph-name="uni0307" unicode="&#x307;" 
d="M-265 1198c-78 0 -142 64 -142 141c0 78 64 141 142 141c76 0 141 -63 141 -141c0 -77 -65 -141 -141 -141z" />
    <glyph glyph-name="gravecomb" unicode="&#x300;" 
d="M-194 1214l-225 264l116 84l257 -348h-148z" />
    <glyph glyph-name="acutecomb" unicode="&#x301;" 
d="M-438 1214l257 348l117 -84l-225 -264h-149z" />
    <glyph glyph-name="uni030B" unicode="&#x30b;" 
d="M-807 1214l257 348l117 -84l-225 -264h-149zM-438 1214l257 348l116 -84l-225 -264h-148z" />
    <glyph glyph-name="uni0302" unicode="&#x302;" 
d="M-498 1239h-148l219 297h151l219 -297h-148l-147 189z" />
    <glyph glyph-name="uni030C" unicode="&#x30c;" 
d="M-430 1239l-220 297h148l146 -190l147 190h148l-219 -297h-150z" />
    <glyph glyph-name="uni0306" unicode="&#x306;" 
d="M-451 1202c-205 0 -352 120 -352 334h147c0 -129 78 -221 205 -221c129 0 206 92 206 221h147c0 -214 -147 -334 -353 -334z" />
    <glyph glyph-name="uni030A" unicode="&#x30a;" 
d="M-332 1147c-125 0 -226 102 -226 225s101 223 226 223c122 0 222 -100 222 -223s-100 -225 -222 -225zM-332 1250c67 0 121 50 121 122c0 67 -54 124 -121 124c-69 0 -121 -57 -121 -124c0 -72 52 -122 121 -122z" />
    <glyph glyph-name="tildecomb" unicode="&#x303;" 
d="M-312 1153c-74 0 -129 35 -170 99c-20 32 -41 45 -69 45c-51 0 -78 -55 -78 -131h-117c0 143 73 246 191 246c76 0 133 -42 169 -100c17 -27 37 -44 71 -44c51 0 77 51 77 130h117c0 -138 -69 -245 -191 -245z" />
    <glyph glyph-name="uni0304" unicode="&#x304;" 
d="M-814 1241v140h655v-140h-655z" />
    <glyph glyph-name="hookabovecomb" unicode="&#x309;" 
d="M-343 1148v127c74 14 115 47 115 103c0 43 -27 77 -78 77c-30 0 -59 -11 -86 -35l-59 83c40 33 91 53 153 53c117 0 191 -70 191 -172c0 -89 -55 -134 -128 -156v-80h-108z" />
    <glyph glyph-name="uni0312" unicode="&#x312;" 
d="M-267 1531h166l-124 -316h-238z" />
    <glyph glyph-name="uni031B" unicode="&#x31b;" 
d="M-316 773c-56 0 -128 22 -190 60l47 77c38 -20 74 -28 101 -28c70 0 94 43 94 146v115h125v-137c0 -178 -81 -233 -177 -233z" />
    <glyph glyph-name="dotbelowcomb" unicode="&#x323;" 
d="M-265 -512c-78 0 -142 62 -142 141c0 77 64 141 142 141c76 0 141 -64 141 -141c0 -79 -65 -141 -141 -141z" />
    <glyph glyph-name="uni0326" unicode="&#x326;" 
d="M-304 -566l-117 53l164 370h205z" />
    <glyph glyph-name="uni0327" unicode="&#x327;" 
d="M-298 -532c-107 0 -202 62 -237 141l106 40c25 -42 80 -70 127 -70c57 0 107 43 107 106c0 66 -50 102 -111 102c-27 0 -54 -8 -77 -26l-90 56l116 221h115l-88 -168c17 3 34 6 51 6c113 0 197 -78 197 -191c0 -121 -94 -217 -216 -217z" />
    <glyph glyph-name="uni0328" unicode="&#x328;" 
d="M-255 -406c-113 0 -184 36 -184 102c0 91 125 228 237 334l73 -30c-60 -57 -170 -165 -170 -224c0 -26 22 -39 68 -39c34 0 76 13 102 35v-155c-36 -14 -82 -23 -126 -23z" />
    <glyph glyph-name="uni0335" unicode="&#x335;" 
d="M-808 451v145h648v-145h-648z" />
    <glyph glyph-name="uni0336" unicode="&#x336;" 
d="M-1649 480v105h1491v-105h-1491z" />
    <glyph glyph-name="uni0337" unicode="&#x337;" 
d="M-638 261v155l588 438v-156z" />
    <glyph glyph-name="uni0338" unicode="&#x338;" 
d="M-906 210l809 1160l100 -60l-809 -1160z" />
    <glyph glyph-name="uni0308.case" 
d="M-668 1536c-78 0 -142 63 -142 141s64 141 142 141c76 0 141 -63 141 -141s-65 -141 -141 -141zM-265 1536c-78 0 -143 63 -143 141s65 141 143 141c75 0 140 -63 140 -141s-65 -141 -140 -141z" />
    <glyph glyph-name="uni0307.case" 
d="M-265 1536c-78 0 -142 63 -142 141s64 141 142 141c76 0 141 -63 141 -141s-65 -141 -141 -141z" />
    <glyph glyph-name="gravecomb.case" 
d="M-194 1567l-225 263l116 84l257 -347h-148z" />
    <glyph glyph-name="acutecomb.case" 
d="M-438 1567l257 347l117 -84l-225 -263h-149z" />
    <glyph glyph-name="uni030B.case" 
d="M-807 1567l257 347l117 -84l-225 -263h-149zM-438 1567l257 347l116 -84l-225 -263h-148z" />
    <glyph glyph-name="uni0302.case" 
d="M-498 1567h-148l219 297h151l219 -297h-148l-147 189z" />
    <glyph glyph-name="uni030C.case" 
d="M-430 1567l-220 297h148l146 -191l147 191h148l-219 -297h-150z" />
    <glyph glyph-name="uni0306.case" 
d="M-458 1567c-205 0 -352 79 -352 282h137c0 -118 88 -170 215 -170c129 0 217 52 217 170h136c0 -203 -146 -282 -353 -282z" />
    <glyph glyph-name="uni030A.case" 
d="M-332 1567c-125 0 -226 102 -226 225s101 223 226 223c122 0 222 -100 222 -223s-100 -225 -222 -225zM-332 1670c67 0 121 50 121 122c0 67 -54 124 -121 124c-69 0 -121 -57 -121 -124c0 -72 52 -122 121 -122z" />
    <glyph glyph-name="tildecomb.case" 
d="M-335 1569c-92 0 -137 46 -170 88c-27 37 -51 72 -99 72c-64 0 -96 -63 -96 -146h-123c0 148 81 255 216 255c86 0 133 -41 167 -83c30 -36 55 -76 105 -76c62 0 92 57 92 144h125c0 -144 -76 -254 -217 -254z" />
    <glyph glyph-name="uni0304.case" 
d="M-814 1567v140h655v-140h-655z" />
    <glyph glyph-name="hookabovecomb.case" 
d="M-343 1536v127c74 14 115 47 115 103c0 43 -27 77 -78 77c-30 0 -59 -11 -86 -35l-59 83c40 33 91 54 153 54c117 0 191 -71 191 -172c0 -90 -55 -135 -128 -157v-80h-108z" />
    <glyph glyph-name="uni0312.case" 
d="M-268 1884h166l-124 -317h-238z" />
    <glyph glyph-name="uni0338.case" 
d="M-1199 -8l1106 1588l103 -63l-1105 -1587z" />
    <glyph glyph-name="acute" unicode="&#xb4;" horiz-adv-x="484" 
d="M46 1214l257 348l117 -84l-225 -264h-149z" />
    <glyph glyph-name="breve" unicode="&#x2d8;" horiz-adv-x="900" 
d="M449 1202c-205 0 -352 120 -352 334h147c0 -129 78 -221 205 -221c129 0 206 92 206 221h147c0 -214 -147 -334 -353 -334z" />
    <glyph glyph-name="caron" unicode="&#x2c7;" horiz-adv-x="710" 
d="M280 1239l-220 297h148l146 -190l147 190h148l-219 -297h-150z" />
    <glyph glyph-name="cedilla" unicode="&#xb8;" horiz-adv-x="603" 
d="M305 -532c-107 0 -202 62 -237 141l106 40c25 -42 80 -70 127 -70c57 0 107 43 107 106c0 66 -50 102 -111 102c-27 0 -54 -8 -77 -26l-90 56l116 221h115l-88 -168c17 3 34 6 51 6c113 0 197 -78 197 -191c0 -121 -94 -217 -216 -217z" />
    <glyph glyph-name="circumflex" unicode="&#x2c6;" horiz-adv-x="703" 
d="M205 1239h-148l219 297h151l219 -297h-148l-147 189z" />
    <glyph glyph-name="dieresis" unicode="&#xa8;" horiz-adv-x="934" 
d="M266 1198c-78 0 -142 64 -142 141c0 78 64 141 142 141c76 0 141 -63 141 -141c0 -77 -65 -141 -141 -141zM669 1198c-78 0 -143 64 -143 141c0 78 65 141 143 141c75 0 140 -63 140 -141c0 -77 -65 -141 -140 -141z" />
    <glyph glyph-name="dotaccent" unicode="&#x2d9;" horiz-adv-x="531" 
d="M266 1198c-78 0 -142 64 -142 141c0 78 64 141 142 141c76 0 141 -63 141 -141c0 -77 -65 -141 -141 -141z" />
    <glyph glyph-name="grave" unicode="`" horiz-adv-x="484" 
d="M290 1214l-225 264l116 84l257 -348h-148z" />
    <glyph glyph-name="hungarumlaut" unicode="&#x2dd;" horiz-adv-x="853" 
d="M46 1214l257 348l117 -84l-225 -264h-149zM415 1214l257 348l116 -84l-225 -264h-148z" />
    <glyph glyph-name="macron" unicode="&#xaf;" horiz-adv-x="973" 
d="M159 1241v140h655v-140h-655z" />
    <glyph glyph-name="ogonek" unicode="&#x2db;" horiz-adv-x="521" 
d="M266 -406c-113 0 -184 36 -184 102c0 91 125 228 237 334l73 -30c-60 -57 -170 -165 -170 -224c0 -26 22 -39 68 -39c34 0 76 13 102 35v-155c-36 -14 -82 -23 -126 -23z" />
    <glyph glyph-name="ring" unicode="&#x2da;" horiz-adv-x="666" 
d="M334 1147c-125 0 -226 102 -226 225s101 223 226 223c122 0 222 -100 222 -223s-100 -225 -222 -225zM334 1250c67 0 121 50 121 122c0 67 -54 124 -121 124c-69 0 -121 -57 -121 -124c0 -72 52 -122 121 -122z" />
    <glyph glyph-name="tilde" unicode="&#x2dc;" horiz-adv-x="867" 
d="M555 1153c-74 0 -129 35 -170 99c-20 32 -41 45 -69 45c-51 0 -78 -55 -78 -131h-117c0 143 73 246 191 246c76 0 133 -42 169 -100c17 -27 37 -44 71 -44c51 0 77 51 77 130h117c0 -138 -69 -245 -191 -245z" />
    <glyph glyph-name="uni03060301" 
d="M-528 1691l257 348l117 -84l-225 -264h-149zM-451 1202c-205 0 -352 120 -352 334h147c0 -129 78 -221 205 -221c129 0 206 92 206 221h147c0 -214 -147 -334 -353 -334z" />
    <glyph glyph-name="uni03060300" 
d="M-524 1691l-225 264l116 84l257 -348h-148zM-451 1202c-205 0 -352 120 -352 334h147c0 -129 78 -221 205 -221c129 0 206 92 206 221h147c0 -214 -147 -334 -353 -334z" />
    <glyph glyph-name="uni03060309" 
d="M-502 1625v127c74 14 115 47 115 103c0 43 -27 77 -78 77c-30 0 -59 -11 -86 -35l-59 83c40 33 91 53 153 53c117 0 191 -70 191 -172c0 -89 -55 -134 -128 -156v-80h-108zM-451 1202c-205 0 -352 120 -352 334h147c0 -129 78 -221 205 -221c129 0 206 92 206 221h147
c0 -214 -147 -334 -353 -334z" />
    <glyph glyph-name="uni03060303" 
d="M-319 1683c-74 0 -129 35 -170 99c-20 32 -41 45 -69 45c-51 0 -78 -55 -78 -131h-117c0 143 73 246 191 246c76 0 133 -42 169 -100c17 -27 37 -44 71 -44c51 0 77 51 77 130h117c0 -138 -69 -245 -191 -245zM-451 1202c-205 0 -352 120 -352 334h147
c0 -129 78 -221 205 -221c129 0 206 92 206 221h147c0 -214 -147 -334 -353 -334z" />
    <glyph glyph-name="uni03020301" 
d="M-430 1691l257 348l117 -84l-225 -264h-149zM-498 1239h-148l219 297h151l219 -297h-148l-147 189z" />
    <glyph glyph-name="uni03020300" 
d="M-426 1691l-225 264l116 84l257 -348h-148zM-498 1239h-148l219 297h151l219 -297h-148l-147 189z" />
    <glyph glyph-name="uni03020309" 
d="M-404 1625v127c74 14 115 47 115 103c0 43 -27 77 -78 77c-30 0 -59 -11 -86 -35l-59 83c40 33 91 53 153 53c117 0 191 -70 191 -172c0 -89 -55 -134 -128 -156v-80h-108zM-498 1239h-148l219 297h151l219 -297h-148l-147 189z" />
    <glyph glyph-name="uni03020303" 
d="M-221 1683c-74 0 -129 35 -170 99c-20 32 -41 45 -69 45c-51 0 -78 -55 -78 -131h-117c0 143 73 246 191 246c76 0 133 -42 169 -100c17 -27 37 -44 71 -44c51 0 77 51 77 130h117c0 -138 -69 -245 -191 -245zM-498 1239h-148l219 297h151l219 -297h-148l-147 189z" />
    <glyph glyph-name="uni03060301.case" 
d="M-534 1922l257 347l117 -84l-225 -263h-149zM-458 1567c-205 0 -352 79 -352 282h137c0 -118 88 -170 215 -170c129 0 217 52 217 170h136c0 -203 -146 -282 -353 -282z" />
    <glyph glyph-name="uni03060300.case" 
d="M-530 1922l-225 263l116 84l257 -347h-148zM-458 1567c-205 0 -352 79 -352 282h137c0 -118 88 -170 215 -170c129 0 217 52 217 170h136c0 -203 -146 -282 -353 -282z" />
    <glyph glyph-name="uni03060309.case" 
d="M-508 1891v127c74 14 115 47 115 103c0 43 -27 77 -78 77c-30 0 -59 -11 -86 -35l-59 83c40 33 91 54 153 54c117 0 191 -71 191 -172c0 -90 -55 -135 -128 -157v-80h-108zM-458 1567c-205 0 -352 79 -352 282h137c0 -118 88 -170 215 -170c129 0 217 52 217 170h136
c0 -203 -146 -282 -353 -282z" />
    <glyph glyph-name="uni03060303.case" 
d="M-311 1924c-92 0 -137 46 -170 88c-27 37 -51 72 -99 72c-64 0 -96 -63 -96 -146h-123c0 148 81 255 216 255c86 0 133 -41 167 -83c30 -36 55 -76 105 -76c62 0 92 57 92 144h125c0 -144 -76 -254 -217 -254zM-458 1567c-205 0 -352 79 -352 282h137
c0 -118 88 -170 215 -170c129 0 217 52 217 170h136c0 -203 -146 -282 -353 -282z" />
    <glyph glyph-name="uni03020301.case" 
d="M-430 1960l257 347l117 -84l-225 -263h-149zM-498 1567h-148l219 297h151l219 -297h-148l-147 189z" />
    <glyph glyph-name="uni03020300.case" 
d="M-426 1960l-225 263l116 84l257 -347h-148zM-498 1567h-148l219 297h151l219 -297h-148l-147 189z" />
    <glyph glyph-name="uni03020309.case" 
d="M-404 1929v127c74 14 115 47 115 103c0 43 -27 77 -78 77c-30 0 -59 -11 -86 -35l-59 83c40 33 91 54 153 54c117 0 191 -71 191 -172c0 -90 -55 -135 -128 -157v-80h-108zM-498 1567h-148l219 297h151l219 -297h-148l-147 189z" />
    <glyph glyph-name="uni03020303.case" 
d="M-207 1962c-92 0 -137 46 -170 88c-27 37 -51 72 -99 72c-64 0 -96 -63 -96 -146h-123c0 148 81 255 216 255c86 0 133 -41 167 -83c30 -36 55 -76 105 -76c62 0 92 57 92 144h125c0 -144 -76 -254 -217 -254zM-498 1567h-148l219 297h151l219 -297h-148l-147 189z" />
    </font>
</defs>
</svg>
