<?xml version="1.0" standalone="no"?>
<!DOCTYPE svg PUBLIC "-//W3C//DTD SVG 1.1//EN" "http://www.w3.org/Graphics/SVG/1.1/DTD/svg11.dtd" >
<svg xmlns="http://www.w3.org/2000/svg" xmlns:xlink="http://www.w3.org/1999/xlink" version="1.1">
<metadata>
Created by FontForge 20190801 at Thu Mar  2 18:55:52 2017
 By Jimmy Wärting
Copyright \(c\)2016. Cerebri Sans is a trademark of Alfredo Marco Pradil. All rights reserved.
</metadata>
<defs>
<font id="CerebriSans-Regular" horiz-adv-x="0" >
  <font-face 
    font-family="Cerebri Sans"
    font-weight="400"
    font-stretch="normal"
    units-per-em="2048"
    panose-1="0 0 5 0 0 0 0 0 0 0"
    ascent="1536"
    descent="-512"
    x-height="983"
    cap-height="1408"
    bbox="-1638 -559 2769 2331"
    underline-thickness="102"
    underline-position="-184"
    stemh="164"
    stemv="172"
    unicode-range="U+0020-FB02"
  />
<missing-glyph horiz-adv-x="1252" 
d="M204 0v1536h844v-1536h-844zM340 135h573v1266h-573v-1266z" />
    <glyph glyph-name="f_f" unicode="ff" horiz-adv-x="1283" 
d="M227 0v845h-190v138h190v206c0 303 169 347 400 347v-145c-112 0 -228 2 -228 -205v-203h460v206c0 303 169 347 400 347v-145c-112 0 -228 2 -228 -205v-203h228v-138h-228v-845h-172v845h-460v-845h-172z" />
    <glyph glyph-name="fi" unicode="fi" horiz-adv-x="1177" 
d="M227 1189c0 303 169 347 400 347v-145c-112 0 -228 2 -228 -205v-203h228v-138h-228v-845h-172v845h-190v138h190v206zM915 1214c-64 0 -117 53 -117 117s53 116 117 116c63 0 116 -52 116 -116s-53 -117 -116 -117zM827 0v983h174v-983h-174z" />
    <glyph glyph-name="fl" unicode="fl" horiz-adv-x="1178" 
d="M227 1189c0 303 169 347 400 347v-145c-112 0 -228 2 -228 -205v-203h228v-138h-228v-845h-172v845h-190v138h190v206zM827 1536h175v-1536h-175v1536z" />
    <glyph glyph-name=".notdef" horiz-adv-x="1252" 
d="M204 0v1536h844v-1536h-844zM340 135h573v1266h-573v-1266z" />
    <glyph glyph-name="A" unicode="A" horiz-adv-x="1372" 
d="M1125 0l-121 337h-637l-120 -337h-187l519 1408h214l519 -1408h-187zM424 495h524l-262 733z" />
    <glyph glyph-name="Aacute" unicode="&#xc1;" horiz-adv-x="1372" 
d="M962 1813l-224 -259h-119l251 326zM1125 0l-121 337h-637l-120 -337h-187l519 1408h214l519 -1408h-187zM424 495h524l-262 733z" />
    <glyph glyph-name="Abreve" unicode="&#x102;" horiz-adv-x="1372" 
d="M683 1554c-195 0 -338 80 -338 270h107c0 -126 97 -180 231 -180c137 0 234 54 234 180h107c0 -190 -143 -270 -341 -270zM1125 0l-121 337h-637l-120 -337h-187l519 1408h214l519 -1408h-187zM424 495h524l-262 733z" />
    <glyph glyph-name="uni1EAE" unicode="&#x1eae;" horiz-adv-x="1372" 
d="M963 2155l-224 -259h-119l251 326zM683 1554c-195 0 -338 80 -338 270h107c0 -126 97 -180 231 -180c137 0 234 54 234 180h107c0 -190 -143 -270 -341 -270zM1125 0l-121 337h-637l-120 -337h-187l519 1408h214l519 -1408h-187zM424 495h524l-262 733z" />
    <glyph glyph-name="uni1EB6" unicode="&#x1eb6;" horiz-adv-x="1372" 
d="M683 1554c-195 0 -338 80 -338 270h107c0 -126 97 -180 231 -180c137 0 234 54 234 180h107c0 -190 -143 -270 -341 -270zM1312 0h-187l-121 337h-637l-120 -337h-187l519 1408h214zM424 495h524l-262 733zM685 -279c63 0 116 -53 116 -116c0 -66 -53 -117 -116 -117
c-64 0 -117 51 -117 117c0 63 53 116 117 116z" />
    <glyph glyph-name="uni1EB0" unicode="&#x1eb0;" horiz-adv-x="1372" 
d="M747 1896h-119l-225 259l92 67zM683 1554c-195 0 -338 80 -338 270h107c0 -126 97 -180 231 -180c137 0 234 54 234 180h107c0 -190 -143 -270 -341 -270zM1125 0l-121 337h-637l-120 -337h-187l519 1408h214l519 -1408h-187zM424 495h524l-262 733z" />
    <glyph glyph-name="uni1EB2" unicode="&#x1eb2;" horiz-adv-x="1372" 
d="M675 2192c-32 0 -59 -11 -86 -31l-51 69c38 31 85 49 138 49c109 0 185 -70 185 -168c0 -82 -51 -132 -130 -157v-76h-88v119c73 15 119 48 119 110c0 47 -31 85 -87 85zM683 1554c-195 0 -338 80 -338 270h107c0 -126 97 -180 231 -180c137 0 234 54 234 180h107
c0 -190 -143 -270 -341 -270zM1125 0l-121 337h-637l-120 -337h-187l519 1408h214l519 -1408h-187zM424 495h524l-262 733z" />
    <glyph glyph-name="uni1EB4" unicode="&#x1eb4;" horiz-adv-x="1372" 
d="M555 2059c-70 0 -109 -65 -109 -154h-94c0 140 76 243 202 243c85 0 131 -46 166 -93c27 -35 54 -75 108 -75c69 0 106 59 106 151h97c0 -137 -74 -241 -203 -241c-91 0 -137 51 -170 96c-26 37 -52 73 -103 73zM683 1554c-195 0 -338 80 -338 270h107
c0 -126 97 -180 231 -180c137 0 234 54 234 180h107c0 -190 -143 -270 -341 -270zM1125 0l-121 337h-637l-120 -337h-187l519 1408h214l519 -1408h-187zM424 495h524l-262 733z" />
    <glyph glyph-name="uni01CD" unicode="&#x1cd;" horiz-adv-x="1372" 
d="M748 1554h-127l-211 295h117l157 -214l156 214h119zM1125 0l-121 337h-637l-120 -337h-187l519 1408h214l519 -1408h-187zM424 495h524l-262 733z" />
    <glyph glyph-name="Acircumflex" unicode="&#xc2;" horiz-adv-x="1372" 
d="M683 1766l-156 -212h-118l211 295h128l211 -295h-119zM1125 0l-121 337h-637l-120 -337h-187l519 1408h214l519 -1408h-187zM424 495h524l-262 733z" />
    <glyph glyph-name="uni1EA4" unicode="&#x1ea4;" horiz-adv-x="1372" 
d="M960 2207l-224 -259h-119l251 326zM683 1766l-156 -212h-118l211 295h128l211 -295h-119zM1125 0l-121 337h-637l-120 -337h-187l519 1408h214l519 -1408h-187zM424 495h524l-262 733z" />
    <glyph glyph-name="uni1EAC" unicode="&#x1eac;" horiz-adv-x="1372" 
d="M683 1766l-156 -212h-118l211 295h128l211 -295h-119zM1312 0h-187l-121 337h-637l-120 -337h-187l519 1408h214zM424 495h524l-262 733zM685 -279c63 0 116 -53 116 -116c0 -66 -53 -117 -116 -117c-64 0 -117 51 -117 117c0 63 53 116 117 116z" />
    <glyph glyph-name="uni1EA6" unicode="&#x1ea6;" horiz-adv-x="1372" 
d="M744 1948h-119l-225 259l92 67zM409 1554l211 295h128l211 -295h-119l-157 212l-156 -212h-118zM1125 0l-121 337h-637l-120 -337h-187l519 1408h214l519 -1408h-187zM424 495h524l-262 733z" />
    <glyph glyph-name="uni1EA8" unicode="&#x1ea8;" horiz-adv-x="1372" 
d="M672 2244c-32 0 -59 -11 -86 -31l-51 69c38 31 85 49 138 49c109 0 185 -70 185 -168c0 -82 -51 -132 -130 -157v-76h-88v119c73 15 119 48 119 110c0 47 -31 85 -87 85zM683 1766l-156 -212h-118l211 295h128l211 -295h-119zM1125 0l-121 337h-637l-120 -337h-187
l519 1408h214l519 -1408h-187zM424 495h524l-262 733z" />
    <glyph glyph-name="uni1EAA" unicode="&#x1eaa;" horiz-adv-x="1372" 
d="M552 2111c-70 0 -109 -65 -109 -154h-94c0 140 76 243 202 243c85 0 131 -46 166 -93c27 -35 54 -75 108 -75c69 0 106 59 106 151h97c0 -137 -74 -241 -203 -241c-91 0 -137 51 -170 96c-26 37 -52 73 -103 73zM620 1849h128l211 -295h-119l-157 212l-156 -212h-118z
M1125 0l-121 337h-637l-120 -337h-187l519 1408h214l519 -1408h-187zM424 495h524l-262 733z" />
    <glyph glyph-name="Adieresis" unicode="&#xc4;" horiz-adv-x="1372" 
d="M498 1536c-64 0 -117 53 -117 117s53 116 117 116c63 0 116 -52 116 -116s-53 -117 -116 -117zM872 1536c-64 0 -117 53 -117 117s53 116 117 116c63 0 116 -52 116 -116s-53 -117 -116 -117zM1125 0l-121 337h-637l-120 -337h-187l519 1408h214l519 -1408h-187zM424 495
h524l-262 733z" />
    <glyph glyph-name="uni1EA0" unicode="&#x1ea0;" horiz-adv-x="1372" 
d="M1312 0h-187l-121 337h-637l-120 -337h-187l519 1408h214zM424 495h524l-262 733zM685 -279c63 0 116 -53 116 -116c0 -66 -53 -117 -116 -117c-64 0 -117 51 -117 117c0 63 53 116 117 116z" />
    <glyph glyph-name="Agrave" unicode="&#xc0;" horiz-adv-x="1372" 
d="M746 1554h-119l-225 259l92 67zM1125 0l-121 337h-637l-120 -337h-187l519 1408h214l519 -1408h-187zM424 495h524l-262 733z" />
    <glyph glyph-name="uni1EA2" unicode="&#x1ea2;" horiz-adv-x="1372" 
d="M674 1850c-32 0 -59 -11 -86 -31l-51 69c38 31 85 49 138 49c109 0 185 -70 185 -168c0 -82 -51 -132 -130 -157v-76h-88v119c73 15 119 48 119 110c0 47 -31 85 -87 85zM1125 0l-121 337h-637l-120 -337h-187l519 1408h214l519 -1408h-187zM424 495h524l-262 733z" />
    <glyph glyph-name="Amacron" unicode="&#x100;" horiz-adv-x="1372" 
d="M1008 1664v-110h-647v110h647zM1125 0l-121 337h-637l-120 -337h-187l519 1408h214l519 -1408h-187zM424 495h524l-262 733z" />
    <glyph glyph-name="Aogonek" unicode="&#x104;" horiz-adv-x="1372" 
d="M1144 -228c0 -27 22 -43 75 -43c31 0 67 11 93 30v-127c-31 -12 -70 -18 -108 -18c-116 0 -175 35 -175 94c0 79 101 197 194 292h-98l-121 337h-637l-120 -337h-187l519 1408h214l519 -1408c-50 -52 -168 -164 -168 -228zM424 495h524l-262 733z" />
    <glyph glyph-name="Aring" unicode="&#xc5;" horiz-adv-x="1372" 
d="M685 1554c-117 0 -211 96 -211 210c0 116 94 209 211 209c114 0 208 -93 208 -209c0 -114 -94 -210 -208 -210zM685 1892c-70 0 -125 -58 -125 -128c0 -73 55 -125 125 -125s125 52 125 125c0 70 -55 128 -125 128zM1125 0l-121 337h-637l-120 -337h-187l519 1408h214
l519 -1408h-187zM424 495h524l-262 733z" />
    <glyph glyph-name="Atilde" unicode="&#xc3;" horiz-adv-x="1372" 
d="M554 1717c-70 0 -109 -65 -109 -154h-94c0 140 76 243 202 243c85 0 131 -46 166 -93c27 -35 54 -75 108 -75c69 0 106 59 106 151h97c0 -137 -74 -241 -203 -241c-91 0 -137 51 -170 96c-26 37 -52 73 -103 73zM1125 0l-121 337h-637l-120 -337h-187l519 1408h214
l519 -1408h-187zM424 495h524l-262 733z" />
    <glyph glyph-name="AE" unicode="&#xc6;" horiz-adv-x="1768" 
d="M60 0l518 1408h1069v-162h-607v-462h531v-162h-531v-459h607v-163h-786v337h-494l-120 -337h-187zM422 495h439v750h-169z" />
    <glyph glyph-name="B" unicode="B" horiz-adv-x="1279" 
d="M889 735c166 -42 278 -159 278 -353c0 -224 -155 -382 -398 -382h-548v1408h427c251 0 416 -153 416 -373c0 -135 -62 -246 -175 -300zM896 1024c0 128 -93 227 -249 227h-253v-460h286c129 0 216 105 216 233zM739 159c161 0 254 111 254 241c0 137 -98 243 -267 243
h-332v-484h345z" />
    <glyph glyph-name="C" unicode="C" horiz-adv-x="1532" 
d="M824 -19c-397 0 -701 273 -701 724c0 449 304 722 701 722c278 0 512 -138 622 -374l-165 -68c-86 174 -256 271 -457 271c-292 0 -523 -200 -523 -551c0 -353 231 -553 523 -553c201 0 371 96 457 270l165 -67c-110 -237 -344 -374 -622 -374z" />
    <glyph glyph-name="Cacute" unicode="&#x106;" horiz-adv-x="1532" 
d="M758 1554l251 326l92 -67l-224 -259h-119zM824 -19c-397 0 -701 273 -701 724c0 449 304 722 701 722c278 0 512 -138 622 -374l-165 -68c-86 174 -256 271 -457 271c-292 0 -523 -200 -523 -551c0 -353 231 -553 523 -553c201 0 371 96 457 270l165 -67
c-110 -237 -344 -374 -622 -374z" />
    <glyph glyph-name="Ccaron" unicode="&#x10c;" horiz-adv-x="1532" 
d="M760 1554l-211 295h117l157 -214l156 214h119l-211 -295h-127zM824 -19c-397 0 -701 273 -701 724c0 449 304 722 701 722c278 0 512 -138 622 -374l-165 -68c-86 174 -256 271 -457 271c-292 0 -523 -200 -523 -551c0 -353 231 -553 523 -553c201 0 371 96 457 270
l165 -67c-110 -237 -344 -374 -622 -374z" />
    <glyph glyph-name="Ccedilla" unicode="&#xc7;" horiz-adv-x="1532" 
d="M824 152c201 0 371 96 457 270l165 -67c-105 -226 -323 -361 -584 -373l-58 -120c18 4 37 8 55 8c115 0 200 -77 200 -192c0 -117 -91 -210 -210 -210c-98 0 -196 57 -236 130l86 36c30 -43 95 -75 148 -75c65 0 119 50 119 119c0 74 -54 114 -125 114
c-26 0 -54 -6 -80 -20l-75 49l81 162c-369 25 -644 293 -644 722c0 449 304 722 701 722c278 0 512 -138 622 -374l-165 -68c-86 174 -256 271 -457 271c-292 0 -523 -200 -523 -551c0 -353 231 -553 523 -553z" />
    <glyph glyph-name="Cdotaccent" unicode="&#x10a;" horiz-adv-x="1532" 
d="M824 1536c-64 0 -117 53 -117 117s53 116 117 116c63 0 116 -52 116 -116s-53 -117 -116 -117zM824 -19c-397 0 -701 273 -701 724c0 449 304 722 701 722c278 0 512 -138 622 -374l-165 -68c-86 174 -256 271 -457 271c-292 0 -523 -200 -523 -551
c0 -353 231 -553 523 -553c201 0 371 96 457 270l165 -67c-110 -237 -344 -374 -622 -374z" />
    <glyph glyph-name="D" unicode="D" horiz-adv-x="1452" 
d="M221 0v1408h454c430 0 650 -292 650 -703c0 -413 -220 -705 -650 -705h-454zM400 163h269c318 0 470 213 470 542c0 326 -152 540 -470 540h-269v-1082z" />
    <glyph glyph-name="Eth" unicode="&#xd0;" horiz-adv-x="1452" 
d="M675 1408c430 0 650 -292 650 -703c0 -413 -220 -705 -650 -705h-454v647h-162v115h162v646h454zM669 163c318 0 470 213 470 542c0 326 -152 540 -470 540h-269v-483h265v-115h-265v-484h269z" />
    <glyph glyph-name="Dcaron" unicode="&#x10e;" horiz-adv-x="1452" 
d="M540 1554l-211 295h117l157 -214l156 214h119l-211 -295h-127zM221 0v1408h454c430 0 650 -292 650 -703c0 -413 -220 -705 -650 -705h-454zM400 163h269c318 0 470 213 470 542c0 326 -152 540 -470 540h-269v-1082z" />
    <glyph glyph-name="Dcroat" unicode="&#x110;" horiz-adv-x="1452" 
d="M675 1408c430 0 650 -292 650 -703c0 -413 -220 -705 -650 -705h-454v647h-162v115h162v646h454zM669 163c318 0 470 213 470 542c0 326 -152 540 -470 540h-269v-483h265v-115h-265v-484h269z" />
    <glyph glyph-name="E" unicode="E" horiz-adv-x="1098" 
d="M976 1245h-572v-461h504v-161h-504v-460h572v-163h-755v1408h755v-163z" />
    <glyph glyph-name="Eacute" unicode="&#xc9;" horiz-adv-x="1098" 
d="M879 1813l-224 -259h-119l251 326zM976 1245h-572v-461h504v-161h-504v-460h572v-163h-755v1408h755v-163z" />
    <glyph glyph-name="Ecaron" unicode="&#x11a;" horiz-adv-x="1098" 
d="M665 1554h-127l-211 295h117l157 -214l156 214h119zM976 1245h-572v-461h504v-161h-504v-460h572v-163h-755v1408h755v-163z" />
    <glyph glyph-name="Ecircumflex" unicode="&#xca;" horiz-adv-x="1098" 
d="M600 1766l-156 -212h-118l211 295h128l211 -295h-119zM976 1245h-572v-461h504v-161h-504v-460h572v-163h-755v1408h755v-163z" />
    <glyph glyph-name="uni1EBE" unicode="&#x1ebe;" horiz-adv-x="1098" 
d="M877 2207l-224 -259h-119l251 326zM600 1766l-156 -212h-118l211 295h128l211 -295h-119zM976 1245h-572v-461h504v-161h-504v-460h572v-163h-755v1408h755v-163z" />
    <glyph glyph-name="uni1EC6" unicode="&#x1ec6;" horiz-adv-x="1098" 
d="M600 1766l-156 -212h-118l211 295h128l211 -295h-119zM976 1245h-572v-461h504v-161h-504v-460h572v-163h-755v1408h755v-163zM602 -279c63 0 116 -53 116 -116c0 -66 -53 -117 -116 -117c-64 0 -117 51 -117 117c0 63 53 116 117 116z" />
    <glyph glyph-name="uni1EC0" unicode="&#x1ec0;" horiz-adv-x="1098" 
d="M661 1948h-119l-225 259l92 67zM326 1554l211 295h128l211 -295h-119l-157 212l-156 -212h-118zM976 1245h-572v-461h504v-161h-504v-460h572v-163h-755v1408h755v-163z" />
    <glyph glyph-name="uni1EC2" unicode="&#x1ec2;" horiz-adv-x="1098" 
d="M589 2244c-32 0 -59 -11 -86 -31l-51 69c38 31 85 49 138 49c109 0 185 -70 185 -168c0 -82 -51 -132 -130 -157v-76h-88v119c73 15 119 48 119 110c0 47 -31 85 -87 85zM600 1766l-156 -212h-118l211 295h128l211 -295h-119zM976 1245h-572v-461h504v-161h-504v-460h572
v-163h-755v1408h755v-163z" />
    <glyph glyph-name="uni1EC4" unicode="&#x1ec4;" horiz-adv-x="1098" 
d="M469 2111c-70 0 -109 -65 -109 -154h-94c0 140 76 243 202 243c85 0 131 -46 166 -93c27 -35 54 -75 108 -75c69 0 106 59 106 151h97c0 -137 -74 -241 -203 -241c-91 0 -137 51 -170 96c-26 37 -52 73 -103 73zM537 1849h128l211 -295h-119l-157 212l-156 -212h-118z
M976 1245h-572v-461h504v-161h-504v-460h572v-163h-755v1408h755v-163z" />
    <glyph glyph-name="Edieresis" unicode="&#xcb;" horiz-adv-x="1098" 
d="M415 1536c-64 0 -117 53 -117 117s53 116 117 116c63 0 116 -52 116 -116s-53 -117 -116 -117zM789 1536c-64 0 -117 53 -117 117s53 116 117 116c63 0 116 -52 116 -116s-53 -117 -116 -117zM976 1245h-572v-461h504v-161h-504v-460h572v-163h-755v1408h755v-163z" />
    <glyph glyph-name="Edotaccent" unicode="&#x116;" horiz-adv-x="1098" 
d="M602 1536c-64 0 -117 53 -117 117s53 116 117 116c63 0 116 -52 116 -116s-53 -117 -116 -117zM976 1245h-572v-461h504v-161h-504v-460h572v-163h-755v1408h755v-163z" />
    <glyph glyph-name="uni1EB8" unicode="&#x1eb8;" horiz-adv-x="1098" 
d="M976 1245h-572v-461h504v-161h-504v-460h572v-163h-755v1408h755v-163zM602 -279c63 0 116 -53 116 -116c0 -66 -53 -117 -116 -117c-64 0 -117 51 -117 117c0 63 53 116 117 116z" />
    <glyph glyph-name="Egrave" unicode="&#xc8;" horiz-adv-x="1098" 
d="M663 1554h-119l-225 259l92 67zM976 1245h-572v-461h504v-161h-504v-460h572v-163h-755v1408h755v-163z" />
    <glyph glyph-name="uni1EBA" unicode="&#x1eba;" horiz-adv-x="1098" 
d="M591 1850c-32 0 -59 -11 -86 -31l-51 69c38 31 85 49 138 49c109 0 185 -70 185 -168c0 -82 -51 -132 -130 -157v-76h-88v119c73 15 119 48 119 110c0 47 -31 85 -87 85zM976 1245h-572v-461h504v-161h-504v-460h572v-163h-755v1408h755v-163z" />
    <glyph glyph-name="Emacron" unicode="&#x112;" horiz-adv-x="1098" 
d="M925 1664v-110h-647v110h647zM976 1245h-572v-461h504v-161h-504v-460h572v-163h-755v1408h755v-163z" />
    <glyph glyph-name="Eogonek" unicode="&#x118;" horiz-adv-x="1098" 
d="M976 1245h-572v-461h504v-161h-504v-460h572v-163c-50 -52 -168 -164 -168 -228c0 -27 22 -43 75 -43c31 0 67 11 93 30v-127c-31 -12 -70 -18 -108 -18c-116 0 -175 35 -175 94c0 79 101 197 194 292h-666v1408h755v-163z" />
    <glyph glyph-name="uni1EBC" unicode="&#x1ebc;" horiz-adv-x="1098" 
d="M471 1717c-70 0 -109 -65 -109 -154h-94c0 140 76 243 202 243c85 0 131 -46 166 -93c27 -35 54 -75 108 -75c69 0 106 59 106 151h97c0 -137 -74 -241 -203 -241c-91 0 -137 51 -170 96c-26 37 -52 73 -103 73zM976 1245h-572v-461h504v-161h-504v-460h572v-163h-755
v1408h755v-163z" />
    <glyph glyph-name="F" unicode="F" horiz-adv-x="1063" 
d="M982 1245h-578v-460h504v-162h-504v-623h-183v1408h761v-163z" />
    <glyph glyph-name="G" unicode="G" horiz-adv-x="1630" 
d="M819 -19c-393 0 -696 267 -696 719c0 455 304 727 701 727c255 0 476 -112 598 -328l-158 -85c-92 169 -256 248 -440 248c-293 0 -521 -199 -521 -559c0 -356 224 -559 526 -559c251 0 443 144 474 422h-475v152h650v-718h-147v264c-93 -180 -271 -283 -512 -283z" />
    <glyph glyph-name="Gbreve" unicode="&#x11e;" horiz-adv-x="1630" 
d="M813 1554c-195 0 -338 80 -338 270h107c0 -126 97 -180 231 -180c137 0 234 54 234 180h107c0 -190 -143 -270 -341 -270zM819 -19c-393 0 -696 267 -696 719c0 455 304 727 701 727c255 0 476 -112 598 -328l-158 -85c-92 169 -256 248 -440 248
c-293 0 -521 -199 -521 -559c0 -356 224 -559 526 -559c251 0 443 144 474 422h-475v152h650v-718h-147v264c-93 -180 -271 -283 -512 -283z" />
    <glyph glyph-name="Gcommaaccent" unicode="&#x122;" horiz-adv-x="1630" 
d="M819 -19c-393 0 -696 267 -696 719c0 455 304 727 701 727c255 0 476 -112 598 -328l-158 -85c-92 169 -256 248 -440 248c-293 0 -521 -199 -521 -559c0 -356 224 -559 526 -559c251 0 443 144 474 422h-475v152h650v-718h-147v264c-93 -180 -271 -283 -512 -283z
M666 -559l-92 41l160 366h158z" />
    <glyph glyph-name="Gdotaccent" unicode="&#x120;" horiz-adv-x="1630" 
d="M815 1536c-64 0 -117 53 -117 117s53 116 117 116c63 0 116 -52 116 -116s-53 -117 -116 -117zM819 -19c-393 0 -696 267 -696 719c0 455 304 727 701 727c255 0 476 -112 598 -328l-158 -85c-92 169 -256 248 -440 248c-293 0 -521 -199 -521 -559
c0 -356 224 -559 526 -559c251 0 443 144 474 422h-475v152h650v-718h-147v264c-93 -180 -271 -283 -512 -283z" />
    <glyph glyph-name="H" unicode="H" horiz-adv-x="1514" 
d="M1114 1408h179v-1408h-179v625h-713v-625h-180v1408h180v-622h713v622z" />
    <glyph glyph-name="Hbar" unicode="&#x126;" horiz-adv-x="1514" 
d="M1433 1145v-91h-140v-1054h-179v625h-713v-625h-180v1054h-142v91h142v263h180v-263h713v263h179v-263h140zM1114 786v268h-713v-268h713z" />
    <glyph glyph-name="I" unicode="I" horiz-adv-x="621" 
d="M221 0v1408h179v-1408h-179z" />
    <glyph glyph-name="Iacute" unicode="&#xcd;" horiz-adv-x="621" 
d="M244 1554l251 326l92 -67l-224 -259h-119zM221 0v1408h179v-1408h-179z" />
    <glyph glyph-name="uni01CF" unicode="&#x1cf;" horiz-adv-x="621" 
d="M246 1554l-211 295h117l157 -214l156 214h119l-211 -295h-127zM221 0v1408h179v-1408h-179z" />
    <glyph glyph-name="Icircumflex" unicode="&#xce;" horiz-adv-x="621" 
d="M152 1554h-118l211 295h128l211 -295h-119l-157 212zM221 0v1408h179v-1408h-179z" />
    <glyph glyph-name="Idieresis" unicode="&#xcf;" horiz-adv-x="621" 
d="M123 1536c-64 0 -117 53 -117 117s53 116 117 116c63 0 116 -52 116 -116s-53 -117 -116 -117zM497 1536c-64 0 -117 53 -117 117s53 116 117 116c63 0 116 -52 116 -116s-53 -117 -116 -117zM221 0v1408h179v-1408h-179z" />
    <glyph glyph-name="Idotaccent" unicode="&#x130;" horiz-adv-x="621" 
d="M310 1536c-64 0 -117 53 -117 117s53 116 117 116c63 0 116 -52 116 -116s-53 -117 -116 -117zM221 0v1408h179v-1408h-179z" />
    <glyph glyph-name="uni1ECA" unicode="&#x1eca;" horiz-adv-x="621" 
d="M221 0v1408h179v-1408h-179zM310 -512c-64 0 -117 51 -117 117c0 63 53 116 117 116c63 0 116 -53 116 -116c0 -66 -53 -117 -116 -117z" />
    <glyph glyph-name="Igrave" unicode="&#xcc;" horiz-adv-x="621" 
d="M252 1554l-225 259l92 67l252 -326h-119zM221 0v1408h179v-1408h-179z" />
    <glyph glyph-name="uni1EC8" unicode="&#x1ec8;" horiz-adv-x="621" 
d="M267 1536v119c73 15 119 48 119 110c0 47 -31 85 -87 85c-32 0 -59 -11 -86 -31l-51 69c38 31 85 49 138 49c109 0 185 -70 185 -168c0 -82 -51 -132 -130 -157v-76h-88zM221 0v1408h179v-1408h-179z" />
    <glyph glyph-name="Imacron" unicode="&#x12a;" horiz-adv-x="621" 
d="M-14 1554v110h647v-110h-647zM221 0v1408h179v-1408h-179z" />
    <glyph glyph-name="Iogonek" unicode="&#x12e;" horiz-adv-x="621" 
d="M233 -228c0 -27 22 -43 75 -43c31 0 67 11 93 30v-127c-31 -12 -70 -18 -108 -18c-116 0 -175 35 -175 94c0 79 101 197 194 292h-91v1408h179v-1408h1c-50 -52 -168 -164 -168 -228z" />
    <glyph glyph-name="Itilde" unicode="&#x128;" horiz-adv-x="621" 
d="M452 1548c-91 0 -137 51 -170 96c-26 37 -52 73 -103 73c-70 0 -109 -65 -109 -154h-94c0 140 76 243 202 243c85 0 131 -46 166 -93c27 -35 54 -75 108 -75c69 0 106 59 106 151h97c0 -137 -74 -241 -203 -241zM221 0v1408h179v-1408h-179z" />
    <glyph glyph-name="J" unicode="J" horiz-adv-x="967" 
d="M357 -19c-99 0 -209 28 -308 83l78 152c66 -45 142 -69 217 -69c154 0 244 109 244 292v969h179v-1000c0 -266 -164 -427 -410 -427z" />
    <glyph glyph-name="K" unicode="K" horiz-adv-x="1314" 
d="M1030 0l-506 651h-124v-651h-179v1408h179v-595h123l487 595h220l-553 -671l583 -737h-230z" />
    <glyph glyph-name="Kcommaaccent" unicode="&#x136;" horiz-adv-x="1314" 
d="M677 737l583 -737h-230l-506 651h-124v-651h-179v1408h179v-595h123l487 595h220zM397 -518l160 366h158l-226 -407z" />
    <glyph glyph-name="L" unicode="L" horiz-adv-x="946" 
d="M400 163h489v-163h-668v1408h179v-1245z" />
    <glyph glyph-name="Lacute" unicode="&#x139;" horiz-adv-x="946" 
d="M587 1813l-224 -259h-119l251 326zM400 163h489v-163h-668v1408h179v-1245z" />
    <glyph glyph-name="Lcaron" unicode="&#x13d;" horiz-adv-x="1032" 
d="M400 1408v-1245h489v-163h-668v1408h179zM931 1407l-177 -620h-126l122 620h181z" />
    <glyph glyph-name="Lcommaaccent" unicode="&#x13b;" horiz-adv-x="946" 
d="M400 163h489v-163h-668v1408h179v-1245zM314 -518l160 366h158l-226 -407z" />
    <glyph glyph-name="Lslash" unicode="&#x141;" horiz-adv-x="946" 
d="M400 163h489v-163h-668v560l-164 -122v128l164 122v720h179v-586l198 148v-128l-198 -148v-531z" />
    <glyph glyph-name="M" unicode="M" horiz-adv-x="1878" 
d="M1710 0h-174l-94 1162l-450 -1162h-107l-447 1158l-95 -1158h-175l107 1408h236l427 -1098l428 1098h238z" />
    <glyph glyph-name="N" unicode="N" horiz-adv-x="1566" 
d="M1167 1408h178v-1408h-189l-759 1139v-1139h-176v1408h187l759 -1134v1134z" />
    <glyph glyph-name="Nacute" unicode="&#x143;" horiz-adv-x="1566" 
d="M1060 1813l-224 -259h-119l251 326zM1167 1408h178v-1408h-189l-759 1139v-1139h-176v1408h187l759 -1134v1134z" />
    <glyph glyph-name="Ncaron" unicode="&#x147;" horiz-adv-x="1566" 
d="M846 1554h-127l-211 295h117l157 -214l156 214h119zM1167 1408h178v-1408h-189l-759 1139v-1139h-176v1408h187l759 -1134v1134z" />
    <glyph glyph-name="Ncommaaccent" unicode="&#x145;" horiz-adv-x="1566" 
d="M1167 1408h178v-1408h-189l-759 1139v-1139h-176v1408h187l759 -1134v1134zM543 -518l160 366h158l-226 -407z" />
    <glyph glyph-name="Eng" unicode="&#x14a;" horiz-adv-x="1599" 
d="M1202 1408h177v-1408c0 -298 -192 -461 -480 -461v142c179 0 315 104 293 319l-796 1145v-1145h-175v1408h184l797 -1139v1139z" />
    <glyph glyph-name="Ntilde" unicode="&#xd1;" horiz-adv-x="1566" 
d="M652 1717c-70 0 -109 -65 -109 -154h-94c0 140 76 243 202 243c85 0 131 -46 166 -93c27 -35 54 -75 108 -75c69 0 106 59 106 151h97c0 -137 -74 -241 -203 -241c-91 0 -137 51 -170 96c-26 37 -52 73 -103 73zM1167 1408h178v-1408h-189l-759 1139v-1139h-176v1408h187
l759 -1134v1134z" />
    <glyph glyph-name="O" unicode="O" horiz-adv-x="1646" 
d="M824 -19c-397 0 -701 273 -701 724c0 449 304 722 701 722c393 0 699 -273 699 -722c0 -451 -306 -724 -699 -724zM824 150c290 0 520 200 520 555c0 351 -230 551 -520 551c-292 0 -523 -200 -523 -551c0 -355 231 -555 523 -555z" />
    <glyph glyph-name="Oacute" unicode="&#xd3;" horiz-adv-x="1646" 
d="M758 1554l251 326l92 -67l-224 -259h-119zM824 -19c-397 0 -701 273 -701 724c0 449 304 722 701 722c393 0 699 -273 699 -722c0 -451 -306 -724 -699 -724zM824 150c290 0 520 200 520 555c0 351 -230 551 -520 551c-292 0 -523 -200 -523 -551
c0 -355 231 -555 523 -555z" />
    <glyph glyph-name="uni01D1" unicode="&#x1d1;" horiz-adv-x="1646" 
d="M760 1554l-211 295h117l157 -214l156 214h119l-211 -295h-127zM824 -19c-397 0 -701 273 -701 724c0 449 304 722 701 722c393 0 699 -273 699 -722c0 -451 -306 -724 -699 -724zM824 150c290 0 520 200 520 555c0 351 -230 551 -520 551c-292 0 -523 -200 -523 -551
c0 -355 231 -555 523 -555z" />
    <glyph glyph-name="Ocircumflex" unicode="&#xd4;" horiz-adv-x="1646" 
d="M666 1554h-118l211 295h128l211 -295h-119l-157 212zM824 -19c-397 0 -701 273 -701 724c0 449 304 722 701 722c393 0 699 -273 699 -722c0 -451 -306 -724 -699 -724zM824 150c290 0 520 200 520 555c0 351 -230 551 -520 551c-292 0 -523 -200 -523 -551
c0 -355 231 -555 523 -555z" />
    <glyph glyph-name="uni1ED0" unicode="&#x1ed0;" horiz-adv-x="1646" 
d="M756 1948l251 326l92 -67l-224 -259h-119zM666 1554h-118l211 295h128l211 -295h-119l-157 212zM824 -19c-397 0 -701 273 -701 724c0 449 304 722 701 722c393 0 699 -273 699 -722c0 -451 -306 -724 -699 -724zM824 150c290 0 520 200 520 555c0 351 -230 551 -520 551
c-292 0 -523 -200 -523 -551c0 -355 231 -555 523 -555z" />
    <glyph glyph-name="uni1ED8" unicode="&#x1ed8;" horiz-adv-x="1646" 
d="M666 1554h-118l211 295h128l211 -295h-119l-157 212zM824 -19c-397 0 -701 273 -701 724c0 449 304 722 701 722c393 0 699 -273 699 -722c0 -451 -306 -724 -699 -724zM824 150c290 0 520 200 520 555c0 351 -230 551 -520 551c-292 0 -523 -200 -523 -551
c0 -355 231 -555 523 -555zM824 -512c-64 0 -117 51 -117 117c0 63 53 116 117 116c63 0 116 -53 116 -116c0 -66 -53 -117 -116 -117z" />
    <glyph glyph-name="uni1ED2" unicode="&#x1ed2;" horiz-adv-x="1646" 
d="M764 1948l-225 259l92 67l252 -326h-119zM666 1554h-118l211 295h128l211 -295h-119l-157 212zM824 -19c-397 0 -701 273 -701 724c0 449 304 722 701 722c393 0 699 -273 699 -722c0 -451 -306 -724 -699 -724zM824 150c290 0 520 200 520 555c0 351 -230 551 -520 551
c-292 0 -523 -200 -523 -551c0 -355 231 -555 523 -555z" />
    <glyph glyph-name="uni1ED4" unicode="&#x1ed4;" horiz-adv-x="1646" 
d="M779 1930v119c73 15 119 48 119 110c0 47 -31 85 -87 85c-32 0 -59 -11 -86 -31l-51 69c38 31 85 49 138 49c109 0 185 -70 185 -168c0 -82 -51 -132 -130 -157v-76h-88zM666 1554h-118l211 295h128l211 -295h-119l-157 212zM824 -19c-397 0 -701 273 -701 724
c0 449 304 722 701 722c393 0 699 -273 699 -722c0 -451 -306 -724 -699 -724zM824 150c290 0 520 200 520 555c0 351 -230 551 -520 551c-292 0 -523 -200 -523 -551c0 -355 231 -555 523 -555z" />
    <glyph glyph-name="uni1ED6" unicode="&#x1ed6;" horiz-adv-x="1646" 
d="M964 1942c-91 0 -137 51 -170 96c-26 37 -52 73 -103 73c-70 0 -109 -65 -109 -154h-94c0 140 76 243 202 243c85 0 131 -46 166 -93c27 -35 54 -75 108 -75c69 0 106 59 106 151h97c0 -137 -74 -241 -203 -241zM666 1554h-118l211 295h128l211 -295h-119l-157 212z
M824 -19c-397 0 -701 273 -701 724c0 449 304 722 701 722c393 0 699 -273 699 -722c0 -451 -306 -724 -699 -724zM824 150c290 0 520 200 520 555c0 351 -230 551 -520 551c-292 0 -523 -200 -523 -551c0 -355 231 -555 523 -555z" />
    <glyph glyph-name="Odieresis" unicode="&#xd6;" horiz-adv-x="1646" 
d="M637 1536c-64 0 -117 53 -117 117s53 116 117 116c63 0 116 -52 116 -116s-53 -117 -116 -117zM1011 1536c-64 0 -117 53 -117 117s53 116 117 116c63 0 116 -52 116 -116s-53 -117 -116 -117zM824 -19c-397 0 -701 273 -701 724c0 449 304 722 701 722
c393 0 699 -273 699 -722c0 -451 -306 -724 -699 -724zM824 150c290 0 520 200 520 555c0 351 -230 551 -520 551c-292 0 -523 -200 -523 -551c0 -355 231 -555 523 -555z" />
    <glyph glyph-name="uni1ECC" unicode="&#x1ecc;" horiz-adv-x="1646" 
d="M824 -19c-397 0 -701 273 -701 724c0 449 304 722 701 722c393 0 699 -273 699 -722c0 -451 -306 -724 -699 -724zM824 150c290 0 520 200 520 555c0 351 -230 551 -520 551c-292 0 -523 -200 -523 -551c0 -355 231 -555 523 -555zM824 -512c-64 0 -117 51 -117 117
c0 63 53 116 117 116c63 0 116 -53 116 -116c0 -66 -53 -117 -116 -117z" />
    <glyph glyph-name="Ograve" unicode="&#xd2;" horiz-adv-x="1646" 
d="M766 1554l-225 259l92 67l252 -326h-119zM824 -19c-397 0 -701 273 -701 724c0 449 304 722 701 722c393 0 699 -273 699 -722c0 -451 -306 -724 -699 -724zM824 150c290 0 520 200 520 555c0 351 -230 551 -520 551c-292 0 -523 -200 -523 -551
c0 -355 231 -555 523 -555z" />
    <glyph glyph-name="uni1ECE" unicode="&#x1ece;" horiz-adv-x="1646" 
d="M781 1536v119c73 15 119 48 119 110c0 47 -31 85 -87 85c-32 0 -59 -11 -86 -31l-51 69c38 31 85 49 138 49c109 0 185 -70 185 -168c0 -82 -51 -132 -130 -157v-76h-88zM824 -19c-397 0 -701 273 -701 724c0 449 304 722 701 722c393 0 699 -273 699 -722
c0 -451 -306 -724 -699 -724zM824 150c290 0 520 200 520 555c0 351 -230 551 -520 551c-292 0 -523 -200 -523 -551c0 -355 231 -555 523 -555z" />
    <glyph glyph-name="Ohorn" unicode="&#x1a0;" horiz-adv-x="1646" 
d="M1488 1478h109v-108c0 -174 -74 -234 -169 -234c-9 0 -18 1 -27 2c77 -115 122 -261 122 -433c0 -451 -306 -724 -699 -724c-397 0 -701 273 -701 724c0 449 304 722 701 722c192 0 363 -65 488 -184c30 -13 60 -19 83 -19c69 0 93 51 93 152v102zM824 150
c290 0 520 200 520 555c0 351 -230 551 -520 551c-292 0 -523 -200 -523 -551c0 -355 231 -555 523 -555z" />
    <glyph glyph-name="uni1EDA" unicode="&#x1eda;" horiz-adv-x="1646" 
d="M1101 1813l-224 -259h-119l251 326zM1488 1478h109v-108c0 -174 -74 -234 -169 -234c-9 0 -18 1 -27 2c77 -115 122 -261 122 -433c0 -451 -306 -724 -699 -724c-397 0 -701 273 -701 724c0 449 304 722 701 722c192 0 363 -65 488 -184c30 -13 60 -19 83 -19
c69 0 93 51 93 152v102zM824 150c290 0 520 200 520 555c0 351 -230 551 -520 551c-292 0 -523 -200 -523 -551c0 -355 231 -555 523 -555z" />
    <glyph glyph-name="uni1EE2" unicode="&#x1ee2;" horiz-adv-x="1646" 
d="M1488 1478h109v-108c0 -174 -74 -234 -169 -234c-9 0 -18 1 -27 2c77 -115 122 -261 122 -433c0 -451 -306 -724 -699 -724c-397 0 -701 273 -701 724c0 449 304 722 701 722c192 0 363 -65 488 -184c30 -13 60 -19 83 -19c69 0 93 51 93 152v102zM824 150
c290 0 520 200 520 555c0 351 -230 551 -520 551c-292 0 -523 -200 -523 -551c0 -355 231 -555 523 -555zM824 -279c63 0 116 -53 116 -116c0 -66 -53 -117 -116 -117c-64 0 -117 51 -117 117c0 63 53 116 117 116z" />
    <glyph glyph-name="uni1EDC" unicode="&#x1edc;" horiz-adv-x="1646" 
d="M885 1554h-119l-225 259l92 67zM1488 1478h109v-108c0 -174 -74 -234 -169 -234c-9 0 -18 1 -27 2c77 -115 122 -261 122 -433c0 -451 -306 -724 -699 -724c-397 0 -701 273 -701 724c0 449 304 722 701 722c192 0 363 -65 488 -184c30 -13 60 -19 83 -19
c69 0 93 51 93 152v102zM824 150c290 0 520 200 520 555c0 351 -230 551 -520 551c-292 0 -523 -200 -523 -551c0 -355 231 -555 523 -555z" />
    <glyph glyph-name="uni1EDE" unicode="&#x1ede;" horiz-adv-x="1646" 
d="M813 1850c-32 0 -59 -11 -86 -31l-51 69c38 31 85 49 138 49c109 0 185 -70 185 -168c0 -82 -51 -132 -130 -157v-76h-88v119c73 15 119 48 119 110c0 47 -31 85 -87 85zM1488 1478h109v-108c0 -174 -74 -234 -169 -234c-9 0 -18 1 -27 2c77 -115 122 -261 122 -433
c0 -451 -306 -724 -699 -724c-397 0 -701 273 -701 724c0 449 304 722 701 722c192 0 363 -65 488 -184c30 -13 60 -19 83 -19c69 0 93 51 93 152v102zM824 150c290 0 520 200 520 555c0 351 -230 551 -520 551c-292 0 -523 -200 -523 -551c0 -355 231 -555 523 -555z" />
    <glyph glyph-name="uni1EE0" unicode="&#x1ee0;" horiz-adv-x="1646" 
d="M693 1717c-70 0 -109 -65 -109 -154h-94c0 140 76 243 202 243c85 0 131 -46 166 -93c27 -35 54 -75 108 -75c69 0 106 59 106 151h97c0 -137 -74 -241 -203 -241c-91 0 -137 51 -170 96c-26 37 -52 73 -103 73zM1488 1478h109v-108c0 -174 -74 -234 -169 -234
c-9 0 -18 1 -27 2c77 -115 122 -261 122 -433c0 -451 -306 -724 -699 -724c-397 0 -701 273 -701 724c0 449 304 722 701 722c192 0 363 -65 488 -184c30 -13 60 -19 83 -19c69 0 93 51 93 152v102zM824 150c290 0 520 200 520 555c0 351 -230 551 -520 551
c-292 0 -523 -200 -523 -551c0 -355 231 -555 523 -555z" />
    <glyph glyph-name="Ohungarumlaut" unicode="&#x150;" horiz-adv-x="1646" 
d="M584 1554l251 326l92 -67l-224 -259h-119zM943 1554l252 326l92 -67l-224 -259h-120zM824 -19c-397 0 -701 273 -701 724c0 449 304 722 701 722c393 0 699 -273 699 -722c0 -451 -306 -724 -699 -724zM824 150c290 0 520 200 520 555c0 351 -230 551 -520 551
c-292 0 -523 -200 -523 -551c0 -355 231 -555 523 -555z" />
    <glyph glyph-name="Omacron" unicode="&#x14c;" horiz-adv-x="1646" 
d="M500 1554v110h647v-110h-647zM824 -19c-397 0 -701 273 -701 724c0 449 304 722 701 722c393 0 699 -273 699 -722c0 -451 -306 -724 -699 -724zM824 150c290 0 520 200 520 555c0 351 -230 551 -520 551c-292 0 -523 -200 -523 -551c0 -355 231 -555 523 -555z" />
    <glyph glyph-name="Oslash" unicode="&#xd8;" horiz-adv-x="1646" 
d="M1282 1270c148 -124 241 -318 241 -565c0 -451 -306 -724 -699 -724c-139 0 -266 33 -373 96l-133 -190l-91 53l137 198c-149 124 -241 319 -241 567c0 449 304 722 701 722c137 0 264 -33 371 -96l134 193l90 -57zM301 705c0 -185 63 -328 164 -422l630 904
c-79 45 -171 69 -271 69c-292 0 -523 -200 -523 -551zM824 150c290 0 520 200 520 555c0 183 -63 325 -164 419l-630 -904c79 -46 173 -70 274 -70z" />
    <glyph glyph-name="Otilde" unicode="&#xd5;" horiz-adv-x="1646" 
d="M966 1548c-91 0 -137 51 -170 96c-26 37 -52 73 -103 73c-70 0 -109 -65 -109 -154h-94c0 140 76 243 202 243c85 0 131 -46 166 -93c27 -35 54 -75 108 -75c69 0 106 59 106 151h97c0 -137 -74 -241 -203 -241zM824 -19c-397 0 -701 273 -701 724c0 449 304 722 701 722
c393 0 699 -273 699 -722c0 -451 -306 -724 -699 -724zM824 150c290 0 520 200 520 555c0 351 -230 551 -520 551c-292 0 -523 -200 -523 -551c0 -355 231 -555 523 -555z" />
    <glyph glyph-name="OE" unicode="&#x152;" horiz-adv-x="1959" 
d="M835 0c-488 0 -712 273 -712 706c0 431 224 702 712 702h1002v-163h-610v-459h524v-163h-524v-460h610v-163h-1002zM842 163h207v1082h-207c-383 0 -535 -194 -535 -539c0 -347 152 -543 535 -543z" />
    <glyph glyph-name="P" unicode="P" horiz-adv-x="1267" 
d="M754 1408c254 0 420 -194 420 -432c0 -241 -166 -429 -420 -429h-354v-547h-179v1408h533zM728 703c170 0 267 112 267 275c0 158 -97 275 -267 275h-328v-550h328z" />
    <glyph glyph-name="Thorn" unicode="&#xde;" horiz-adv-x="1211" 
d="M732 1322c214 0 386 -192 386 -433c0 -235 -172 -423 -386 -423h-338v-466h-173v1528h173v-206h338zM723 624c131 0 233 119 233 270c0 153 -102 270 -233 270h-329v-540h329z" />
    <glyph glyph-name="Q" unicode="Q" horiz-adv-x="1666" 
d="M1573 -71l-161 -55l-198 212c-111 -68 -244 -105 -389 -105c-398 0 -704 273 -704 724c0 449 306 722 704 722c396 0 704 -273 704 -722c0 -220 -73 -397 -194 -521zM299 705c0 -361 233 -561 526 -561c292 0 524 200 524 561c0 351 -232 551 -524 551
c-293 0 -526 -200 -526 -551z" />
    <glyph glyph-name="R" unicode="R" horiz-adv-x="1275" 
d="M983 0l-362 635h-221v-635h-179v1408h467c289 0 424 -178 424 -398c0 -195 -115 -335 -312 -368l392 -642h-209zM400 1251v-475h264c189 0 275 96 275 236c0 138 -86 239 -275 239h-264z" />
    <glyph glyph-name="Racute" unicode="&#x154;" horiz-adv-x="1275" 
d="M913 1813l-224 -259h-119l251 326zM983 0l-362 635h-221v-635h-179v1408h467c289 0 424 -178 424 -398c0 -195 -115 -335 -312 -368l392 -642h-209zM400 1251v-475h264c189 0 275 96 275 236c0 138 -86 239 -275 239h-264z" />
    <glyph glyph-name="Rcaron" unicode="&#x158;" horiz-adv-x="1275" 
d="M699 1554h-127l-211 295h117l157 -214l156 214h119zM983 0l-362 635h-221v-635h-179v1408h467c289 0 424 -178 424 -398c0 -195 -115 -335 -312 -368l392 -642h-209zM400 1251v-475h264c189 0 275 96 275 236c0 138 -86 239 -275 239h-264z" />
    <glyph glyph-name="Rcommaaccent" unicode="&#x156;" horiz-adv-x="1275" 
d="M800 642l392 -642h-209l-362 635h-221v-635h-179v1408h467c289 0 424 -178 424 -398c0 -195 -115 -335 -312 -368zM400 1251v-475h264c189 0 275 96 275 236c0 138 -86 239 -275 239h-264zM396 -518l160 366h158l-226 -407z" />
    <glyph glyph-name="S" unicode="S" horiz-adv-x="1271" 
d="M656 -19c-292 0 -503 140 -551 373l181 43c34 -165 183 -262 376 -262c157 0 312 64 309 243c-3 175 -190 221 -386 274c-220 59 -438 126 -438 385c0 261 217 390 467 390c248 0 465 -106 518 -342l-174 -44c-36 159 -174 231 -337 231c-146 0 -294 -64 -294 -234
c0 -153 160 -198 343 -245c227 -60 484 -127 484 -410s-236 -402 -498 -402z" />
    <glyph glyph-name="Sacute" unicode="&#x15a;" horiz-adv-x="1271" 
d="M570 1554l251 326l92 -67l-224 -259h-119zM656 -19c-292 0 -503 140 -551 373l181 43c34 -165 183 -262 376 -262c157 0 312 64 309 243c-3 175 -190 221 -386 274c-220 59 -438 126 -438 385c0 261 217 390 467 390c248 0 465 -106 518 -342l-174 -44
c-36 159 -174 231 -337 231c-146 0 -294 -64 -294 -234c0 -153 160 -198 343 -245c227 -60 484 -127 484 -410s-236 -402 -498 -402z" />
    <glyph glyph-name="Scaron" unicode="&#x160;" horiz-adv-x="1271" 
d="M572 1554l-211 295h117l157 -214l156 214h119l-211 -295h-127zM656 -19c-292 0 -503 140 -551 373l181 43c34 -165 183 -262 376 -262c157 0 312 64 309 243c-3 175 -190 221 -386 274c-220 59 -438 126 -438 385c0 261 217 390 467 390c248 0 465 -106 518 -342
l-174 -44c-36 159 -174 231 -337 231c-146 0 -294 -64 -294 -234c0 -153 160 -198 343 -245c227 -60 484 -127 484 -410s-236 -402 -498 -402z" />
    <glyph glyph-name="Scedilla" unicode="&#x15e;" horiz-adv-x="1271" 
d="M1154 383c0 -277 -226 -397 -480 -402l-58 -119c18 4 37 8 55 8c115 0 200 -77 200 -192c0 -117 -91 -210 -210 -210c-98 0 -196 57 -236 130l86 36c30 -43 95 -75 148 -75c65 0 119 50 119 119c0 74 -54 114 -125 114c-26 0 -54 -6 -80 -20l-75 49l82 163
c-252 23 -431 158 -475 370l181 43c34 -165 183 -262 376 -262c157 0 312 64 309 243c-3 175 -190 221 -386 274c-220 59 -438 126 -438 385c0 261 217 390 467 390c248 0 465 -106 518 -342l-174 -44c-36 159 -174 231 -337 231c-146 0 -294 -64 -294 -234
c0 -153 160 -198 343 -245c227 -60 484 -127 484 -410z" />
    <glyph glyph-name="Scommaaccent" unicode="&#x218;" horiz-adv-x="1271" 
d="M656 -19c-292 0 -503 140 -551 373l181 43c34 -165 183 -262 376 -262c157 0 312 64 309 243c-3 175 -190 221 -386 274c-220 59 -438 126 -438 385c0 261 217 390 467 390c248 0 465 -106 518 -342l-174 -44c-36 159 -174 231 -337 231c-146 0 -294 -64 -294 -234
c0 -153 160 -198 343 -245c227 -60 484 -127 484 -410s-236 -402 -498 -402zM488 -559l-92 41l160 366h158z" />
    <glyph glyph-name="T" unicode="T" horiz-adv-x="1013" 
d="M957 1408v-163h-361v-1245h-178v1245h-362v163h901z" />
    <glyph glyph-name="Tbar" unicode="&#x166;" horiz-adv-x="1013" 
d="M957 1245h-361v-483h215v-115h-215v-647h-178v647h-213v115h213v483h-362v163h901v-163z" />
    <glyph glyph-name="Tcaron" unicode="&#x164;" horiz-adv-x="1013" 
d="M570 1554h-127l-211 295h117l157 -214l156 214h119zM957 1408v-163h-361v-1245h-178v1245h-362v163h901z" />
    <glyph glyph-name="uni0162" unicode="&#x162;" horiz-adv-x="1013" 
d="M596 0h-42l-67 -138c18 4 37 8 55 8c115 0 200 -77 200 -192c0 -117 -91 -210 -210 -210c-98 0 -196 57 -236 130l86 36c30 -43 95 -75 148 -75c65 0 119 50 119 119c0 74 -54 114 -125 114c-26 0 -54 -6 -80 -20l-75 49l90 179h-41v1245h-362v163h901v-163h-361v-1245z
" />
    <glyph glyph-name="uni021A" unicode="&#x21a;" horiz-adv-x="1013" 
d="M957 1408v-163h-361v-1245h-178v1245h-362v163h901zM267 -518l160 366h158l-226 -407z" />
    <glyph glyph-name="U" unicode="U" horiz-adv-x="1409" 
d="M703 -19c-289 0 -511 176 -511 486v941h179v-916c0 -236 145 -348 332 -348s335 114 335 348v916h179v-941c0 -310 -223 -486 -514 -486z" />
    <glyph glyph-name="Uacute" unicode="&#xda;" horiz-adv-x="1409" 
d="M637 1554l251 326l92 -67l-224 -259h-119zM703 -19c-289 0 -511 176 -511 486v941h179v-916c0 -236 145 -348 332 -348s335 114 335 348v916h179v-941c0 -310 -223 -486 -514 -486z" />
    <glyph glyph-name="uni01D3" unicode="&#x1d3;" horiz-adv-x="1409" 
d="M639 1554l-211 295h117l157 -214l156 214h119l-211 -295h-127zM703 -19c-289 0 -511 176 -511 486v941h179v-916c0 -236 145 -348 332 -348s335 114 335 348v916h179v-941c0 -310 -223 -486 -514 -486z" />
    <glyph glyph-name="Ucircumflex" unicode="&#xdb;" horiz-adv-x="1409" 
d="M545 1554h-118l211 295h128l211 -295h-119l-157 212zM703 -19c-289 0 -511 176 -511 486v941h179v-916c0 -236 145 -348 332 -348s335 114 335 348v916h179v-941c0 -310 -223 -486 -514 -486z" />
    <glyph glyph-name="Udieresis" unicode="&#xdc;" horiz-adv-x="1409" 
d="M516 1536c-64 0 -117 53 -117 117s53 116 117 116c63 0 116 -52 116 -116s-53 -117 -116 -117zM890 1536c-64 0 -117 53 -117 117s53 116 117 116c63 0 116 -52 116 -116s-53 -117 -116 -117zM703 -19c-289 0 -511 176 -511 486v941h179v-916c0 -236 145 -348 332 -348
s335 114 335 348v916h179v-941c0 -310 -223 -486 -514 -486z" />
    <glyph glyph-name="uni01D7" unicode="&#x1d7;" horiz-adv-x="1409" 
d="M637 1915l251 326l92 -67l-224 -259h-119zM516 1536c-64 0 -117 53 -117 117s53 116 117 116c63 0 116 -52 116 -116s-53 -117 -116 -117zM890 1536c-64 0 -117 53 -117 117s53 116 117 116c63 0 116 -52 116 -116s-53 -117 -116 -117zM703 -19c-289 0 -511 176 -511 486
v941h179v-916c0 -236 145 -348 332 -348s335 114 335 348v916h179v-941c0 -310 -223 -486 -514 -486z" />
    <glyph glyph-name="uni01D9" unicode="&#x1d9;" horiz-adv-x="1409" 
d="M639 1915l-211 295h117l157 -214l156 214h119l-211 -295h-127zM516 1536c-64 0 -117 53 -117 117s53 116 117 116c63 0 116 -52 116 -116s-53 -117 -116 -117zM890 1536c-64 0 -117 53 -117 117s53 116 117 116c63 0 116 -52 116 -116s-53 -117 -116 -117zM703 -19
c-289 0 -511 176 -511 486v941h179v-916c0 -236 145 -348 332 -348s335 114 335 348v916h179v-941c0 -310 -223 -486 -514 -486z" />
    <glyph glyph-name="uni01DB" unicode="&#x1db;" horiz-adv-x="1409" 
d="M645 1915l-225 259l92 67l252 -326h-119zM516 1536c-64 0 -117 53 -117 117s53 116 117 116c63 0 116 -52 116 -116s-53 -117 -116 -117zM890 1536c-64 0 -117 53 -117 117s53 116 117 116c63 0 116 -52 116 -116s-53 -117 -116 -117zM703 -19c-289 0 -511 176 -511 486
v941h179v-916c0 -236 145 -348 332 -348s335 114 335 348v916h179v-941c0 -310 -223 -486 -514 -486z" />
    <glyph glyph-name="uni01D5" unicode="&#x1d5;" horiz-adv-x="1409" 
d="M379 1915v110h647v-110h-647zM516 1536c-64 0 -117 53 -117 117s53 116 117 116c63 0 116 -52 116 -116s-53 -117 -116 -117zM890 1536c-64 0 -117 53 -117 117s53 116 117 116c63 0 116 -52 116 -116s-53 -117 -116 -117zM703 -19c-289 0 -511 176 -511 486v941h179
v-916c0 -236 145 -348 332 -348s335 114 335 348v916h179v-941c0 -310 -223 -486 -514 -486z" />
    <glyph glyph-name="uni1EE4" unicode="&#x1ee4;" horiz-adv-x="1409" 
d="M703 -19c-289 0 -511 176 -511 486v941h179v-916c0 -236 145 -348 332 -348s335 114 335 348v916h179v-941c0 -310 -223 -486 -514 -486zM703 -512c-64 0 -117 51 -117 117c0 63 53 116 117 116c63 0 116 -53 116 -116c0 -66 -53 -117 -116 -117z" />
    <glyph glyph-name="Ugrave" unicode="&#xd9;" horiz-adv-x="1409" 
d="M645 1554l-225 259l92 67l252 -326h-119zM703 -19c-289 0 -511 176 -511 486v941h179v-916c0 -236 145 -348 332 -348s335 114 335 348v916h179v-941c0 -310 -223 -486 -514 -486z" />
    <glyph glyph-name="uni1EE6" unicode="&#x1ee6;" horiz-adv-x="1409" 
d="M660 1536v119c73 15 119 48 119 110c0 47 -31 85 -87 85c-32 0 -59 -11 -86 -31l-51 69c38 31 85 49 138 49c109 0 185 -70 185 -168c0 -82 -51 -132 -130 -157v-76h-88zM703 -19c-289 0 -511 176 -511 486v941h179v-916c0 -236 145 -348 332 -348s335 114 335 348v916
h179v-941c0 -310 -223 -486 -514 -486z" />
    <glyph glyph-name="Uhorn" unicode="&#x1af;" horiz-adv-x="1409" 
d="M1379 1529h109v-108c0 -174 -74 -234 -169 -234c-31 0 -67 7 -102 19v-739c0 -310 -223 -486 -514 -486c-289 0 -511 176 -511 486v941h179v-916c0 -236 145 -348 332 -348s335 114 335 348v916h179v-119c25 -10 49 -14 69 -14c69 0 93 51 93 152v102z" />
    <glyph glyph-name="uni1EE8" unicode="&#x1ee8;" horiz-adv-x="1409" 
d="M980 1813l-224 -259h-119l251 326zM1379 1529h109v-108c0 -174 -74 -234 -169 -234c-31 0 -67 7 -102 19v-739c0 -310 -223 -486 -514 -486c-289 0 -511 176 -511 486v941h179v-916c0 -236 145 -348 332 -348s335 114 335 348v916h179v-119c25 -10 49 -14 69 -14
c69 0 93 51 93 152v102z" />
    <glyph glyph-name="uni1EF0" unicode="&#x1ef0;" horiz-adv-x="1409" 
d="M1379 1529h109v-108c0 -174 -74 -234 -169 -234c-31 0 -67 7 -102 19v-739c0 -310 -223 -486 -514 -486c-289 0 -511 176 -511 486v941h179v-916c0 -236 145 -348 332 -348s335 114 335 348v916h179v-119c25 -10 49 -14 69 -14c69 0 93 51 93 152v102zM703 -279
c63 0 116 -53 116 -116c0 -66 -53 -117 -116 -117c-64 0 -117 51 -117 117c0 63 53 116 117 116z" />
    <glyph glyph-name="uni1EEA" unicode="&#x1eea;" horiz-adv-x="1409" 
d="M764 1554h-119l-225 259l92 67zM1379 1529h109v-108c0 -174 -74 -234 -169 -234c-31 0 -67 7 -102 19v-739c0 -310 -223 -486 -514 -486c-289 0 -511 176 -511 486v941h179v-916c0 -236 145 -348 332 -348s335 114 335 348v916h179v-119c25 -10 49 -14 69 -14
c69 0 93 51 93 152v102z" />
    <glyph glyph-name="uni1EEC" unicode="&#x1eec;" horiz-adv-x="1409" 
d="M692 1850c-32 0 -59 -11 -86 -31l-51 69c38 31 85 49 138 49c109 0 185 -70 185 -168c0 -82 -51 -132 -130 -157v-76h-88v119c73 15 119 48 119 110c0 47 -31 85 -87 85zM1379 1529h109v-108c0 -174 -74 -234 -169 -234c-31 0 -67 7 -102 19v-739
c0 -310 -223 -486 -514 -486c-289 0 -511 176 -511 486v941h179v-916c0 -236 145 -348 332 -348s335 114 335 348v916h179v-119c25 -10 49 -14 69 -14c69 0 93 51 93 152v102z" />
    <glyph glyph-name="uni1EEE" unicode="&#x1eee;" horiz-adv-x="1409" 
d="M572 1717c-70 0 -109 -65 -109 -154h-94c0 140 76 243 202 243c85 0 131 -46 166 -93c27 -35 54 -75 108 -75c69 0 106 59 106 151h97c0 -137 -74 -241 -203 -241c-91 0 -137 51 -170 96c-26 37 -52 73 -103 73zM1379 1529h109v-108c0 -174 -74 -234 -169 -234
c-31 0 -67 7 -102 19v-739c0 -310 -223 -486 -514 -486c-289 0 -511 176 -511 486v941h179v-916c0 -236 145 -348 332 -348s335 114 335 348v916h179v-119c25 -10 49 -14 69 -14c69 0 93 51 93 152v102z" />
    <glyph glyph-name="Uhungarumlaut" unicode="&#x170;" horiz-adv-x="1409" 
d="M463 1554l251 326l92 -67l-224 -259h-119zM822 1554l252 326l92 -67l-224 -259h-120zM703 -19c-289 0 -511 176 -511 486v941h179v-916c0 -236 145 -348 332 -348s335 114 335 348v916h179v-941c0 -310 -223 -486 -514 -486z" />
    <glyph glyph-name="Umacron" unicode="&#x16a;" horiz-adv-x="1409" 
d="M379 1554v110h647v-110h-647zM703 -19c-289 0 -511 176 -511 486v941h179v-916c0 -236 145 -348 332 -348s335 114 335 348v916h179v-941c0 -310 -223 -486 -514 -486z" />
    <glyph glyph-name="Uogonek" unicode="&#x172;" horiz-adv-x="1409" 
d="M1038 1408h179v-941c0 -227 -120 -383 -299 -449c-56 -57 -149 -152 -149 -209c0 -27 22 -43 75 -43c31 0 67 11 93 30v-127c-31 -12 -70 -18 -108 -18c-116 0 -175 35 -175 94c0 66 71 159 148 243c-32 -5 -65 -7 -99 -7c-289 0 -511 176 -511 486v941h179v-916
c0 -236 145 -348 332 -348s335 114 335 348v916z" />
    <glyph glyph-name="Uring" unicode="&#x16e;" horiz-adv-x="1409" 
d="M703 1554c-117 0 -211 96 -211 210c0 116 94 209 211 209c114 0 208 -93 208 -209c0 -114 -94 -210 -208 -210zM703 1639c70 0 125 52 125 125c0 70 -55 128 -125 128s-125 -58 -125 -128c0 -73 55 -125 125 -125zM703 -19c-289 0 -511 176 -511 486v941h179v-916
c0 -236 145 -348 332 -348s335 114 335 348v916h179v-941c0 -310 -223 -486 -514 -486z" />
    <glyph glyph-name="Utilde" unicode="&#x168;" horiz-adv-x="1409" 
d="M845 1548c-91 0 -137 51 -170 96c-26 37 -52 73 -103 73c-70 0 -109 -65 -109 -154h-94c0 140 76 243 202 243c85 0 131 -46 166 -93c27 -35 54 -75 108 -75c69 0 106 59 106 151h97c0 -137 -74 -241 -203 -241zM703 -19c-289 0 -511 176 -511 486v941h179v-916
c0 -236 145 -348 332 -348s335 114 335 348v916h179v-941c0 -310 -223 -486 -514 -486z" />
    <glyph glyph-name="V" unicode="V" horiz-adv-x="1336" 
d="M1087 1408h189l-516 -1408h-184l-516 1408h188l420 -1184z" />
    <glyph glyph-name="W" unicode="W" horiz-adv-x="2042" 
d="M473 0l-402 1408h186l334 -1161l351 1161h158l351 -1161l336 1161h185l-403 -1408h-210l-338 1083l-338 -1083h-210z" />
    <glyph glyph-name="Wacute" unicode="&#x1e82;" horiz-adv-x="2042" 
d="M955 1554l251 326l92 -67l-224 -259h-119zM473 0l-402 1408h186l334 -1161l351 1161h158l351 -1161l336 1161h185l-403 -1408h-210l-338 1083l-338 -1083h-210z" />
    <glyph glyph-name="Wcircumflex" unicode="&#x174;" horiz-adv-x="2042" 
d="M863 1554h-118l211 295h128l211 -295h-119l-157 212zM473 0l-402 1408h186l334 -1161l351 1161h158l351 -1161l336 1161h185l-403 -1408h-210l-338 1083l-338 -1083h-210z" />
    <glyph glyph-name="Wdieresis" unicode="&#x1e84;" horiz-adv-x="2042" 
d="M834 1536c-64 0 -117 53 -117 117s53 116 117 116c63 0 116 -52 116 -116s-53 -117 -116 -117zM1208 1536c-64 0 -117 53 -117 117s53 116 117 116c63 0 116 -52 116 -116s-53 -117 -116 -117zM473 0l-402 1408h186l334 -1161l351 1161h158l351 -1161l336 1161h185
l-403 -1408h-210l-338 1083l-338 -1083h-210z" />
    <glyph glyph-name="Wgrave" unicode="&#x1e80;" horiz-adv-x="2042" 
d="M963 1554l-225 259l92 67l252 -326h-119zM473 0l-402 1408h186l334 -1161l351 1161h158l351 -1161l336 1161h185l-403 -1408h-210l-338 1083l-338 -1083h-210z" />
    <glyph glyph-name="X" unicode="X" horiz-adv-x="1423" 
d="M57 0l549 735l-524 673h217l413 -546l412 546h217l-523 -673l548 -735h-226l-428 597l-428 -597h-227z" />
    <glyph glyph-name="Y" unicode="Y" horiz-adv-x="1197" 
d="M1152 1408l-463 -737v-671h-180v670l-464 738h204l350 -576l350 576h203z" />
    <glyph glyph-name="Yacute" unicode="&#xdd;" horiz-adv-x="1197" 
d="M876 1813l-224 -259h-119l251 326zM1152 1408l-463 -737v-671h-180v670l-464 738h204l350 -576l350 576h203z" />
    <glyph glyph-name="Ycircumflex" unicode="&#x176;" horiz-adv-x="1197" 
d="M597 1766l-156 -212h-118l211 295h128l211 -295h-119zM1152 1408l-463 -737v-671h-180v670l-464 738h204l350 -576l350 576h203z" />
    <glyph glyph-name="Ydieresis" unicode="&#x178;" horiz-adv-x="1197" 
d="M412 1536c-64 0 -117 53 -117 117s53 116 117 116c63 0 116 -52 116 -116s-53 -117 -116 -117zM786 1536c-64 0 -117 53 -117 117s53 116 117 116c63 0 116 -52 116 -116s-53 -117 -116 -117zM1152 1408l-463 -737v-671h-180v670l-464 738h204l350 -576l350 576h203z" />
    <glyph glyph-name="uni1EF4" unicode="&#x1ef4;" horiz-adv-x="1197" 
d="M509 0v670l-464 738h204l350 -576l350 576h203l-463 -737v-671h-180zM600 -279c63 0 116 -53 116 -116c0 -66 -53 -117 -116 -117c-64 0 -117 51 -117 117c0 63 53 116 117 116z" />
    <glyph glyph-name="Ygrave" unicode="&#x1ef2;" horiz-adv-x="1197" 
d="M660 1554h-119l-225 259l92 67zM1152 1408l-463 -737v-671h-180v670l-464 738h204l350 -576l350 576h203z" />
    <glyph glyph-name="uni1EF6" unicode="&#x1ef6;" horiz-adv-x="1197" 
d="M588 1850c-32 0 -59 -11 -86 -31l-51 69c38 31 85 49 138 49c109 0 185 -70 185 -168c0 -82 -51 -132 -130 -157v-76h-88v119c73 15 119 48 119 110c0 47 -31 85 -87 85zM1152 1408l-463 -737v-671h-180v670l-464 738h204l350 -576l350 576h203z" />
    <glyph glyph-name="uni1EF8" unicode="&#x1ef8;" horiz-adv-x="1197" 
d="M468 1717c-70 0 -109 -65 -109 -154h-94c0 140 76 243 202 243c85 0 131 -46 166 -93c27 -35 54 -75 108 -75c69 0 106 59 106 151h97c0 -137 -74 -241 -203 -241c-91 0 -137 51 -170 96c-26 37 -52 73 -103 73zM1152 1408l-463 -737v-671h-180v670l-464 738h204
l350 -576l350 576h203z" />
    <glyph glyph-name="Z" unicode="Z" horiz-adv-x="1231" 
d="M320 163h820v-163h-1042v146l800 1099h-797v163h1013v-148z" />
    <glyph glyph-name="Zacute" unicode="&#x179;" horiz-adv-x="1231" 
d="M906 1813l-224 -259h-119l251 326zM320 163h820v-163h-1042v146l800 1099h-797v163h1013v-148z" />
    <glyph glyph-name="Zcaron" unicode="&#x17d;" horiz-adv-x="1231" 
d="M692 1554h-127l-211 295h117l157 -214l156 214h119zM320 163h820v-163h-1042v146l800 1099h-797v163h1013v-148z" />
    <glyph glyph-name="Zdotaccent" unicode="&#x17b;" horiz-adv-x="1231" 
d="M629 1536c-64 0 -117 53 -117 117s53 116 117 116c63 0 116 -52 116 -116s-53 -117 -116 -117zM320 163h820v-163h-1042v146l800 1099h-797v163h1013v-148z" />
    <glyph glyph-name="G.ss02" horiz-adv-x="1589" 
d="M827 -19c-402 0 -704 267 -704 719c0 455 304 727 701 727c255 0 476 -112 598 -328l-158 -85c-92 169 -256 248 -440 248c-293 0 -521 -199 -521 -557s228 -561 524 -561c269 0 470 179 478 422h-477v152h653c3 -55 1 -110 -5 -162c-38 -362 -293 -575 -649 -575z" />
    <glyph glyph-name="Gbreve.ss02" horiz-adv-x="1589" 
d="M813 1554c-195 0 -338 80 -338 270h107c0 -126 97 -180 231 -180c137 0 234 54 234 180h107c0 -190 -143 -270 -341 -270zM827 -19c-402 0 -704 267 -704 719c0 455 304 727 701 727c255 0 476 -112 598 -328l-158 -85c-92 169 -256 248 -440 248
c-293 0 -521 -199 -521 -557s228 -561 524 -561c269 0 470 179 478 422h-477v152h653c3 -55 1 -110 -5 -162c-38 -362 -293 -575 -649 -575z" />
    <glyph glyph-name="Gcommaaccent.ss02" horiz-adv-x="1589" 
d="M827 -19c-402 0 -704 267 -704 719c0 455 304 727 701 727c255 0 476 -112 598 -328l-158 -85c-92 169 -256 248 -440 248c-293 0 -521 -199 -521 -557s228 -561 524 -561c269 0 470 179 478 422h-477v152h653c3 -55 1 -110 -5 -162c-38 -362 -293 -575 -649 -575z
M666 -559l-92 41l160 366h158z" />
    <glyph glyph-name="Gdotaccent.ss02" horiz-adv-x="1589" 
d="M815 1536c-64 0 -117 53 -117 117s53 116 117 116c63 0 116 -52 116 -116s-53 -117 -116 -117zM827 -19c-402 0 -704 267 -704 719c0 455 304 727 701 727c255 0 476 -112 598 -328l-158 -85c-92 169 -256 248 -440 248c-293 0 -521 -199 -521 -557s228 -561 524 -561
c269 0 470 179 478 422h-477v152h653c3 -55 1 -110 -5 -162c-38 -362 -293 -575 -649 -575z" />
    <glyph glyph-name="G.ss03" horiz-adv-x="1589" 
d="M827 -19c-402 0 -704 267 -704 719c0 455 304 727 701 727c255 0 476 -112 598 -328l-158 -85c-92 169 -256 248 -440 248c-293 0 -521 -199 -521 -557s228 -561 524 -561c269 0 470 179 478 422h-477v152h653c3 -55 1 -110 -5 -162c-38 -362 -293 -575 -649 -575z" />
    <glyph glyph-name="Gbreve.ss03" horiz-adv-x="1589" 
d="M813 1554c-195 0 -338 80 -338 270h107c0 -126 97 -180 231 -180c137 0 234 54 234 180h107c0 -190 -143 -270 -341 -270zM827 -19c-402 0 -704 267 -704 719c0 455 304 727 701 727c255 0 476 -112 598 -328l-158 -85c-92 169 -256 248 -440 248
c-293 0 -521 -199 -521 -557s228 -561 524 -561c269 0 470 179 478 422h-477v152h653c3 -55 1 -110 -5 -162c-38 -362 -293 -575 -649 -575z" />
    <glyph glyph-name="Gcommaaccent.ss03" horiz-adv-x="1589" 
d="M827 -19c-402 0 -704 267 -704 719c0 455 304 727 701 727c255 0 476 -112 598 -328l-158 -85c-92 169 -256 248 -440 248c-293 0 -521 -199 -521 -557s228 -561 524 -561c269 0 470 179 478 422h-477v152h653c3 -55 1 -110 -5 -162c-38 -362 -293 -575 -649 -575z
M666 -559l-92 41l160 366h158z" />
    <glyph glyph-name="Gdotaccent.ss03" horiz-adv-x="1589" 
d="M815 1536c-64 0 -117 53 -117 117s53 116 117 116c63 0 116 -52 116 -116s-53 -117 -116 -117zM827 -19c-402 0 -704 267 -704 719c0 455 304 727 701 727c255 0 476 -112 598 -328l-158 -85c-92 169 -256 248 -440 248c-293 0 -521 -199 -521 -557s228 -561 524 -561
c269 0 470 179 478 422h-477v152h653c3 -55 1 -110 -5 -162c-38 -362 -293 -575 -649 -575z" />
    <glyph glyph-name="a" unicode="a" horiz-adv-x="1073" 
d="M403 -19c-163 0 -300 81 -300 269c0 204 158 273 372 309l159 26c60 11 87 41 87 91c0 143 -104 193 -217 193c-115 0 -211 -52 -227 -183l-156 33c30 190 173 281 391 281c197 0 377 -82 377 -340v-406c0 -106 31 -129 100 -129h16v-125h-86c-100 0 -167 41 -186 133h-8
c-80 -109 -202 -152 -322 -152zM443 121c172 0 291 132 291 355l-260 -50c-131 -22 -202 -65 -202 -162c0 -102 76 -143 171 -143z" />
    <glyph glyph-name="aacute" unicode="&#xe1;" horiz-adv-x="1073" 
d="M474 1153l251 326l92 -67l-224 -259h-119zM403 -19c-163 0 -300 81 -300 269c0 204 158 273 372 309l159 26c60 11 87 41 87 91c0 143 -104 193 -217 193c-115 0 -211 -52 -227 -183l-156 33c30 190 173 281 391 281c197 0 377 -82 377 -340v-406
c0 -106 31 -129 100 -129h16v-125h-86c-100 0 -167 41 -186 133h-8c-80 -109 -202 -152 -322 -152zM443 121c172 0 291 132 291 355l-260 -50c-131 -22 -202 -65 -202 -162c0 -102 76 -143 171 -143z" />
    <glyph glyph-name="abreve" unicode="&#x103;" horiz-adv-x="1073" 
d="M538 1143c-195 0 -338 121 -338 317h113c0 -132 91 -226 225 -226c136 0 228 94 228 226h113c0 -196 -143 -317 -341 -317zM403 -19c-163 0 -300 81 -300 269c0 204 158 273 372 309l159 26c60 11 87 41 87 91c0 143 -104 193 -217 193c-115 0 -211 -52 -227 -183
l-156 33c30 190 173 281 391 281c197 0 377 -82 377 -340v-406c0 -106 31 -129 100 -129h16v-125h-86c-100 0 -167 41 -186 133h-8c-80 -109 -202 -152 -322 -152zM443 121c172 0 291 132 291 355l-260 -50c-131 -22 -202 -65 -202 -162c0 -102 76 -143 171 -143z" />
    <glyph glyph-name="uni1EAF" unicode="&#x1eaf;" horiz-adv-x="1073" 
d="M474 1630l251 326l92 -67l-224 -259h-119zM538 1143c-195 0 -338 121 -338 317h113c0 -132 91 -226 225 -226c136 0 228 94 228 226h113c0 -196 -143 -317 -341 -317zM403 -19c-163 0 -300 81 -300 269c0 204 158 273 372 309l159 26c60 11 87 41 87 91
c0 143 -104 193 -217 193c-115 0 -211 -52 -227 -183l-156 33c30 190 173 281 391 281c197 0 377 -82 377 -340v-406c0 -106 31 -129 100 -129h16v-125h-86c-100 0 -167 41 -186 133h-8c-80 -109 -202 -152 -322 -152zM443 121c172 0 291 132 291 355l-260 -50
c-131 -22 -202 -65 -202 -162c0 -102 76 -143 171 -143z" />
    <glyph glyph-name="uni1EB7" unicode="&#x1eb7;" horiz-adv-x="1073" 
d="M538 1143c-195 0 -338 121 -338 317h113c0 -132 91 -226 225 -226c136 0 228 94 228 226h113c0 -196 -143 -317 -341 -317zM403 -19c-163 0 -300 81 -300 269c0 204 158 273 372 309l159 26c60 11 87 41 87 91c0 143 -104 193 -217 193c-115 0 -211 -52 -227 -183
l-156 33c30 190 173 281 391 281c197 0 377 -82 377 -340v-406c0 -106 31 -129 100 -129h16v-125h-86c-100 0 -167 41 -186 133h-8c-80 -109 -202 -152 -322 -152zM443 121c172 0 291 132 291 355l-260 -50c-131 -22 -202 -65 -202 -162c0 -102 76 -143 171 -143zM538 -512
c-64 0 -117 51 -117 117c0 63 53 116 117 116c63 0 116 -53 116 -116c0 -66 -53 -117 -116 -117z" />
    <glyph glyph-name="uni1EB1" unicode="&#x1eb1;" horiz-adv-x="1073" 
d="M482 1630l-225 259l92 67l252 -326h-119zM538 1143c-195 0 -338 121 -338 317h113c0 -132 91 -226 225 -226c136 0 228 94 228 226h113c0 -196 -143 -317 -341 -317zM403 -19c-163 0 -300 81 -300 269c0 204 158 273 372 309l159 26c60 11 87 41 87 91
c0 143 -104 193 -217 193c-115 0 -211 -52 -227 -183l-156 33c30 190 173 281 391 281c197 0 377 -82 377 -340v-406c0 -106 31 -129 100 -129h16v-125h-86c-100 0 -167 41 -186 133h-8c-80 -109 -202 -152 -322 -152zM443 121c172 0 291 132 291 355l-260 -50
c-131 -22 -202 -65 -202 -162c0 -102 76 -143 171 -143z" />
    <glyph glyph-name="uni1EB3" unicode="&#x1eb3;" horiz-adv-x="1073" 
d="M497 1556v119c73 16 119 48 119 110c0 48 -31 86 -87 86c-32 0 -59 -11 -86 -32l-51 70c38 31 85 48 138 48c109 0 185 -70 185 -168c0 -82 -51 -132 -130 -156v-77h-88zM538 1143c-195 0 -338 121 -338 317h113c0 -132 91 -226 225 -226c136 0 228 94 228 226h113
c0 -196 -143 -317 -341 -317zM403 -19c-163 0 -300 81 -300 269c0 204 158 273 372 309l159 26c60 11 87 41 87 91c0 143 -104 193 -217 193c-115 0 -211 -52 -227 -183l-156 33c30 190 173 281 391 281c197 0 377 -82 377 -340v-406c0 -106 31 -129 100 -129h16v-125h-86
c-100 0 -167 41 -186 133h-8c-80 -109 -202 -152 -322 -152zM443 121c172 0 291 132 291 355l-260 -50c-131 -22 -202 -65 -202 -162c0 -102 76 -143 171 -143z" />
    <glyph glyph-name="uni1EB5" unicode="&#x1eb5;" horiz-adv-x="1073" 
d="M669 1621c-72 0 -125 35 -164 97c-23 35 -47 51 -80 51c-55 0 -88 -56 -88 -134h-96c0 132 69 229 181 229c72 0 127 -40 162 -98c19 -31 44 -49 82 -49c56 0 87 52 87 132h97c0 -129 -68 -228 -181 -228zM538 1143c-195 0 -338 121 -338 317h113
c0 -132 91 -226 225 -226c136 0 228 94 228 226h113c0 -196 -143 -317 -341 -317zM403 -19c-163 0 -300 81 -300 269c0 204 158 273 372 309l159 26c60 11 87 41 87 91c0 143 -104 193 -217 193c-115 0 -211 -52 -227 -183l-156 33c30 190 173 281 391 281
c197 0 377 -82 377 -340v-406c0 -106 31 -129 100 -129h16v-125h-86c-100 0 -167 41 -186 133h-8c-80 -109 -202 -152 -322 -152zM443 121c172 0 291 132 291 355l-260 -50c-131 -22 -202 -65 -202 -162c0 -102 76 -143 171 -143z" />
    <glyph glyph-name="uni01CE" unicode="&#x1ce;" horiz-adv-x="1073" 
d="M476 1165l-211 295h117l157 -214l156 214h119l-211 -295h-127zM403 -19c-163 0 -300 81 -300 269c0 204 158 273 372 309l159 26c60 11 87 41 87 91c0 143 -104 193 -217 193c-115 0 -211 -52 -227 -183l-156 33c30 190 173 281 391 281c197 0 377 -82 377 -340v-406
c0 -106 31 -129 100 -129h16v-125h-86c-100 0 -167 41 -186 133h-8c-80 -109 -202 -152 -322 -152zM443 121c172 0 291 132 291 355l-260 -50c-131 -22 -202 -65 -202 -162c0 -102 76 -143 171 -143z" />
    <glyph glyph-name="acircumflex" unicode="&#xe2;" horiz-adv-x="1073" 
d="M382 1165h-118l211 295h128l211 -295h-119l-157 212zM403 -19c-163 0 -300 81 -300 269c0 204 158 273 372 309l159 26c60 11 87 41 87 91c0 143 -104 193 -217 193c-115 0 -211 -52 -227 -183l-156 33c30 190 173 281 391 281c197 0 377 -82 377 -340v-406
c0 -106 31 -129 100 -129h16v-125h-86c-100 0 -167 41 -186 133h-8c-80 -109 -202 -152 -322 -152zM443 121c172 0 291 132 291 355l-260 -50c-131 -22 -202 -65 -202 -162c0 -102 76 -143 171 -143z" />
    <glyph glyph-name="uni1EA5" unicode="&#x1ea5;" horiz-adv-x="1073" 
d="M472 1630l251 326l92 -67l-224 -259h-119zM382 1165h-118l211 295h128l211 -295h-119l-157 212zM403 -19c-163 0 -300 81 -300 269c0 204 158 273 372 309l159 26c60 11 87 41 87 91c0 143 -104 193 -217 193c-115 0 -211 -52 -227 -183l-156 33c30 190 173 281 391 281
c197 0 377 -82 377 -340v-406c0 -106 31 -129 100 -129h16v-125h-86c-100 0 -167 41 -186 133h-8c-80 -109 -202 -152 -322 -152zM443 121c172 0 291 132 291 355l-260 -50c-131 -22 -202 -65 -202 -162c0 -102 76 -143 171 -143z" />
    <glyph glyph-name="uni1EAD" unicode="&#x1ead;" horiz-adv-x="1073" 
d="M382 1165h-118l211 295h128l211 -295h-119l-157 212zM403 -19c-163 0 -300 81 -300 269c0 204 158 273 372 309l159 26c60 11 87 41 87 91c0 143 -104 193 -217 193c-115 0 -211 -52 -227 -183l-156 33c30 190 173 281 391 281c197 0 377 -82 377 -340v-406
c0 -106 31 -129 100 -129h16v-125h-86c-100 0 -167 41 -186 133h-8c-80 -109 -202 -152 -322 -152zM443 121c172 0 291 132 291 355l-260 -50c-131 -22 -202 -65 -202 -162c0 -102 76 -143 171 -143zM538 -512c-64 0 -117 51 -117 117c0 63 53 116 117 116
c63 0 116 -53 116 -116c0 -66 -53 -117 -116 -117z" />
    <glyph glyph-name="uni1EA7" unicode="&#x1ea7;" horiz-adv-x="1073" 
d="M480 1630l-225 259l92 67l252 -326h-119zM382 1165h-118l211 295h128l211 -295h-119l-157 212zM403 -19c-163 0 -300 81 -300 269c0 204 158 273 372 309l159 26c60 11 87 41 87 91c0 143 -104 193 -217 193c-115 0 -211 -52 -227 -183l-156 33c30 190 173 281 391 281
c197 0 377 -82 377 -340v-406c0 -106 31 -129 100 -129h16v-125h-86c-100 0 -167 41 -186 133h-8c-80 -109 -202 -152 -322 -152zM443 121c172 0 291 132 291 355l-260 -50c-131 -22 -202 -65 -202 -162c0 -102 76 -143 171 -143z" />
    <glyph glyph-name="uni1EA9" unicode="&#x1ea9;" horiz-adv-x="1073" 
d="M495 1556v119c73 16 119 48 119 110c0 48 -31 86 -87 86c-32 0 -59 -11 -86 -32l-51 70c38 31 85 48 138 48c109 0 185 -70 185 -168c0 -82 -51 -132 -130 -156v-77h-88zM382 1165h-118l211 295h128l211 -295h-119l-157 212zM403 -19c-163 0 -300 81 -300 269
c0 204 158 273 372 309l159 26c60 11 87 41 87 91c0 143 -104 193 -217 193c-115 0 -211 -52 -227 -183l-156 33c30 190 173 281 391 281c197 0 377 -82 377 -340v-406c0 -106 31 -129 100 -129h16v-125h-86c-100 0 -167 41 -186 133h-8c-80 -109 -202 -152 -322 -152z
M443 121c172 0 291 132 291 355l-260 -50c-131 -22 -202 -65 -202 -162c0 -102 76 -143 171 -143z" />
    <glyph glyph-name="uni1EAB" unicode="&#x1eab;" horiz-adv-x="1073" 
d="M667 1621c-72 0 -125 35 -164 97c-23 35 -47 51 -80 51c-55 0 -88 -56 -88 -134h-96c0 132 69 229 181 229c72 0 127 -40 162 -98c19 -31 44 -49 82 -49c56 0 87 52 87 132h97c0 -129 -68 -228 -181 -228zM382 1165h-118l211 295h128l211 -295h-119l-157 212zM403 -19
c-163 0 -300 81 -300 269c0 204 158 273 372 309l159 26c60 11 87 41 87 91c0 143 -104 193 -217 193c-115 0 -211 -52 -227 -183l-156 33c30 190 173 281 391 281c197 0 377 -82 377 -340v-406c0 -106 31 -129 100 -129h16v-125h-86c-100 0 -167 41 -186 133h-8
c-80 -109 -202 -152 -322 -152zM443 121c172 0 291 132 291 355l-260 -50c-131 -22 -202 -65 -202 -162c0 -102 76 -143 171 -143z" />
    <glyph glyph-name="adieresis" unicode="&#xe4;" horiz-adv-x="1073" 
d="M353 1214c-64 0 -117 53 -117 117s53 116 117 116c63 0 116 -52 116 -116s-53 -117 -116 -117zM727 1214c-64 0 -117 53 -117 117s53 116 117 116c63 0 116 -52 116 -116s-53 -117 -116 -117zM403 -19c-163 0 -300 81 -300 269c0 204 158 273 372 309l159 26
c60 11 87 41 87 91c0 143 -104 193 -217 193c-115 0 -211 -52 -227 -183l-156 33c30 190 173 281 391 281c197 0 377 -82 377 -340v-406c0 -106 31 -129 100 -129h16v-125h-86c-100 0 -167 41 -186 133h-8c-80 -109 -202 -152 -322 -152zM443 121c172 0 291 132 291 355
l-260 -50c-131 -22 -202 -65 -202 -162c0 -102 76 -143 171 -143z" />
    <glyph glyph-name="uni1EA1" unicode="&#x1ea1;" horiz-adv-x="1073" 
d="M403 -19c-163 0 -300 81 -300 269c0 204 158 273 372 309l159 26c60 11 87 41 87 91c0 143 -104 193 -217 193c-115 0 -211 -52 -227 -183l-156 33c30 190 173 281 391 281c197 0 377 -82 377 -340v-406c0 -106 31 -129 100 -129h16v-125h-86c-100 0 -167 41 -186 133h-8
c-80 -109 -202 -152 -322 -152zM443 121c172 0 291 132 291 355l-260 -50c-131 -22 -202 -65 -202 -162c0 -102 76 -143 171 -143zM538 -512c-64 0 -117 51 -117 117c0 63 53 116 117 116c63 0 116 -53 116 -116c0 -66 -53 -117 -116 -117z" />
    <glyph glyph-name="agrave" unicode="&#xe0;" horiz-adv-x="1073" 
d="M482 1153l-225 259l92 67l252 -326h-119zM403 -19c-163 0 -300 81 -300 269c0 204 158 273 372 309l159 26c60 11 87 41 87 91c0 143 -104 193 -217 193c-115 0 -211 -52 -227 -183l-156 33c30 190 173 281 391 281c197 0 377 -82 377 -340v-406c0 -106 31 -129 100 -129
h16v-125h-86c-100 0 -167 41 -186 133h-8c-80 -109 -202 -152 -322 -152zM443 121c172 0 291 132 291 355l-260 -50c-131 -22 -202 -65 -202 -162c0 -102 76 -143 171 -143z" />
    <glyph glyph-name="uni1EA3" unicode="&#x1ea3;" horiz-adv-x="1073" 
d="M497 1079v119c73 16 119 48 119 110c0 48 -31 86 -87 86c-32 0 -59 -11 -86 -32l-51 70c38 31 85 48 138 48c109 0 185 -70 185 -168c0 -82 -51 -132 -130 -156v-77h-88zM403 -19c-163 0 -300 81 -300 269c0 204 158 273 372 309l159 26c60 11 87 41 87 91
c0 143 -104 193 -217 193c-115 0 -211 -52 -227 -183l-156 33c30 190 173 281 391 281c197 0 377 -82 377 -340v-406c0 -106 31 -129 100 -129h16v-125h-86c-100 0 -167 41 -186 133h-8c-80 -109 -202 -152 -322 -152zM443 121c172 0 291 132 291 355l-260 -50
c-131 -22 -202 -65 -202 -162c0 -102 76 -143 171 -143z" />
    <glyph glyph-name="amacron" unicode="&#x101;" horiz-adv-x="1073" 
d="M216 1178v111h647v-111h-647zM403 -19c-163 0 -300 81 -300 269c0 204 158 273 372 309l159 26c60 11 87 41 87 91c0 143 -104 193 -217 193c-115 0 -211 -52 -227 -183l-156 33c30 190 173 281 391 281c197 0 377 -82 377 -340v-406c0 -106 31 -129 100 -129h16v-125
h-86c-100 0 -167 41 -186 133h-8c-80 -109 -202 -152 -322 -152zM443 121c172 0 291 132 291 355l-260 -50c-131 -22 -202 -65 -202 -162c0 -102 76 -143 171 -143z" />
    <glyph glyph-name="aogonek" unicode="&#x105;" horiz-adv-x="1073" 
d="M1005 125v-125c-50 -52 -168 -164 -168 -228c0 -27 22 -43 75 -43c31 0 67 11 93 30v-127c-31 -12 -70 -18 -108 -18c-116 0 -175 35 -175 94c0 79 101 197 194 292c-98 1 -164 42 -183 133h-8c-80 -109 -202 -152 -322 -152c-163 0 -300 81 -300 269
c0 204 158 273 372 309l159 26c60 11 87 41 87 91c0 143 -104 193 -217 193c-115 0 -211 -52 -227 -183l-156 33c30 190 173 281 391 281c197 0 377 -82 377 -340v-406c0 -106 31 -129 100 -129h16zM443 121c172 0 291 132 291 355l-260 -50c-131 -22 -202 -65 -202 -162
c0 -102 76 -143 171 -143z" />
    <glyph glyph-name="aring" unicode="&#xe5;" horiz-adv-x="1073" 
d="M540 1116c-117 0 -211 97 -211 211c0 116 94 209 211 209c114 0 208 -93 208 -209c0 -114 -94 -211 -208 -211zM540 1202c70 0 125 52 125 125c0 69 -55 128 -125 128s-125 -59 -125 -128c0 -73 55 -125 125 -125zM403 -19c-163 0 -300 81 -300 269
c0 204 158 273 372 309l159 26c60 11 87 41 87 91c0 143 -104 193 -217 193c-115 0 -211 -52 -227 -183l-156 33c30 190 173 281 391 281c197 0 377 -82 377 -340v-406c0 -106 31 -129 100 -129h16v-125h-86c-100 0 -167 41 -186 133h-8c-80 -109 -202 -152 -322 -152z
M443 121c172 0 291 132 291 355l-260 -50c-131 -22 -202 -65 -202 -162c0 -102 76 -143 171 -143z" />
    <glyph glyph-name="atilde" unicode="&#xe3;" horiz-adv-x="1073" 
d="M669 1144c-72 0 -125 35 -164 97c-23 35 -47 51 -80 51c-55 0 -88 -56 -88 -134h-96c0 132 69 229 181 229c72 0 127 -40 162 -98c19 -31 44 -49 82 -49c56 0 87 52 87 132h97c0 -129 -68 -228 -181 -228zM403 -19c-163 0 -300 81 -300 269c0 204 158 273 372 309l159 26
c60 11 87 41 87 91c0 143 -104 193 -217 193c-115 0 -211 -52 -227 -183l-156 33c30 190 173 281 391 281c197 0 377 -82 377 -340v-406c0 -106 31 -129 100 -129h16v-125h-86c-100 0 -167 41 -186 133h-8c-80 -109 -202 -152 -322 -152zM443 121c172 0 291 132 291 355
l-260 -50c-131 -22 -202 -65 -202 -162c0 -102 76 -143 171 -143z" />
    <glyph glyph-name="ae" unicode="&#xe6;" horiz-adv-x="1738" 
d="M1643 511l-3 -50h-768c7 -226 151 -336 319 -336c120 0 222 67 275 177l156 -33c-73 -181 -233 -288 -432 -288c-169 0 -310 68 -396 192h-12c-118 -154 -241 -192 -375 -192c-169 0 -304 81 -304 269c0 204 159 273 372 309l159 26c60 11 87 41 87 91
c0 143 -104 193 -217 193c-115 0 -211 -52 -227 -183l-156 33c30 190 173 281 391 281c133 0 256 -38 321 -142c87 93 212 144 355 144c263 0 454 -162 455 -491zM1185 872c-147 0 -266 -84 -302 -253v-31h586c-11 188 -121 284 -284 284zM453 121c119 0 214 79 276 190
c-15 50 -24 106 -25 167l-218 -40c-138 -23 -212 -67 -212 -168c0 -105 79 -149 179 -149z" />
    <glyph glyph-name="b" unicode="b" horiz-adv-x="1251" 
d="M697 1002c250 0 458 -201 458 -511c0 -311 -206 -512 -458 -512c-156 0 -288 82 -350 212l-4 -191h-167v1536h172l1 -741c63 127 193 207 348 207zM659 129c179 0 323 143 323 362s-144 362 -323 362s-321 -155 -321 -362s141 -362 321 -362z" />
    <glyph glyph-name="c" unicode="c" horiz-adv-x="1113" 
d="M584 -18c-281 0 -491 203 -491 510c0 308 210 510 491 510c217 0 389 -119 450 -325l-162 -26c-46 134 -156 207 -289 207c-181 0 -317 -144 -317 -366s136 -365 317 -365c133 0 243 73 289 207l162 -27c-61 -205 -236 -325 -450 -325z" />
    <glyph glyph-name="cacute" unicode="&#x107;" horiz-adv-x="1113" 
d="M509 1153l251 326l92 -67l-224 -259h-119zM584 -18c-281 0 -491 203 -491 510c0 308 210 510 491 510c217 0 389 -119 450 -325l-162 -26c-46 134 -156 207 -289 207c-181 0 -317 -144 -317 -366s136 -365 317 -365c133 0 243 73 289 207l162 -27
c-61 -205 -236 -325 -450 -325z" />
    <glyph glyph-name="ccaron" unicode="&#x10d;" horiz-adv-x="1113" 
d="M511 1165l-211 295h117l157 -214l156 214h119l-211 -295h-127zM584 -18c-281 0 -491 203 -491 510c0 308 210 510 491 510c217 0 389 -119 450 -325l-162 -26c-46 134 -156 207 -289 207c-181 0 -317 -144 -317 -366s136 -365 317 -365c133 0 243 73 289 207l162 -27
c-61 -205 -236 -325 -450 -325z" />
    <glyph glyph-name="ccedilla" unicode="&#xe7;" horiz-adv-x="1113" 
d="M583 127c133 0 243 73 289 207l162 -27c-58 -196 -220 -314 -421 -324l-58 -121c18 4 37 8 55 8c115 0 200 -77 200 -192c0 -117 -91 -210 -210 -210c-98 0 -196 57 -236 130l86 36c30 -43 95 -75 148 -75c65 0 119 50 119 119c0 74 -54 114 -125 114
c-26 0 -54 -6 -80 -20l-75 49l83 165c-248 28 -427 223 -427 506c0 308 210 510 491 510c217 0 389 -119 450 -325l-162 -26c-46 134 -156 207 -289 207c-181 0 -317 -144 -317 -366s136 -365 317 -365z" />
    <glyph glyph-name="cdotaccent" unicode="&#x10b;" horiz-adv-x="1113" 
d="M575 1214c-64 0 -117 53 -117 117s53 116 117 116c63 0 116 -52 116 -116s-53 -117 -116 -117zM584 -18c-281 0 -491 203 -491 510c0 308 210 510 491 510c217 0 389 -119 450 -325l-162 -26c-46 134 -156 207 -289 207c-181 0 -317 -144 -317 -366s136 -365 317 -365
c133 0 243 73 289 207l162 -27c-61 -205 -236 -325 -450 -325z" />
    <glyph glyph-name="d" unicode="d" horiz-adv-x="1251" 
d="M902 1536h173v-1536h-167l-4 191c-62 -130 -194 -212 -348 -212c-252 0 -460 201 -460 512c0 310 209 511 460 511c152 0 283 -80 346 -206v740zM592 129c180 0 321 155 321 362s-142 362 -321 362s-323 -143 -323 -362s144 -362 323 -362z" />
    <glyph glyph-name="eth" unicode="&#xf0;" horiz-adv-x="1164" 
d="M951 840c79 -109 122 -229 121 -356c-3 -301 -218 -502 -493 -502c-266 0 -490 205 -486 515c4 311 210 489 440 502c48 1 96 -6 143 -24l-198 263l-274 -71l-18 68l246 64l-178 237h189l144 -197l266 69l19 -69l-240 -62zM908 491c3 199 -132 361 -322 361
c-182 0 -320 -130 -324 -353c-3 -222 139 -356 322 -356c186 0 321 126 324 348z" />
    <glyph glyph-name="dcaron" unicode="&#x10f;" horiz-adv-x="1389" 
d="M541 -19c-247 0 -443 201 -443 512c0 310 198 511 443 511c151 0 279 -83 352 -211l1 743h172v-1536h-173v193c-73 -128 -201 -212 -352 -212zM1227 916l124 620h181l-177 -620h-128zM592 131c179 0 318 155 318 362s-141 362 -318 362c-179 0 -321 -143 -321 -362
s142 -362 321 -362z" />
    <glyph glyph-name="dcroat" unicode="&#x111;" horiz-adv-x="1251" 
d="M1236 1304v-115h-161v-1189h-167l-4 191c-62 -130 -194 -212 -348 -212c-252 0 -460 201 -460 512c0 310 209 511 460 511c152 0 283 -80 346 -206v393h-272v115h272v232h173v-232h161zM592 129c180 0 321 155 321 362s-142 362 -321 362s-323 -143 -323 -362
s144 -362 323 -362z" />
    <glyph glyph-name="e" unicode="e" horiz-adv-x="1131" 
d="M1036 511l-2 -47h-768c5 -228 149 -339 318 -339c121 0 223 67 275 177l156 -33c-71 -179 -234 -288 -429 -288c-286 0 -489 189 -489 511c0 321 207 510 484 510c264 0 455 -162 455 -491zM581 869c-157 0 -279 -89 -308 -272h589c-14 183 -127 272 -281 272z" />
    <glyph glyph-name="eacute" unicode="&#xe9;" horiz-adv-x="1131" 
d="M864 1415l-224 -259h-119l251 326zM1036 511l-2 -47h-768c5 -228 149 -339 318 -339c121 0 223 67 275 177l156 -33c-71 -179 -234 -288 -429 -288c-286 0 -489 189 -489 511c0 321 207 510 484 510c264 0 455 -162 455 -491zM581 869c-157 0 -279 -89 -308 -272h589
c-14 183 -127 272 -281 272z" />
    <glyph glyph-name="ecaron" unicode="&#x11b;" horiz-adv-x="1131" 
d="M650 1168h-127l-211 295h117l157 -214l156 214h119zM1036 511l-2 -47h-768c5 -228 149 -339 318 -339c121 0 223 67 275 177l156 -33c-71 -179 -234 -288 -429 -288c-286 0 -489 189 -489 511c0 321 207 510 484 510c264 0 455 -162 455 -491zM581 869
c-157 0 -279 -89 -308 -272h589c-14 183 -127 272 -281 272z" />
    <glyph glyph-name="ecircumflex" unicode="&#xea;" horiz-adv-x="1131" 
d="M585 1380l-156 -212h-118l211 295h128l211 -295h-119zM1036 511l-2 -47h-768c5 -228 149 -339 318 -339c121 0 223 67 275 177l156 -33c-71 -179 -234 -288 -429 -288c-286 0 -489 189 -489 511c0 321 207 510 484 510c264 0 455 -162 455 -491zM581 869
c-157 0 -279 -89 -308 -272h589c-14 183 -127 272 -281 272z" />
    <glyph glyph-name="uni1EBF" unicode="&#x1ebf;" horiz-adv-x="1131" 
d="M862 1892l-224 -259h-119l251 326zM585 1380l-156 -212h-118l211 295h128l211 -295h-119zM1036 511l-2 -47h-768c5 -228 149 -339 318 -339c121 0 223 67 275 177l156 -33c-71 -179 -234 -288 -429 -288c-286 0 -489 189 -489 511c0 321 207 510 484 510
c264 0 455 -162 455 -491zM581 869c-157 0 -279 -89 -308 -272h589c-14 183 -127 272 -281 272z" />
    <glyph glyph-name="uni1EC7" unicode="&#x1ec7;" horiz-adv-x="1131" 
d="M585 1380l-156 -212h-118l211 295h128l211 -295h-119zM1036 511l-2 -47h-768c5 -228 149 -339 318 -339c121 0 223 67 275 177l156 -33c-71 -179 -234 -288 -429 -288c-286 0 -489 189 -489 511c0 321 207 510 484 510c264 0 455 -162 455 -491zM581 869
c-157 0 -279 -89 -308 -272h589c-14 183 -127 272 -281 272zM593 -280c63 0 116 -53 116 -116c0 -66 -53 -117 -116 -117c-64 0 -117 51 -117 117c0 63 53 116 117 116z" />
    <glyph glyph-name="uni1EC1" unicode="&#x1ec1;" horiz-adv-x="1131" 
d="M646 1633h-119l-225 259l92 67zM311 1168l211 295h128l211 -295h-119l-157 212l-156 -212h-118zM1036 511l-2 -47h-768c5 -228 149 -339 318 -339c121 0 223 67 275 177l156 -33c-71 -179 -234 -288 -429 -288c-286 0 -489 189 -489 511c0 321 207 510 484 510
c264 0 455 -162 455 -491zM581 869c-157 0 -279 -89 -308 -272h589c-14 183 -127 272 -281 272z" />
    <glyph glyph-name="uni1EC3" unicode="&#x1ec3;" horiz-adv-x="1131" 
d="M574 1874c-32 0 -59 -11 -86 -32l-51 70c38 31 85 48 138 48c109 0 185 -70 185 -168c0 -82 -51 -132 -130 -156v-77h-88v119c73 16 119 48 119 110c0 48 -31 86 -87 86zM585 1380l-156 -212h-118l211 295h128l211 -295h-119zM1036 511l-2 -47h-768
c5 -228 149 -339 318 -339c121 0 223 67 275 177l156 -33c-71 -179 -234 -288 -429 -288c-286 0 -489 189 -489 511c0 321 207 510 484 510c264 0 455 -162 455 -491zM581 869c-157 0 -279 -89 -308 -272h589c-14 183 -127 272 -281 272z" />
    <glyph glyph-name="uni1EC5" unicode="&#x1ec5;" horiz-adv-x="1131" 
d="M470 1772c-55 0 -88 -56 -88 -134h-96c0 132 69 229 181 229c72 0 127 -40 162 -98c19 -31 44 -49 82 -49c56 0 87 52 87 132h97c0 -129 -68 -228 -181 -228c-72 0 -125 35 -164 97c-23 35 -47 51 -80 51zM522 1463h128l211 -295h-119l-157 212l-156 -212h-118zM1036 511
l-2 -47h-768c5 -228 149 -339 318 -339c121 0 223 67 275 177l156 -33c-71 -179 -234 -288 -429 -288c-286 0 -489 189 -489 511c0 321 207 510 484 510c264 0 455 -162 455 -491zM581 869c-157 0 -279 -89 -308 -272h589c-14 183 -127 272 -281 272z" />
    <glyph glyph-name="edieresis" unicode="&#xeb;" horiz-adv-x="1131" 
d="M400 1217c-64 0 -117 53 -117 117s53 116 117 116c63 0 116 -52 116 -116s-53 -117 -116 -117zM774 1217c-64 0 -117 53 -117 117s53 116 117 116c63 0 116 -52 116 -116s-53 -117 -116 -117zM1036 511l-2 -47h-768c5 -228 149 -339 318 -339c121 0 223 67 275 177
l156 -33c-71 -179 -234 -288 -429 -288c-286 0 -489 189 -489 511c0 321 207 510 484 510c264 0 455 -162 455 -491zM581 869c-157 0 -279 -89 -308 -272h589c-14 183 -127 272 -281 272z" />
    <glyph glyph-name="edotaccent" unicode="&#x117;" horiz-adv-x="1131" 
d="M587 1217c-64 0 -117 53 -117 117s53 116 117 116c63 0 116 -52 116 -116s-53 -117 -116 -117zM1036 511l-2 -47h-768c5 -228 149 -339 318 -339c121 0 223 67 275 177l156 -33c-71 -179 -234 -288 -429 -288c-286 0 -489 189 -489 511c0 321 207 510 484 510
c264 0 455 -162 455 -491zM581 869c-157 0 -279 -89 -308 -272h589c-14 183 -127 272 -281 272z" />
    <glyph glyph-name="uni1EB9" unicode="&#x1eb9;" horiz-adv-x="1131" 
d="M1036 511l-2 -47h-768c5 -228 149 -339 318 -339c121 0 223 67 275 177l156 -33c-71 -179 -234 -288 -429 -288c-286 0 -489 189 -489 511c0 321 207 510 484 510c264 0 455 -162 455 -491zM581 869c-157 0 -279 -89 -308 -272h589c-14 183 -127 272 -281 272zM593 -280
c63 0 116 -53 116 -116c0 -66 -53 -117 -116 -117c-64 0 -117 51 -117 117c0 63 53 116 117 116z" />
    <glyph glyph-name="egrave" unicode="&#xe8;" horiz-adv-x="1131" 
d="M648 1156h-119l-225 259l92 67zM1036 511l-2 -47h-768c5 -228 149 -339 318 -339c121 0 223 67 275 177l156 -33c-71 -179 -234 -288 -429 -288c-286 0 -489 189 -489 511c0 321 207 510 484 510c264 0 455 -162 455 -491zM581 869c-157 0 -279 -89 -308 -272h589
c-14 183 -127 272 -281 272z" />
    <glyph glyph-name="uni1EBB" unicode="&#x1ebb;" horiz-adv-x="1131" 
d="M576 1397c-32 0 -59 -11 -86 -32l-51 70c38 31 85 48 138 48c109 0 185 -70 185 -168c0 -82 -51 -132 -130 -156v-77h-88v119c73 16 119 48 119 110c0 48 -31 86 -87 86zM1036 511l-2 -47h-768c5 -228 149 -339 318 -339c121 0 223 67 275 177l156 -33
c-71 -179 -234 -288 -429 -288c-286 0 -489 189 -489 511c0 321 207 510 484 510c264 0 455 -162 455 -491zM581 869c-157 0 -279 -89 -308 -272h589c-14 183 -127 272 -281 272z" />
    <glyph glyph-name="emacron" unicode="&#x113;" horiz-adv-x="1131" 
d="M910 1292v-111h-647v111h647zM1036 511l-2 -47h-768c5 -228 149 -339 318 -339c121 0 223 67 275 177l156 -33c-71 -179 -234 -288 -429 -288c-286 0 -489 189 -489 511c0 321 207 510 484 510c264 0 455 -162 455 -491zM581 869c-157 0 -279 -89 -308 -272h589
c-14 183 -127 272 -281 272z" />
    <glyph glyph-name="eogonek" unicode="&#x119;" horiz-adv-x="1131" 
d="M1036 511l-2 -47h-768c5 -228 149 -339 318 -339c121 0 223 67 275 177l156 -33c-20 -50 -47 -95 -81 -134h1c-3 -3 -6 -7 -10 -10c-6 -7 -12 -13 -19 -19c-56 -58 -139 -145 -139 -199c0 -27 22 -43 75 -43c31 0 67 11 93 30v-127c-31 -12 -70 -18 -108 -18
c-116 0 -175 35 -175 94c0 44 32 101 76 159c-44 -14 -92 -21 -142 -21c-286 0 -489 189 -489 511c0 321 207 510 484 510c264 0 455 -162 455 -491zM581 869c-157 0 -279 -89 -308 -272h589c-14 183 -127 272 -281 272z" />
    <glyph glyph-name="uni1EBD" unicode="&#x1ebd;" horiz-adv-x="1131" 
d="M472 1295c-55 0 -88 -56 -88 -134h-96c0 132 69 229 181 229c72 0 127 -40 162 -98c19 -31 44 -49 82 -49c56 0 87 52 87 132h97c0 -129 -68 -228 -181 -228c-72 0 -125 35 -164 97c-23 35 -47 51 -80 51zM1036 511l-2 -47h-768c5 -228 149 -339 318 -339
c121 0 223 67 275 177l156 -33c-71 -179 -234 -288 -429 -288c-286 0 -489 189 -489 511c0 321 207 510 484 510c264 0 455 -162 455 -491zM581 869c-157 0 -279 -89 -308 -272h589c-14 183 -127 272 -281 272z" />
    <glyph glyph-name="f" unicode="f" horiz-adv-x="651" 
d="M627 1391c-112 0 -228 2 -228 -205v-203h228v-138h-228v-845h-172v845h-190v138h190v206c0 303 169 347 400 347v-145z" />
    <glyph glyph-name="g" unicode="g" horiz-adv-x="1232" 
d="M888 983h168v-933c0 -335 -182 -517 -479 -517c-246 0 -401 111 -477 301l143 70c57 -149 164 -227 329 -227c205 0 310 138 310 364v182c-61 -116 -196 -195 -345 -195c-245 0 -449 202 -449 488c0 287 205 486 451 486c152 0 285 -81 345 -200zM576 175
c179 0 320 157 320 341c0 185 -140 342 -320 342c-177 0 -319 -146 -319 -342c0 -194 144 -341 319 -341z" />
    <glyph glyph-name="gbreve" unicode="&#x11f;" horiz-adv-x="1232" 
d="M576 1143c-195 0 -338 121 -338 317h113c0 -132 91 -226 225 -226c136 0 228 94 228 226h113c0 -196 -143 -317 -341 -317zM888 983h168v-933c0 -335 -182 -517 -479 -517c-246 0 -401 111 -477 301l143 70c57 -149 164 -227 329 -227c205 0 310 138 310 364v182
c-61 -116 -196 -195 -345 -195c-245 0 -449 202 -449 488c0 287 205 486 451 486c152 0 285 -81 345 -200zM576 175c179 0 320 157 320 341c0 185 -140 342 -320 342c-177 0 -319 -146 -319 -342c0 -194 144 -341 319 -341z" />
    <glyph glyph-name="gcommaaccent" unicode="&#x123;" horiz-adv-x="1232" 
d="M733 1453l-122 -306h-181l177 306h126zM888 983h168v-933c0 -335 -182 -517 -479 -517c-246 0 -401 111 -477 301l143 70c57 -149 164 -227 329 -227c205 0 310 138 310 364v182c-61 -116 -196 -195 -345 -195c-245 0 -449 202 -449 488c0 287 205 486 451 486
c152 0 285 -81 345 -200zM576 175c179 0 320 157 320 341c0 185 -140 342 -320 342c-177 0 -319 -146 -319 -342c0 -194 144 -341 319 -341z" />
    <glyph glyph-name="gdotaccent" unicode="&#x121;" horiz-adv-x="1232" 
d="M578 1214c-64 0 -117 53 -117 117s53 116 117 116c63 0 116 -52 116 -116s-53 -117 -116 -117zM888 983h168v-933c0 -335 -182 -517 -479 -517c-246 0 -401 111 -477 301l143 70c57 -149 164 -227 329 -227c205 0 310 138 310 364v182c-61 -116 -196 -195 -345 -195
c-245 0 -449 202 -449 488c0 287 205 486 451 486c152 0 285 -81 345 -200zM576 175c179 0 320 157 320 341c0 185 -140 342 -320 342c-177 0 -319 -146 -319 -342c0 -194 144 -341 319 -341z" />
    <glyph glyph-name="h" unicode="h" horiz-adv-x="1137" 
d="M646 1002c196 0 334 -119 334 -352v-650h-173v617c0 174 -99 239 -215 239c-130 0 -242 -80 -243 -268v-588h-173v1536h173v-683c62 94 166 149 297 149z" />
    <glyph glyph-name="hbar" unicode="&#x127;" horiz-adv-x="1137" 
d="M646 1002c196 0 334 -119 334 -352v-650h-173v617c0 174 -99 239 -215 239c-130 0 -242 -80 -243 -268v-588h-173v1190h-134v115h134v231h173v-231h299v-115h-299v-337c62 94 166 149 297 149z" />
    <glyph glyph-name="i" unicode="i" horiz-adv-x="526" 
d="M264 1214c-64 0 -117 53 -117 117s53 116 117 116c63 0 116 -52 116 -116s-53 -117 -116 -117zM176 0v983h174v-983h-174z" />
    <glyph glyph-name="dotlessi" unicode="&#x131;" horiz-adv-x="526" 
d="M176 0v983h174v-983h-174z" />
    <glyph glyph-name="iacute" unicode="&#xed;" horiz-adv-x="526" 
d="M198 1153l251 326l92 -67l-224 -259h-119zM176 0v983h174v-983h-174z" />
    <glyph glyph-name="uni01D0" unicode="&#x1d0;" horiz-adv-x="526" 
d="M200 1165l-211 295h117l157 -214l156 214h119l-211 -295h-127zM176 0v983h174v-983h-174z" />
    <glyph glyph-name="icircumflex" unicode="&#xee;" horiz-adv-x="526" 
d="M106 1165h-118l211 295h128l211 -295h-119l-157 212zM176 0v983h174v-983h-174z" />
    <glyph glyph-name="idieresis" unicode="&#xef;" horiz-adv-x="526" 
d="M77 1214c-64 0 -117 53 -117 117s53 116 117 116c63 0 116 -52 116 -116s-53 -117 -116 -117zM451 1214c-64 0 -117 53 -117 117s53 116 117 116c63 0 116 -52 116 -116s-53 -117 -116 -117zM176 0v983h174v-983h-174z" />
    <glyph glyph-name="i.loclTRK" horiz-adv-x="526" 
d="M264 1214c-64 0 -117 53 -117 117s53 116 117 116c63 0 116 -52 116 -116s-53 -117 -116 -117zM176 0v983h174v-983h-174z" />
    <glyph glyph-name="uni1ECB" unicode="&#x1ecb;" horiz-adv-x="526" 
d="M264 1214c-64 0 -117 53 -117 117s53 116 117 116c63 0 116 -52 116 -116s-53 -117 -116 -117zM176 0v983h174v-983h-174zM264 -512c-64 0 -117 51 -117 117c0 63 53 116 117 116c63 0 116 -53 116 -116c0 -66 -53 -117 -116 -117z" />
    <glyph glyph-name="igrave" unicode="&#xec;" horiz-adv-x="526" 
d="M206 1153l-225 259l92 67l252 -326h-119zM176 0v983h174v-983h-174z" />
    <glyph glyph-name="uni1EC9" unicode="&#x1ec9;" horiz-adv-x="526" 
d="M221 1079v119c73 16 119 48 119 110c0 48 -31 86 -87 86c-32 0 -59 -11 -86 -32l-51 70c38 31 85 48 138 48c109 0 185 -70 185 -168c0 -82 -51 -132 -130 -156v-77h-88zM176 0v983h174v-983h-174z" />
    <glyph glyph-name="imacron" unicode="&#x12b;" horiz-adv-x="526" 
d="M-60 1178v111h647v-111h-647zM176 0v983h174v-983h-174z" />
    <glyph glyph-name="iogonek" unicode="&#x12f;" horiz-adv-x="526" 
d="M264 1214c-64 0 -117 53 -117 117s53 116 117 116c63 0 116 -52 116 -116s-53 -117 -116 -117zM176 0v983h174v-983c-50 -52 -168 -164 -168 -228c0 -27 22 -43 75 -43c31 0 67 11 93 30v-127c-31 -12 -70 -18 -108 -18c-116 0 -175 35 -175 94c0 79 101 197 194 292h-85
z" />
    <glyph glyph-name="itilde" unicode="&#x129;" horiz-adv-x="526" 
d="M393 1144c-72 0 -125 35 -164 97c-23 35 -47 51 -80 51c-55 0 -88 -56 -88 -134h-96c0 132 69 229 181 229c72 0 127 -40 162 -98c19 -31 44 -49 82 -49c56 0 87 52 87 132h97c0 -129 -68 -228 -181 -228zM176 0v983h174v-983h-174z" />
    <glyph glyph-name="j" unicode="j" horiz-adv-x="528" 
d="M265 1214c-64 0 -117 53 -117 117s53 116 117 116c63 0 116 -52 116 -116s-53 -117 -116 -117zM-50 -460v147c183 0 226 65 226 327v969h175v-969c0 -348 -109 -474 -401 -474z" />
    <glyph glyph-name="uni0237" unicode="&#x237;" horiz-adv-x="528" 
d="M-50 -460v147c183 0 226 65 226 327v969h175v-969c0 -348 -109 -474 -401 -474z" />
    <glyph glyph-name="k" unicode="k" horiz-adv-x="1041" 
d="M802 0l-372 455h-79v-455h-175v1536h175v-949h74l341 396h205l-397 -449l449 -534h-221z" />
    <glyph glyph-name="kcommaaccent" unicode="&#x137;" horiz-adv-x="1041" 
d="M574 534l449 -534h-221l-372 455h-79v-455h-175v1536h175v-949h74l341 396h205zM279 -518l160 366h158l-226 -407z" />
    <glyph glyph-name="l" unicode="l" horiz-adv-x="527" 
d="M176 0v1536h175v-1536h-175z" />
    <glyph glyph-name="lacute" unicode="&#x13a;" horiz-adv-x="527" 
d="M198 1706l251 326l92 -67l-224 -259h-119zM176 0v1536h175v-1536h-175z" />
    <glyph glyph-name="lcaron" unicode="&#x13e;" horiz-adv-x="642" 
d="M176 0v1536h172v-1536h-172zM482 916l124 620h181l-178 -620h-127z" />
    <glyph glyph-name="lcommaaccent" unicode="&#x13c;" horiz-adv-x="527" 
d="M176 0v1536h175v-1536h-175zM115 -559l-92 41l160 366h158z" />
    <glyph glyph-name="lslash" unicode="&#x142;" horiz-adv-x="527" 
d="M532 985v-128l-181 -135v-722h-175v591l-185 -138v128l185 138v817h175v-686z" />
    <glyph glyph-name="m" unicode="m" horiz-adv-x="1656" 
d="M1181 1002c184 0 316 -111 316 -318v-684h-173v639c0 151 -88 217 -191 217c-118 0 -207 -76 -207 -248v-608h-176v632c0 155 -87 224 -194 224c-115 0 -207 -76 -207 -254v-602h-173v983h173v-127c57 93 152 146 269 146c125 0 228 -55 277 -161c59 105 161 161 286 161
z" />
    <glyph glyph-name="n" unicode="n" horiz-adv-x="1138" 
d="M640 1002c202 0 340 -119 340 -340v-662h-173v623c0 168 -99 233 -214 233c-135 0 -243 -83 -244 -268v-588h-173v983h173v-126c62 92 164 145 291 145z" />
    <glyph glyph-name="nacute" unicode="&#x144;" horiz-adv-x="1138" 
d="M844 1412l-224 -259h-119l251 326zM640 1002c202 0 340 -119 340 -340v-662h-173v623c0 168 -99 233 -214 233c-135 0 -243 -83 -244 -268v-588h-173v983h173v-126c62 92 164 145 291 145z" />
    <glyph glyph-name="ncaron" unicode="&#x148;" horiz-adv-x="1138" 
d="M630 1165h-127l-211 295h117l157 -214l156 214h119zM640 1002c202 0 340 -119 340 -340v-662h-173v623c0 168 -99 233 -214 233c-135 0 -243 -83 -244 -268v-588h-173v983h173v-126c62 92 164 145 291 145z" />
    <glyph glyph-name="ncommaaccent" unicode="&#x146;" horiz-adv-x="1138" 
d="M640 1002c202 0 340 -119 340 -340v-662h-173v623c0 168 -99 233 -214 233c-135 0 -243 -83 -244 -268v-588h-173v983h173v-126c62 92 164 145 291 145zM327 -518l160 366h158l-226 -407z" />
    <glyph glyph-name="eng" unicode="&#x14b;" horiz-adv-x="1139" 
d="M642 1002c202 0 340 -119 340 -351v-826c0 -170 -106 -288 -272 -288h-133v129h92c79 0 139 54 139 150v807c0 168 -97 233 -221 233c-127 0 -237 -72 -238 -256v-600h-173v983h173v-116c65 86 169 135 293 135z" />
    <glyph glyph-name="ntilde" unicode="&#xf1;" horiz-adv-x="1138" 
d="M452 1292c-55 0 -88 -56 -88 -134h-96c0 132 69 229 181 229c72 0 127 -40 162 -98c19 -31 44 -49 82 -49c56 0 87 52 87 132h97c0 -129 -68 -228 -181 -228c-72 0 -125 35 -164 97c-23 35 -47 51 -80 51zM640 1002c202 0 340 -119 340 -340v-662h-173v623
c0 168 -99 233 -214 233c-135 0 -243 -83 -244 -268v-588h-173v983h173v-126c62 92 164 145 291 145z" />
    <glyph glyph-name="o" unicode="o" horiz-adv-x="1180" 
d="M590 -19c-280 0 -495 196 -495 511c0 313 212 510 495 510c284 0 495 -197 495 -510c0 -315 -212 -511 -495 -511zM589 125c184 0 325 144 325 367c0 222 -141 366 -325 366c-182 0 -322 -144 -322 -366c0 -223 140 -367 322 -367z" />
    <glyph glyph-name="oacute" unicode="&#xf3;" horiz-adv-x="1180" 
d="M524 1152l251 326l92 -67l-224 -259h-119zM590 -19c-280 0 -495 196 -495 511c0 313 212 510 495 510c284 0 495 -197 495 -510c0 -315 -212 -511 -495 -511zM589 125c184 0 325 144 325 367c0 222 -141 366 -325 366c-182 0 -322 -144 -322 -366
c0 -223 140 -367 322 -367z" />
    <glyph glyph-name="uni01D2" unicode="&#x1d2;" horiz-adv-x="1180" 
d="M526 1164l-211 295h117l157 -214l156 214h119l-211 -295h-127zM590 -19c-280 0 -495 196 -495 511c0 313 212 510 495 510c284 0 495 -197 495 -510c0 -315 -212 -511 -495 -511zM589 125c184 0 325 144 325 367c0 222 -141 366 -325 366c-182 0 -322 -144 -322 -366
c0 -223 140 -367 322 -367z" />
    <glyph glyph-name="ocircumflex" unicode="&#xf4;" horiz-adv-x="1180" 
d="M432 1164h-118l211 295h128l211 -295h-119l-157 212zM590 -19c-280 0 -495 196 -495 511c0 313 212 510 495 510c284 0 495 -197 495 -510c0 -315 -212 -511 -495 -511zM589 125c184 0 325 144 325 367c0 222 -141 366 -325 366c-182 0 -322 -144 -322 -366
c0 -223 140 -367 322 -367z" />
    <glyph glyph-name="uni1ED1" unicode="&#x1ed1;" horiz-adv-x="1180" 
d="M522 1629l251 326l92 -67l-224 -259h-119zM432 1164h-118l211 295h128l211 -295h-119l-157 212zM590 -19c-280 0 -495 196 -495 511c0 313 212 510 495 510c284 0 495 -197 495 -510c0 -315 -212 -511 -495 -511zM589 125c184 0 325 144 325 367c0 222 -141 366 -325 366
c-182 0 -322 -144 -322 -366c0 -223 140 -367 322 -367z" />
    <glyph glyph-name="uni1ED9" unicode="&#x1ed9;" horiz-adv-x="1180" 
d="M432 1164h-118l211 295h128l211 -295h-119l-157 212zM590 -19c-280 0 -495 196 -495 511c0 313 212 510 495 510c284 0 495 -197 495 -510c0 -315 -212 -511 -495 -511zM589 125c184 0 325 144 325 367c0 222 -141 366 -325 366c-182 0 -322 -144 -322 -366
c0 -223 140 -367 322 -367zM590 -512c-64 0 -117 51 -117 117c0 63 53 116 117 116c63 0 116 -53 116 -116c0 -66 -53 -117 -116 -117z" />
    <glyph glyph-name="uni1ED3" unicode="&#x1ed3;" horiz-adv-x="1180" 
d="M530 1629l-225 259l92 67l252 -326h-119zM432 1164h-118l211 295h128l211 -295h-119l-157 212zM590 -19c-280 0 -495 196 -495 511c0 313 212 510 495 510c284 0 495 -197 495 -510c0 -315 -212 -511 -495 -511zM589 125c184 0 325 144 325 367c0 222 -141 366 -325 366
c-182 0 -322 -144 -322 -366c0 -223 140 -367 322 -367z" />
    <glyph glyph-name="uni1ED5" unicode="&#x1ed5;" horiz-adv-x="1180" 
d="M545 1555v119c73 16 119 48 119 110c0 48 -31 86 -87 86c-32 0 -59 -11 -86 -32l-51 70c38 31 85 48 138 48c109 0 185 -70 185 -168c0 -82 -51 -132 -130 -156v-77h-88zM432 1164h-118l211 295h128l211 -295h-119l-157 212zM590 -19c-280 0 -495 196 -495 511
c0 313 212 510 495 510c284 0 495 -197 495 -510c0 -315 -212 -511 -495 -511zM589 125c184 0 325 144 325 367c0 222 -141 366 -325 366c-182 0 -322 -144 -322 -366c0 -223 140 -367 322 -367z" />
    <glyph glyph-name="uni1ED7" unicode="&#x1ed7;" horiz-adv-x="1180" 
d="M717 1620c-72 0 -125 35 -164 97c-23 35 -47 51 -80 51c-55 0 -88 -56 -88 -134h-96c0 132 69 229 181 229c72 0 127 -40 162 -98c19 -31 44 -49 82 -49c56 0 87 52 87 132h97c0 -129 -68 -228 -181 -228zM432 1164h-118l211 295h128l211 -295h-119l-157 212zM590 -19
c-280 0 -495 196 -495 511c0 313 212 510 495 510c284 0 495 -197 495 -510c0 -315 -212 -511 -495 -511zM589 125c184 0 325 144 325 367c0 222 -141 366 -325 366c-182 0 -322 -144 -322 -366c0 -223 140 -367 322 -367z" />
    <glyph glyph-name="odieresis" unicode="&#xf6;" horiz-adv-x="1180" 
d="M403 1213c-64 0 -117 53 -117 117s53 116 117 116c63 0 116 -52 116 -116s-53 -117 -116 -117zM777 1213c-64 0 -117 53 -117 117s53 116 117 116c63 0 116 -52 116 -116s-53 -117 -116 -117zM590 -19c-280 0 -495 196 -495 511c0 313 212 510 495 510
c284 0 495 -197 495 -510c0 -315 -212 -511 -495 -511zM589 125c184 0 325 144 325 367c0 222 -141 366 -325 366c-182 0 -322 -144 -322 -366c0 -223 140 -367 322 -367z" />
    <glyph glyph-name="uni1ECD" unicode="&#x1ecd;" horiz-adv-x="1180" 
d="M590 -19c-280 0 -495 196 -495 511c0 313 212 510 495 510c284 0 495 -197 495 -510c0 -315 -212 -511 -495 -511zM589 125c184 0 325 144 325 367c0 222 -141 366 -325 366c-182 0 -322 -144 -322 -366c0 -223 140 -367 322 -367zM590 -512c-64 0 -117 51 -117 117
c0 63 53 116 117 116c63 0 116 -53 116 -116c0 -66 -53 -117 -116 -117z" />
    <glyph glyph-name="ograve" unicode="&#xf2;" horiz-adv-x="1180" 
d="M532 1152l-225 259l92 67l252 -326h-119zM590 -19c-280 0 -495 196 -495 511c0 313 212 510 495 510c284 0 495 -197 495 -510c0 -315 -212 -511 -495 -511zM589 125c184 0 325 144 325 367c0 222 -141 366 -325 366c-182 0 -322 -144 -322 -366
c0 -223 140 -367 322 -367z" />
    <glyph glyph-name="uni1ECF" unicode="&#x1ecf;" horiz-adv-x="1180" 
d="M547 1078v119c73 16 119 48 119 110c0 48 -31 86 -87 86c-32 0 -59 -11 -86 -32l-51 70c38 31 85 48 138 48c109 0 185 -70 185 -168c0 -82 -51 -132 -130 -156v-77h-88zM590 -19c-280 0 -495 196 -495 511c0 313 212 510 495 510c284 0 495 -197 495 -510
c0 -315 -212 -511 -495 -511zM589 125c184 0 325 144 325 367c0 222 -141 366 -325 366c-182 0 -322 -144 -322 -366c0 -223 140 -367 322 -367z" />
    <glyph glyph-name="ohorn" unicode="&#x1a1;" horiz-adv-x="1180" 
d="M1089 1118h109v-108c0 -174 -74 -234 -169 -234c-5 0 -11 0 -17 1c47 -78 73 -174 73 -285c0 -315 -212 -511 -495 -511c-280 0 -495 196 -495 511c0 313 212 510 495 510c136 0 255 -45 342 -126c24 -8 46 -12 64 -12c69 0 93 51 93 152v102zM589 125
c184 0 325 144 325 367c0 222 -141 366 -325 366c-182 0 -322 -144 -322 -366c0 -223 140 -367 322 -367z" />
    <glyph glyph-name="uni1EDB" unicode="&#x1edb;" horiz-adv-x="1180" 
d="M867 1411l-224 -259h-119l251 326zM1089 1118h109v-108c0 -174 -74 -234 -169 -234c-5 0 -11 0 -17 1c47 -78 73 -174 73 -285c0 -315 -212 -511 -495 -511c-280 0 -495 196 -495 511c0 313 212 510 495 510c136 0 255 -45 342 -126c24 -8 46 -12 64 -12
c69 0 93 51 93 152v102zM589 125c184 0 325 144 325 367c0 222 -141 366 -325 366c-182 0 -322 -144 -322 -366c0 -223 140 -367 322 -367z" />
    <glyph glyph-name="uni1EE3" unicode="&#x1ee3;" horiz-adv-x="1180" 
d="M1089 1118h109v-108c0 -174 -74 -234 -169 -234c-5 0 -11 0 -17 1c47 -78 73 -174 73 -285c0 -315 -212 -511 -495 -511c-280 0 -495 196 -495 511c0 313 212 510 495 510c136 0 255 -45 342 -126c24 -8 46 -12 64 -12c69 0 93 51 93 152v102zM589 125
c184 0 325 144 325 367c0 222 -141 366 -325 366c-182 0 -322 -144 -322 -366c0 -223 140 -367 322 -367zM590 -279c63 0 116 -53 116 -116c0 -66 -53 -117 -116 -117c-64 0 -117 51 -117 117c0 63 53 116 117 116z" />
    <glyph glyph-name="uni1EDD" unicode="&#x1edd;" horiz-adv-x="1180" 
d="M651 1152h-119l-225 259l92 67zM1089 1118h109v-108c0 -174 -74 -234 -169 -234c-5 0 -11 0 -17 1c47 -78 73 -174 73 -285c0 -315 -212 -511 -495 -511c-280 0 -495 196 -495 511c0 313 212 510 495 510c136 0 255 -45 342 -126c24 -8 46 -12 64 -12c69 0 93 51 93 152
v102zM589 125c184 0 325 144 325 367c0 222 -141 366 -325 366c-182 0 -322 -144 -322 -366c0 -223 140 -367 322 -367z" />
    <glyph glyph-name="uni1EDF" unicode="&#x1edf;" horiz-adv-x="1180" 
d="M579 1393c-32 0 -59 -11 -86 -32l-51 70c38 31 85 48 138 48c109 0 185 -70 185 -168c0 -82 -51 -132 -130 -156v-77h-88v119c73 16 119 48 119 110c0 48 -31 86 -87 86zM1089 1118h109v-108c0 -174 -74 -234 -169 -234c-5 0 -11 0 -17 1c47 -78 73 -174 73 -285
c0 -315 -212 -511 -495 -511c-280 0 -495 196 -495 511c0 313 212 510 495 510c136 0 255 -45 342 -126c24 -8 46 -12 64 -12c69 0 93 51 93 152v102zM589 125c184 0 325 144 325 367c0 222 -141 366 -325 366c-182 0 -322 -144 -322 -366c0 -223 140 -367 322 -367z" />
    <glyph glyph-name="uni1EE1" unicode="&#x1ee1;" horiz-adv-x="1180" 
d="M475 1291c-55 0 -88 -56 -88 -134h-96c0 132 69 229 181 229c72 0 127 -40 162 -98c19 -31 44 -49 82 -49c56 0 87 52 87 132h97c0 -129 -68 -228 -181 -228c-72 0 -125 35 -164 97c-23 35 -47 51 -80 51zM1089 1118h109v-108c0 -174 -74 -234 -169 -234
c-5 0 -11 0 -17 1c47 -78 73 -174 73 -285c0 -315 -212 -511 -495 -511c-280 0 -495 196 -495 511c0 313 212 510 495 510c136 0 255 -45 342 -126c24 -8 46 -12 64 -12c69 0 93 51 93 152v102zM589 125c184 0 325 144 325 367c0 222 -141 366 -325 366
c-182 0 -322 -144 -322 -366c0 -223 140 -367 322 -367z" />
    <glyph glyph-name="ohungarumlaut" unicode="&#x151;" horiz-adv-x="1180" 
d="M350 1152l251 326l92 -67l-224 -259h-119zM709 1152l252 326l92 -67l-224 -259h-120zM590 -19c-280 0 -495 196 -495 511c0 313 212 510 495 510c284 0 495 -197 495 -510c0 -315 -212 -511 -495 -511zM589 125c184 0 325 144 325 367c0 222 -141 366 -325 366
c-182 0 -322 -144 -322 -366c0 -223 140 -367 322 -367z" />
    <glyph glyph-name="omacron" unicode="&#x14d;" horiz-adv-x="1180" 
d="M266 1177v111h647v-111h-647zM590 -19c-280 0 -495 196 -495 511c0 313 212 510 495 510c284 0 495 -197 495 -510c0 -315 -212 -511 -495 -511zM589 125c184 0 325 144 325 367c0 222 -141 366 -325 366c-182 0 -322 -144 -322 -366c0 -223 140 -367 322 -367z" />
    <glyph glyph-name="oslash" unicode="&#xf8;" horiz-adv-x="1180" 
d="M924 883c100 -88 161 -223 161 -391c0 -315 -212 -511 -495 -511c-93 0 -179 22 -253 62l-111 -159l-85 52l115 165c-100 88 -161 223 -161 391c0 313 212 510 495 510c94 0 180 -21 252 -61l111 158l85 -52zM267 492c0 -105 31 -193 83 -256l404 577
c-48 29 -104 45 -165 45c-182 0 -322 -144 -322 -366zM589 125c184 0 325 144 325 367c0 105 -32 193 -85 256l-403 -578c47 -29 103 -45 163 -45z" />
    <glyph glyph-name="otilde" unicode="&#xf5;" horiz-adv-x="1180" 
d="M719 1143c-72 0 -125 35 -164 97c-23 35 -47 51 -80 51c-55 0 -88 -56 -88 -134h-96c0 132 69 229 181 229c72 0 127 -40 162 -98c19 -31 44 -49 82 -49c56 0 87 52 87 132h97c0 -129 -68 -228 -181 -228zM590 -19c-280 0 -495 196 -495 511c0 313 212 510 495 510
c284 0 495 -197 495 -510c0 -315 -212 -511 -495 -511zM589 125c184 0 325 144 325 367c0 222 -141 366 -325 366c-182 0 -322 -144 -322 -366c0 -223 140 -367 322 -367z" />
    <glyph glyph-name="oe" unicode="&#x153;" horiz-adv-x="1952" 
d="M1857 511l-2 -47h-768c5 -228 149 -339 318 -339c121 0 223 67 275 177l156 -33c-71 -179 -234 -288 -429 -288c-177 0 -323 73 -408 205c-87 -131 -235 -205 -409 -205c-280 0 -495 196 -495 511c0 313 212 510 495 510c175 0 322 -75 410 -205c85 132 230 205 402 205
c264 0 455 -162 455 -491zM1402 869c-157 0 -279 -89 -308 -272h589c-14 183 -127 272 -281 272zM589 125c184 0 325 144 325 367c0 222 -141 366 -325 366c-182 0 -322 -144 -322 -366c0 -223 140 -367 322 -367z" />
    <glyph glyph-name="p" unicode="p" horiz-adv-x="1251" 
d="M695 1002c252 0 459 -197 459 -511c0 -315 -207 -512 -459 -512c-152 0 -283 81 -346 207v-681h-173v1478h167l4 -191c62 128 194 210 348 210zM661 129c174 0 320 138 320 362c0 223 -146 361 -320 361c-182 0 -325 -155 -325 -361c0 -207 143 -362 325 -362z" />
    <glyph glyph-name="thorn" unicode="&#xfe;" horiz-adv-x="1251" 
d="M695 1002c252 0 459 -197 459 -511c0 -315 -207 -512 -459 -512c-152 0 -283 81 -346 207v-681h-173v2031h173v-740c63 126 194 206 346 206zM661 129c174 0 320 138 320 362c0 223 -146 361 -320 361c-182 0 -325 -155 -325 -361c0 -207 143 -362 325 -362z" />
    <glyph glyph-name="q" unicode="q" horiz-adv-x="1250" 
d="M906 983h167v-1478h-173v678c-63 -124 -195 -204 -344 -204c-252 0 -460 197 -460 512c0 314 208 511 460 511c151 0 284 -80 346 -207zM589 129c183 0 324 155 324 362c0 206 -142 361 -324 361c-175 0 -320 -138 -320 -361c0 -224 145 -362 320 -362z" />
    <glyph glyph-name="r" unicode="r" horiz-adv-x="683" 
d="M345 810c49 108 171 182 311 184v-163c-192 0 -307 -85 -307 -306v-525h-173v983h169v-173z" />
    <glyph glyph-name="racute" unicode="&#x155;" horiz-adv-x="683" 
d="M622 1412l-224 -259h-119l251 326zM345 810c49 108 171 182 311 184v-163c-192 0 -307 -85 -307 -306v-525h-173v983h169v-173z" />
    <glyph glyph-name="rcaron" unicode="&#x159;" horiz-adv-x="683" 
d="M408 1165h-127l-211 295h117l157 -214l156 214h119zM345 810c49 108 171 182 311 184v-163c-192 0 -307 -85 -307 -306v-525h-173v983h169v-173z" />
    <glyph glyph-name="rcommaaccent" unicode="&#x157;" horiz-adv-x="683" 
d="M345 810c49 108 171 182 311 184v-163c-192 0 -307 -85 -307 -306v-525h-173v983h169v-173zM24 -518l160 366h158l-226 -407z" />
    <glyph glyph-name="s" unicode="s" horiz-adv-x="945" 
d="M487 -19c-208 0 -363 95 -394 273l151 43c22 -119 114 -185 242 -185c96 0 199 37 196 151c-3 120 -132 140 -290 188c-137 41 -271 94 -271 271c0 193 158 278 347 278c179 0 328 -78 359 -256l-142 -36c-22 117 -114 166 -216 166c-90 0 -187 -38 -187 -140
c0 -109 117 -134 243 -166c155 -40 324 -92 324 -298c0 -208 -171 -289 -362 -289z" />
    <glyph glyph-name="sacute" unicode="&#x15b;" horiz-adv-x="945" 
d="M411 1153l251 326l92 -67l-224 -259h-119zM487 -19c-208 0 -363 95 -394 273l151 43c22 -119 114 -185 242 -185c96 0 199 37 196 151c-3 120 -132 140 -290 188c-137 41 -271 94 -271 271c0 193 158 278 347 278c179 0 328 -78 359 -256l-142 -36
c-22 117 -114 166 -216 166c-90 0 -187 -38 -187 -140c0 -109 117 -134 243 -166c155 -40 324 -92 324 -298c0 -208 -171 -289 -362 -289z" />
    <glyph glyph-name="scaron" unicode="&#x161;" horiz-adv-x="945" 
d="M413 1165l-211 295h117l157 -214l156 214h119l-211 -295h-127zM487 -19c-208 0 -363 95 -394 273l151 43c22 -119 114 -185 242 -185c96 0 199 37 196 151c-3 120 -132 140 -290 188c-137 41 -271 94 -271 271c0 193 158 278 347 278c179 0 328 -78 359 -256l-142 -36
c-22 117 -114 166 -216 166c-90 0 -187 -38 -187 -140c0 -109 117 -134 243 -166c155 -40 324 -92 324 -298c0 -208 -171 -289 -362 -289z" />
    <glyph glyph-name="scedilla" unicode="&#x15f;" horiz-adv-x="945" 
d="M849 270c0 -198 -155 -281 -335 -288l-57 -119c18 4 37 8 55 8c115 0 200 -77 200 -192c0 -117 -91 -210 -210 -210c-98 0 -196 57 -236 130l86 36c30 -43 95 -75 148 -75c65 0 119 50 119 119c0 74 -54 114 -125 114c-26 0 -54 -6 -80 -20l-75 49l82 162
c-175 19 -300 112 -328 270l151 43c22 -119 114 -185 242 -185c96 0 199 37 196 151c-3 120 -132 140 -290 188c-137 41 -271 94 -271 271c0 193 158 278 347 278c179 0 328 -78 359 -256l-142 -36c-22 117 -114 166 -216 166c-90 0 -187 -38 -187 -140
c0 -109 117 -134 243 -166c155 -40 324 -92 324 -298z" />
    <glyph glyph-name="scommaaccent" unicode="&#x219;" horiz-adv-x="945" 
d="M487 -19c-208 0 -363 95 -394 273l151 43c22 -119 114 -185 242 -185c96 0 199 37 196 151c-3 120 -132 140 -290 188c-137 41 -271 94 -271 271c0 193 158 278 347 278c179 0 328 -78 359 -256l-142 -36c-22 117 -114 166 -216 166c-90 0 -187 -38 -187 -140
c0 -109 117 -134 243 -166c155 -40 324 -92 324 -298c0 -208 -171 -289 -362 -289zM329 -558l-92 41l160 366h158z" />
    <glyph glyph-name="germandbls" unicode="&#xdf;" horiz-adv-x="1210" 
d="M176 0v1031c0 384 196 525 448 525c256 0 430 -159 430 -367c0 -213 -160 -229 -160 -367c0 -146 239 -161 239 -459c0 -190 -135 -363 -366 -363h-192v138h149c141 0 238 103 238 231c0 251 -233 230 -233 441c0 195 162 198 162 374c0 132 -104 231 -264 231
c-176 0 -282 -105 -282 -361v-1054h-169z" />
    <glyph glyph-name="t" unicode="t" horiz-adv-x="702" 
d="M490 0c-161 0 -262 97 -262 267v578h-201v138h74c103 0 140 42 140 150v178h161v-328h226v-138h-226v-560c0 -96 57 -147 136 -147h90v-138h-138z" />
    <glyph glyph-name="tbar" unicode="&#x167;" horiz-adv-x="702" 
d="M628 845h-226v-296h166v-115h-166v-149c0 -96 57 -147 136 -147h90v-138h-138c-161 0 -262 97 -262 267v167h-152v115h152v296h-201v138h74c103 0 140 42 140 150v178h161v-328h226v-138z" />
    <glyph glyph-name="tcaron" unicode="&#x165;" horiz-adv-x="662" 
d="M542 1202l124 619h181l-178 -619h-127zM481 0c-161 0 -262 97 -262 267v578h-201v138h74c102 0 140 42 140 150v178h160v-328h226v-138h-226v-560c0 -96 58 -147 137 -147h89v-138h-137z" />
    <glyph glyph-name="uni0163" unicode="&#x163;" horiz-adv-x="702" 
d="M569 -130c115 0 200 -77 200 -192c0 -117 -91 -210 -210 -210c-98 0 -196 57 -236 130l86 36c30 -43 95 -75 148 -75c65 0 119 50 119 119c0 74 -54 114 -125 114c-26 0 -54 -6 -80 -20l-75 49l90 179c-159 2 -258 98 -258 267v578h-201v138h74c103 0 140 42 140 150v178
h161v-328h226v-138h-226v-560c0 -96 57 -147 136 -147h90v-138h-47l-67 -138c18 4 37 8 55 8z" />
    <glyph glyph-name="uni021B" unicode="&#x21b;" horiz-adv-x="702" 
d="M490 0c-161 0 -262 97 -262 267v578h-201v138h74c103 0 140 42 140 150v178h161v-328h226v-138h-226v-560c0 -96 57 -147 136 -147h90v-138h-138zM386 -559l-92 41l160 366h158z" />
    <glyph glyph-name="u" unicode="u" horiz-adv-x="1137" 
d="M788 983h173v-983h-166l-4 130c-61 -95 -165 -149 -294 -149c-202 0 -340 119 -340 340v662h173v-623c0 -167 99 -234 215 -234c135 0 242 83 243 269v588z" />
    <glyph glyph-name="uacute" unicode="&#xfa;" horiz-adv-x="1137" 
d="M848 1412l-224 -259h-119l251 326zM788 983h173v-983h-166l-4 130c-61 -95 -165 -149 -294 -149c-202 0 -340 119 -340 340v662h173v-623c0 -167 99 -234 215 -234c135 0 242 83 243 269v588z" />
    <glyph glyph-name="uni01D4" unicode="&#x1d4;" horiz-adv-x="1137" 
d="M634 1165h-127l-211 295h117l157 -214l156 214h119zM788 983h173v-983h-166l-4 130c-61 -95 -165 -149 -294 -149c-202 0 -340 119 -340 340v662h173v-623c0 -167 99 -234 215 -234c135 0 242 83 243 269v588z" />
    <glyph glyph-name="ucircumflex" unicode="&#xfb;" horiz-adv-x="1137" 
d="M569 1377l-156 -212h-118l211 295h128l211 -295h-119zM788 983h173v-983h-166l-4 130c-61 -95 -165 -149 -294 -149c-202 0 -340 119 -340 340v662h173v-623c0 -167 99 -234 215 -234c135 0 242 83 243 269v588z" />
    <glyph glyph-name="udieresis" unicode="&#xfc;" horiz-adv-x="1137" 
d="M384 1214c-64 0 -117 53 -117 117s53 116 117 116c63 0 116 -52 116 -116s-53 -117 -116 -117zM758 1214c-64 0 -117 53 -117 117s53 116 117 116c63 0 116 -52 116 -116s-53 -117 -116 -117zM788 983h173v-983h-166l-4 130c-61 -95 -165 -149 -294 -149
c-202 0 -340 119 -340 340v662h173v-623c0 -167 99 -234 215 -234c135 0 242 83 243 269v588z" />
    <glyph glyph-name="uni01D8" unicode="&#x1d8;" horiz-adv-x="1137" 
d="M848 1855l-224 -259h-119l251 326zM384 1214c-64 0 -117 53 -117 117s53 116 117 116c63 0 116 -52 116 -116s-53 -117 -116 -117zM758 1447c63 0 116 -52 116 -116s-53 -117 -116 -117c-64 0 -117 53 -117 117s53 116 117 116zM788 983h173v-983h-166l-4 130
c-61 -95 -165 -149 -294 -149c-202 0 -340 119 -340 340v662h173v-623c0 -167 99 -234 215 -234c135 0 242 83 243 269v588z" />
    <glyph glyph-name="uni01DA" unicode="&#x1da;" horiz-adv-x="1137" 
d="M634 1608h-127l-211 295h117l157 -214l156 214h119zM384 1214c-64 0 -117 53 -117 117s53 116 117 116c63 0 116 -52 116 -116s-53 -117 -116 -117zM758 1447c63 0 116 -52 116 -116s-53 -117 -116 -117c-64 0 -117 53 -117 117s53 116 117 116zM788 983h173v-983h-166
l-4 130c-61 -95 -165 -149 -294 -149c-202 0 -340 119 -340 340v662h173v-623c0 -167 99 -234 215 -234c135 0 242 83 243 269v588z" />
    <glyph glyph-name="uni01DC" unicode="&#x1dc;" horiz-adv-x="1137" 
d="M632 1596h-119l-225 259l92 67zM384 1214c-64 0 -117 53 -117 117s53 116 117 116c63 0 116 -52 116 -116s-53 -117 -116 -117zM758 1214c-64 0 -117 53 -117 117s53 116 117 116c63 0 116 -52 116 -116s-53 -117 -116 -117zM788 983h173v-983h-166l-4 130
c-61 -95 -165 -149 -294 -149c-202 0 -340 119 -340 340v662h173v-623c0 -167 99 -234 215 -234c135 0 242 83 243 269v588z" />
    <glyph glyph-name="uni01D6" unicode="&#x1d6;" horiz-adv-x="1137" 
d="M894 1732v-111h-647v111h647zM267 1331c0 64 53 116 117 116c63 0 116 -52 116 -116s-53 -117 -116 -117c-64 0 -117 53 -117 117zM641 1331c0 64 53 116 117 116c63 0 116 -52 116 -116s-53 -117 -116 -117c-64 0 -117 53 -117 117zM788 983h173v-983h-166l-4 130
c-61 -95 -165 -149 -294 -149c-202 0 -340 119 -340 340v662h173v-623c0 -167 99 -234 215 -234c135 0 242 83 243 269v588z" />
    <glyph glyph-name="uni1EE5" unicode="&#x1ee5;" horiz-adv-x="1137" 
d="M788 983h173v-983h-166l-4 130c-61 -95 -165 -149 -294 -149c-202 0 -340 119 -340 340v662h173v-623c0 -167 99 -234 215 -234c135 0 242 83 243 269v588zM571 -279c63 0 116 -53 116 -116c0 -66 -53 -117 -116 -117c-64 0 -117 51 -117 117c0 63 53 116 117 116z" />
    <glyph glyph-name="ugrave" unicode="&#xf9;" horiz-adv-x="1137" 
d="M632 1153h-119l-225 259l92 67zM788 983h173v-983h-166l-4 130c-61 -95 -165 -149 -294 -149c-202 0 -340 119 -340 340v662h173v-623c0 -167 99 -234 215 -234c135 0 242 83 243 269v588z" />
    <glyph glyph-name="uni1EE7" unicode="&#x1ee7;" horiz-adv-x="1137" 
d="M560 1394c-32 0 -59 -11 -86 -32l-51 70c38 31 85 48 138 48c109 0 185 -70 185 -168c0 -82 -51 -132 -130 -156v-77h-88v119c73 16 119 48 119 110c0 48 -31 86 -87 86zM788 983h173v-983h-166l-4 130c-61 -95 -165 -149 -294 -149c-202 0 -340 119 -340 340v662h173
v-623c0 -167 99 -234 215 -234c135 0 242 83 243 269v588z" />
    <glyph glyph-name="uhorn" unicode="&#x1b0;" horiz-adv-x="1137" 
d="M1133 1104h109v-108c0 -174 -74 -234 -169 -234c-34 0 -73 8 -112 23v-785h-166l-4 130c-61 -95 -165 -149 -294 -149c-202 0 -340 119 -340 340v662h173v-623c0 -167 99 -234 215 -234c135 0 242 83 243 269v588h173v-116c29 -11 57 -17 79 -17c69 0 93 51 93 152v102z
" />
    <glyph glyph-name="uni1EE9" unicode="&#x1ee9;" horiz-adv-x="1137" 
d="M848 1412l-224 -259h-119l251 326zM1133 1104h109v-108c0 -174 -74 -234 -169 -234c-34 0 -73 8 -112 23v-785h-166l-4 130c-61 -95 -165 -149 -294 -149c-202 0 -340 119 -340 340v662h173v-623c0 -167 99 -234 215 -234c135 0 242 83 243 269v588h173v-116
c29 -11 57 -17 79 -17c69 0 93 51 93 152v102z" />
    <glyph glyph-name="uni1EF1" unicode="&#x1ef1;" horiz-adv-x="1137" 
d="M1133 1104h109v-108c0 -174 -74 -234 -169 -234c-34 0 -73 8 -112 23v-785h-166l-4 130c-61 -95 -165 -149 -294 -149c-202 0 -340 119 -340 340v662h173v-623c0 -167 99 -234 215 -234c135 0 242 83 243 269v588h173v-116c29 -11 57 -17 79 -17c69 0 93 51 93 152v102z
M571 -279c63 0 116 -53 116 -116c0 -66 -53 -117 -116 -117c-64 0 -117 51 -117 117c0 63 53 116 117 116z" />
    <glyph glyph-name="uni1EEB" unicode="&#x1eeb;" horiz-adv-x="1137" 
d="M632 1153h-119l-225 259l92 67zM1133 1104h109v-108c0 -174 -74 -234 -169 -234c-34 0 -73 8 -112 23v-785h-166l-4 130c-61 -95 -165 -149 -294 -149c-202 0 -340 119 -340 340v662h173v-623c0 -167 99 -234 215 -234c135 0 242 83 243 269v588h173v-116
c29 -11 57 -17 79 -17c69 0 93 51 93 152v102z" />
    <glyph glyph-name="uni1EED" unicode="&#x1eed;" horiz-adv-x="1137" 
d="M560 1394c-32 0 -59 -11 -86 -32l-51 70c38 31 85 48 138 48c109 0 185 -70 185 -168c0 -82 -51 -132 -130 -156v-77h-88v119c73 16 119 48 119 110c0 48 -31 86 -87 86zM1133 1104h109v-108c0 -174 -74 -234 -169 -234c-34 0 -73 8 -112 23v-785h-166l-4 130
c-61 -95 -165 -149 -294 -149c-202 0 -340 119 -340 340v662h173v-623c0 -167 99 -234 215 -234c135 0 242 83 243 269v588h173v-116c29 -11 57 -17 79 -17c69 0 93 51 93 152v102z" />
    <glyph glyph-name="uni1EEF" unicode="&#x1eef;" horiz-adv-x="1137" 
d="M456 1292c-55 0 -88 -56 -88 -134h-96c0 132 69 229 181 229c72 0 127 -40 162 -98c19 -31 44 -49 82 -49c56 0 87 52 87 132h97c0 -129 -68 -228 -181 -228c-72 0 -125 35 -164 97c-23 35 -47 51 -80 51zM1133 1104h109v-108c0 -174 -74 -234 -169 -234
c-34 0 -73 8 -112 23v-785h-166l-4 130c-61 -95 -165 -149 -294 -149c-202 0 -340 119 -340 340v662h173v-623c0 -167 99 -234 215 -234c135 0 242 83 243 269v588h173v-116c29 -11 57 -17 79 -17c69 0 93 51 93 152v102z" />
    <glyph glyph-name="uhungarumlaut" unicode="&#x171;" horiz-adv-x="1137" 
d="M674 1412l-224 -259h-119l251 326zM1034 1412l-224 -259h-120l252 326zM788 395v588h173v-983h-166l-4 130c-61 -95 -165 -149 -294 -149c-202 0 -340 119 -340 340v662h173v-623c0 -167 99 -234 215 -234c135 0 242 83 243 269z" />
    <glyph glyph-name="umacron" unicode="&#x16b;" horiz-adv-x="1137" 
d="M894 1289v-111h-647v111h647zM788 983h173v-983h-166l-4 130c-61 -95 -165 -149 -294 -149c-202 0 -340 119 -340 340v662h173v-623c0 -167 99 -234 215 -234c135 0 242 83 243 269v588z" />
    <glyph glyph-name="uogonek" unicode="&#x173;" horiz-adv-x="1137" 
d="M961 983v-983c-50 -52 -168 -164 -168 -228c0 -27 22 -43 75 -43c31 0 67 11 93 30v-127c-31 -12 -70 -18 -108 -18c-116 0 -175 35 -175 94c0 79 101 197 194 292h-77l-4 130c-61 -95 -165 -149 -294 -149c-202 0 -340 119 -340 340v662h173v-623
c0 -167 99 -234 215 -234c135 0 242 83 243 269v588h173z" />
    <glyph glyph-name="uring" unicode="&#x16f;" horiz-adv-x="1137" 
d="M571 1116c-117 0 -211 97 -211 211c0 116 94 209 211 209c114 0 208 -93 208 -209c0 -114 -94 -211 -208 -211zM571 1455c-70 0 -125 -59 -125 -128c0 -73 55 -125 125 -125s125 52 125 125c0 69 -55 128 -125 128zM788 983h173v-983h-166l-4 130
c-61 -95 -165 -149 -294 -149c-202 0 -340 119 -340 340v662h173v-623c0 -167 99 -234 215 -234c135 0 242 83 243 269v588z" />
    <glyph glyph-name="utilde" unicode="&#x169;" horiz-adv-x="1137" 
d="M456 1292c-55 0 -88 -56 -88 -134h-96c0 132 69 229 181 229c72 0 127 -40 162 -98c19 -31 44 -49 82 -49c56 0 87 52 87 132h97c0 -129 -68 -228 -181 -228c-72 0 -125 35 -164 97c-23 35 -47 51 -80 51zM788 983h173v-983h-166l-4 130c-61 -95 -165 -149 -294 -149
c-202 0 -340 119 -340 340v662h173v-623c0 -167 99 -234 215 -234c135 0 242 83 243 269v588z" />
    <glyph glyph-name="v" unicode="v" horiz-adv-x="1003" 
d="M789 983h185l-400 -983h-147l-398 983h184l288 -782z" />
    <glyph glyph-name="w" unicode="w" horiz-adv-x="1597" 
d="M1377 983h182l-339 -984h-157l-266 758l-267 -758h-158l-333 984h180l243 -753l267 753h133l267 -755z" />
    <glyph glyph-name="wacute" unicode="&#x1e83;" horiz-adv-x="1597" 
d="M1082 1412l-224 -259h-119l251 326zM1377 983h182l-339 -984h-157l-266 758l-267 -758h-158l-333 984h180l243 -753l267 753h133l267 -755z" />
    <glyph glyph-name="wcircumflex" unicode="&#x175;" horiz-adv-x="1597" 
d="M803 1377l-156 -212h-118l211 295h128l211 -295h-119zM1377 983h182l-339 -984h-157l-266 758l-267 -758h-158l-333 984h180l243 -753l267 753h133l267 -755z" />
    <glyph glyph-name="wdieresis" unicode="&#x1e85;" horiz-adv-x="1597" 
d="M618 1214c-64 0 -117 53 -117 117s53 116 117 116c63 0 116 -52 116 -116s-53 -117 -116 -117zM992 1214c-64 0 -117 53 -117 117s53 116 117 116c63 0 116 -52 116 -116s-53 -117 -116 -117zM1377 983h182l-339 -984h-157l-266 758l-267 -758h-158l-333 984h180
l243 -753l267 753h133l267 -755z" />
    <glyph glyph-name="wgrave" unicode="&#x1e81;" horiz-adv-x="1597" 
d="M866 1153h-119l-225 259l92 67zM1377 983h182l-339 -984h-157l-266 758l-267 -758h-158l-333 984h180l243 -753l267 753h133l267 -755z" />
    <glyph glyph-name="x" unicode="x" horiz-adv-x="1041" 
d="M37 0l378 492l-378 491h213l272 -376l272 376h210l-379 -491l379 -492h-211l-270 374l-273 -374h-213z" />
    <glyph glyph-name="y" unicode="y" horiz-adv-x="997" 
d="M782 983h183l-569 -1446h-179l197 487l-382 959h192l277 -765z" />
    <glyph glyph-name="yacute" unicode="&#xfd;" horiz-adv-x="997" 
d="M777 1412l-224 -259h-119l251 326zM782 983h183l-569 -1446h-179l197 487l-382 959h192l277 -765z" />
    <glyph glyph-name="ycircumflex" unicode="&#x177;" horiz-adv-x="997" 
d="M498 1377l-156 -212h-118l211 295h128l211 -295h-119zM782 983h183l-569 -1446h-179l197 487l-382 959h192l277 -765z" />
    <glyph glyph-name="ydieresis" unicode="&#xff;" horiz-adv-x="997" 
d="M313 1214c-64 0 -117 53 -117 117s53 116 117 116c63 0 116 -52 116 -116s-53 -117 -116 -117zM687 1214c-64 0 -117 53 -117 117s53 116 117 116c63 0 116 -52 116 -116s-53 -117 -116 -117zM782 983h183l-569 -1446h-179l197 487l-382 959h192l277 -765z" />
    <glyph glyph-name="uni1EF5" unicode="&#x1ef5;" horiz-adv-x="997" 
d="M782 983h183l-569 -1446h-179l197 487l-382 959h192l277 -765zM812 -279c63 0 116 -53 116 -116c0 -66 -53 -117 -116 -117c-64 0 -117 51 -117 117c0 63 53 116 117 116z" />
    <glyph glyph-name="ygrave" unicode="&#x1ef3;" horiz-adv-x="997" 
d="M561 1153h-119l-225 259l92 67zM782 983h183l-569 -1446h-179l197 487l-382 959h192l277 -765z" />
    <glyph glyph-name="uni1EF7" unicode="&#x1ef7;" horiz-adv-x="997" 
d="M489 1394c-32 0 -59 -11 -86 -32l-51 70c38 31 85 48 138 48c109 0 185 -70 185 -168c0 -82 -51 -132 -130 -156v-77h-88v119c73 16 119 48 119 110c0 48 -31 86 -87 86zM782 983h183l-569 -1446h-179l197 487l-382 959h192l277 -765z" />
    <glyph glyph-name="uni1EF9" unicode="&#x1ef9;" horiz-adv-x="997" 
d="M385 1292c-55 0 -88 -56 -88 -134h-96c0 132 69 229 181 229c72 0 127 -40 162 -98c19 -31 44 -49 82 -49c56 0 87 52 87 132h97c0 -129 -68 -228 -181 -228c-72 0 -125 35 -164 97c-23 35 -47 51 -80 51zM782 983h183l-569 -1446h-179l197 487l-382 959h192l277 -765z
" />
    <glyph glyph-name="z" unicode="z" horiz-adv-x="900" 
d="M312 140h524v-140h-784l518 842h-488v141h753z" />
    <glyph glyph-name="zacute" unicode="&#x17a;" horiz-adv-x="900" 
d="M738 1412l-224 -259h-119l251 326zM312 140h524v-140h-784l518 842h-488v141h753z" />
    <glyph glyph-name="zcaron" unicode="&#x17e;" horiz-adv-x="900" 
d="M524 1165h-127l-211 295h117l157 -214l156 214h119zM312 140h524v-140h-784l518 842h-488v141h753z" />
    <glyph glyph-name="zdotaccent" unicode="&#x17c;" horiz-adv-x="900" 
d="M461 1214c-64 0 -117 53 -117 117s53 116 117 116c63 0 116 -52 116 -116s-53 -117 -116 -117zM312 140h524v-140h-784l518 842h-488v141h753z" />
    <glyph glyph-name="g.ss01" horiz-adv-x="1087" 
d="M1020 983v-130h-155c45 -59 71 -132 71 -216c0 -217 -173 -339 -396 -339c-85 0 -161 18 -224 50c-24 -26 -37 -54 -37 -83c0 -106 144 -120 318 -143c225 -29 422 -67 422 -278c0 -205 -188 -316 -450 -316c-271 0 -439 117 -439 269c0 76 38 161 125 246
c-78 35 -133 91 -133 187c0 72 30 137 97 190c-55 59 -87 136 -87 227c0 217 178 356 398 356c50 0 97 -7 141 -20h349zM535 428c146 0 235 87 235 220s-90 224 -233 224c-145 0 -238 -91 -238 -225c0 -131 91 -219 236 -219zM853 -179c0 125 -136 137 -333 163
c-51 6 -104 14 -154 25c-54 -66 -79 -128 -79 -180c0 -109 111 -175 295 -175c148 0 271 46 271 167z" />
    <glyph glyph-name="gbreve.ss01" horiz-adv-x="1087" 
d="M542 1143c-195 0 -338 121 -338 317h113c0 -132 91 -226 225 -226c136 0 228 94 228 226h113c0 -196 -143 -317 -341 -317zM1020 983v-130h-155c45 -59 71 -132 71 -216c0 -217 -173 -339 -396 -339c-85 0 -161 18 -224 50c-24 -26 -37 -54 -37 -83
c0 -106 144 -120 318 -143c225 -29 422 -67 422 -278c0 -205 -188 -316 -450 -316c-271 0 -439 117 -439 269c0 76 38 161 125 246c-78 35 -133 91 -133 187c0 72 30 137 97 190c-55 59 -87 136 -87 227c0 217 178 356 398 356c50 0 97 -7 141 -20h349zM535 428
c146 0 235 87 235 220s-90 224 -233 224c-145 0 -238 -91 -238 -225c0 -131 91 -219 236 -219zM853 -179c0 125 -136 137 -333 163c-51 6 -104 14 -154 25c-54 -66 -79 -128 -79 -180c0 -109 111 -175 295 -175c148 0 271 46 271 167z" />
    <glyph glyph-name="gcommaaccent.ss01" horiz-adv-x="1087" 
d="M699 1453l-122 -306h-181l177 306h126zM1020 983v-130h-155c45 -59 71 -132 71 -216c0 -217 -173 -339 -396 -339c-85 0 -161 18 -224 50c-24 -26 -37 -54 -37 -83c0 -106 144 -120 318 -143c225 -29 422 -67 422 -278c0 -205 -188 -316 -450 -316
c-271 0 -439 117 -439 269c0 76 38 161 125 246c-78 35 -133 91 -133 187c0 72 30 137 97 190c-55 59 -87 136 -87 227c0 217 178 356 398 356c50 0 97 -7 141 -20h349zM535 428c146 0 235 87 235 220s-90 224 -233 224c-145 0 -238 -91 -238 -225c0 -131 91 -219 236 -219z
M853 -179c0 125 -136 137 -333 163c-51 6 -104 14 -154 25c-54 -66 -79 -128 -79 -180c0 -109 111 -175 295 -175c148 0 271 46 271 167z" />
    <glyph glyph-name="gdotaccent.ss01" horiz-adv-x="1087" 
d="M544 1214c-64 0 -117 53 -117 117s53 116 117 116c63 0 116 -52 116 -116s-53 -117 -116 -117zM1020 983v-130h-155c45 -59 71 -132 71 -216c0 -217 -173 -339 -396 -339c-85 0 -161 18 -224 50c-24 -26 -37 -54 -37 -83c0 -106 144 -120 318 -143
c225 -29 422 -67 422 -278c0 -205 -188 -316 -450 -316c-271 0 -439 117 -439 269c0 76 38 161 125 246c-78 35 -133 91 -133 187c0 72 30 137 97 190c-55 59 -87 136 -87 227c0 217 178 356 398 356c50 0 97 -7 141 -20h349zM535 428c146 0 235 87 235 220
s-90 224 -233 224c-145 0 -238 -91 -238 -225c0 -131 91 -219 236 -219zM853 -179c0 125 -136 137 -333 163c-51 6 -104 14 -154 25c-54 -66 -79 -128 -79 -180c0 -109 111 -175 295 -175c148 0 271 46 271 167z" />
    <glyph glyph-name="a.ss02" horiz-adv-x="1251" 
d="M908 983h167v-983h-167l-4 191c-62 -130 -194 -212 -348 -212c-252 0 -460 201 -460 512c0 310 209 511 460 511c157 0 292 -85 352 -219v200zM592 129c180 0 321 155 321 362s-142 362 -321 362s-323 -143 -323 -362s144 -362 323 -362z" />
    <glyph glyph-name="aacute.ss02" horiz-adv-x="1251" 
d="M903 1412l-224 -259h-119l251 326zM908 983h167v-983h-167l-4 191c-62 -130 -194 -212 -348 -212c-252 0 -460 201 -460 512c0 310 209 511 460 511c157 0 292 -85 352 -219v200zM592 129c180 0 321 155 321 362s-142 362 -321 362s-323 -143 -323 -362
s144 -362 323 -362z" />
    <glyph glyph-name="abreve.ss02" horiz-adv-x="1251" 
d="M624 1143c-195 0 -338 121 -338 317h113c0 -132 91 -226 225 -226c136 0 228 94 228 226h113c0 -196 -143 -317 -341 -317zM908 983h167v-983h-167l-4 191c-62 -130 -194 -212 -348 -212c-252 0 -460 201 -460 512c0 310 209 511 460 511c157 0 292 -85 352 -219v200z
M592 129c180 0 321 155 321 362s-142 362 -321 362s-323 -143 -323 -362s144 -362 323 -362z" />
    <glyph glyph-name="uni1EAF.ss02" horiz-adv-x="1251" 
d="M903 1889l-224 -259h-119l251 326zM624 1143c-195 0 -338 121 -338 317h113c0 -132 91 -226 225 -226c136 0 228 94 228 226h113c0 -196 -143 -317 -341 -317zM908 983h167v-983h-167l-4 191c-62 -130 -194 -212 -348 -212c-252 0 -460 201 -460 512
c0 310 209 511 460 511c157 0 292 -85 352 -219v200zM592 129c180 0 321 155 321 362s-142 362 -321 362s-323 -143 -323 -362s144 -362 323 -362z" />
    <glyph glyph-name="uni1EB7.ss02" horiz-adv-x="1251" 
d="M624 1143c-195 0 -338 121 -338 317h113c0 -132 91 -226 225 -226c136 0 228 94 228 226h113c0 -196 -143 -317 -341 -317zM908 983h167v-983h-167l-4 191c-62 -130 -194 -212 -348 -212c-252 0 -460 201 -460 512c0 310 209 511 460 511c157 0 292 -85 352 -219v200z
M592 129c180 0 321 155 321 362s-142 362 -321 362s-323 -143 -323 -362s144 -362 323 -362zM626 -279c63 0 116 -53 116 -116c0 -66 -53 -117 -116 -117c-64 0 -117 51 -117 117c0 63 53 116 117 116z" />
    <glyph glyph-name="uni1EB1.ss02" horiz-adv-x="1251" 
d="M687 1630h-119l-225 259l92 67zM624 1143c-195 0 -338 121 -338 317h113c0 -132 91 -226 225 -226c136 0 228 94 228 226h113c0 -196 -143 -317 -341 -317zM908 983h167v-983h-167l-4 191c-62 -130 -194 -212 -348 -212c-252 0 -460 201 -460 512c0 310 209 511 460 511
c157 0 292 -85 352 -219v200zM592 129c180 0 321 155 321 362s-142 362 -321 362s-323 -143 -323 -362s144 -362 323 -362z" />
    <glyph glyph-name="uni1EB3.ss02" horiz-adv-x="1251" 
d="M615 1871c-32 0 -59 -11 -86 -32l-51 70c38 31 85 48 138 48c109 0 185 -70 185 -168c0 -82 -51 -132 -130 -156v-77h-88v119c73 16 119 48 119 110c0 48 -31 86 -87 86zM624 1143c-195 0 -338 121 -338 317h113c0 -132 91 -226 225 -226c136 0 228 94 228 226h113
c0 -196 -143 -317 -341 -317zM908 983h167v-983h-167l-4 191c-62 -130 -194 -212 -348 -212c-252 0 -460 201 -460 512c0 310 209 511 460 511c157 0 292 -85 352 -219v200zM592 129c180 0 321 155 321 362s-142 362 -321 362s-323 -143 -323 -362s144 -362 323 -362z" />
    <glyph glyph-name="uni1EB5.ss02" horiz-adv-x="1251" 
d="M511 1769c-55 0 -88 -56 -88 -134h-96c0 132 69 229 181 229c72 0 127 -40 162 -98c19 -31 44 -49 82 -49c56 0 87 52 87 132h97c0 -129 -68 -228 -181 -228c-72 0 -125 35 -164 97c-23 35 -47 51 -80 51zM624 1143c-195 0 -338 121 -338 317h113
c0 -132 91 -226 225 -226c136 0 228 94 228 226h113c0 -196 -143 -317 -341 -317zM908 983h167v-983h-167l-4 191c-62 -130 -194 -212 -348 -212c-252 0 -460 201 -460 512c0 310 209 511 460 511c157 0 292 -85 352 -219v200zM592 129c180 0 321 155 321 362
s-142 362 -321 362s-323 -143 -323 -362s144 -362 323 -362z" />
    <glyph glyph-name="uni01CE.ss02" horiz-adv-x="1251" 
d="M689 1165h-127l-211 295h117l157 -214l156 214h119zM908 983h167v-983h-167l-4 191c-62 -130 -194 -212 -348 -212c-252 0 -460 201 -460 512c0 310 209 511 460 511c157 0 292 -85 352 -219v200zM592 129c180 0 321 155 321 362s-142 362 -321 362s-323 -143 -323 -362
s144 -362 323 -362z" />
    <glyph glyph-name="acircumflex.ss02" horiz-adv-x="1251" 
d="M624 1377l-156 -212h-118l211 295h128l211 -295h-119zM908 983h167v-983h-167l-4 191c-62 -130 -194 -212 -348 -212c-252 0 -460 201 -460 512c0 310 209 511 460 511c157 0 292 -85 352 -219v200zM592 129c180 0 321 155 321 362s-142 362 -321 362
s-323 -143 -323 -362s144 -362 323 -362z" />
    <glyph glyph-name="uni1EA5.ss02" horiz-adv-x="1251" 
d="M901 1889l-224 -259h-119l251 326zM624 1377l-156 -212h-118l211 295h128l211 -295h-119zM908 983h167v-983h-167l-4 191c-62 -130 -194 -212 -348 -212c-252 0 -460 201 -460 512c0 310 209 511 460 511c157 0 292 -85 352 -219v200zM592 129c180 0 321 155 321 362
s-142 362 -321 362s-323 -143 -323 -362s144 -362 323 -362z" />
    <glyph glyph-name="uni1EAD.ss02" horiz-adv-x="1251" 
d="M624 1377l-156 -212h-118l211 295h128l211 -295h-119zM908 983h167v-983h-167l-4 191c-62 -130 -194 -212 -348 -212c-252 0 -460 201 -460 512c0 310 209 511 460 511c157 0 292 -85 352 -219v200zM592 129c180 0 321 155 321 362s-142 362 -321 362
s-323 -143 -323 -362s144 -362 323 -362zM626 -279c63 0 116 -53 116 -116c0 -66 -53 -117 -116 -117c-64 0 -117 51 -117 117c0 63 53 116 117 116z" />
    <glyph glyph-name="uni1EA7.ss02" horiz-adv-x="1251" 
d="M685 1630h-119l-225 259l92 67zM350 1165l211 295h128l211 -295h-119l-157 212l-156 -212h-118zM908 983h167v-983h-167l-4 191c-62 -130 -194 -212 -348 -212c-252 0 -460 201 -460 512c0 310 209 511 460 511c157 0 292 -85 352 -219v200zM592 129
c180 0 321 155 321 362s-142 362 -321 362s-323 -143 -323 -362s144 -362 323 -362z" />
    <glyph glyph-name="uni1EA9.ss02" horiz-adv-x="1251" 
d="M613 1871c-32 0 -59 -11 -86 -32l-51 70c38 31 85 48 138 48c109 0 185 -70 185 -168c0 -82 -51 -132 -130 -156v-77h-88v119c73 16 119 48 119 110c0 48 -31 86 -87 86zM624 1377l-156 -212h-118l211 295h128l211 -295h-119zM908 983h167v-983h-167l-4 191
c-62 -130 -194 -212 -348 -212c-252 0 -460 201 -460 512c0 310 209 511 460 511c157 0 292 -85 352 -219v200zM592 129c180 0 321 155 321 362s-142 362 -321 362s-323 -143 -323 -362s144 -362 323 -362z" />
    <glyph glyph-name="uni1EAB.ss02" horiz-adv-x="1251" 
d="M509 1769c-55 0 -88 -56 -88 -134h-96c0 132 69 229 181 229c72 0 127 -40 162 -98c19 -31 44 -49 82 -49c56 0 87 52 87 132h97c0 -129 -68 -228 -181 -228c-72 0 -125 35 -164 97c-23 35 -47 51 -80 51zM561 1460h128l211 -295h-119l-157 212l-156 -212h-118zM908 983
h167v-983h-167l-4 191c-62 -130 -194 -212 -348 -212c-252 0 -460 201 -460 512c0 310 209 511 460 511c157 0 292 -85 352 -219v200zM592 129c180 0 321 155 321 362s-142 362 -321 362s-323 -143 -323 -362s144 -362 323 -362z" />
    <glyph glyph-name="adieresis.ss02" horiz-adv-x="1251" 
d="M439 1214c-64 0 -117 53 -117 117s53 116 117 116c63 0 116 -52 116 -116s-53 -117 -116 -117zM813 1214c-64 0 -117 53 -117 117s53 116 117 116c63 0 116 -52 116 -116s-53 -117 -116 -117zM908 983h167v-983h-167l-4 191c-62 -130 -194 -212 -348 -212
c-252 0 -460 201 -460 512c0 310 209 511 460 511c157 0 292 -85 352 -219v200zM592 129c180 0 321 155 321 362s-142 362 -321 362s-323 -143 -323 -362s144 -362 323 -362z" />
    <glyph glyph-name="uni1EA1.ss02" horiz-adv-x="1251" 
d="M908 983h167v-983h-167l-4 191c-62 -130 -194 -212 -348 -212c-252 0 -460 201 -460 512c0 310 209 511 460 511c157 0 292 -85 352 -219v200zM592 129c180 0 321 155 321 362s-142 362 -321 362s-323 -143 -323 -362s144 -362 323 -362zM626 -279c63 0 116 -53 116 -116
c0 -66 -53 -117 -116 -117c-64 0 -117 51 -117 117c0 63 53 116 117 116z" />
    <glyph glyph-name="agrave.ss02" horiz-adv-x="1251" 
d="M687 1153h-119l-225 259l92 67zM908 983h167v-983h-167l-4 191c-62 -130 -194 -212 -348 -212c-252 0 -460 201 -460 512c0 310 209 511 460 511c157 0 292 -85 352 -219v200zM592 129c180 0 321 155 321 362s-142 362 -321 362s-323 -143 -323 -362s144 -362 323 -362z
" />
    <glyph glyph-name="uni1EA3.ss02" horiz-adv-x="1251" 
d="M615 1394c-32 0 -59 -11 -86 -32l-51 70c38 31 85 48 138 48c109 0 185 -70 185 -168c0 -82 -51 -132 -130 -156v-77h-88v119c73 16 119 48 119 110c0 48 -31 86 -87 86zM908 983h167v-983h-167l-4 191c-62 -130 -194 -212 -348 -212c-252 0 -460 201 -460 512
c0 310 209 511 460 511c157 0 292 -85 352 -219v200zM592 129c180 0 321 155 321 362s-142 362 -321 362s-323 -143 -323 -362s144 -362 323 -362z" />
    <glyph glyph-name="amacron.ss02" horiz-adv-x="1251" 
d="M949 1289v-111h-647v111h647zM908 983h167v-983h-167l-4 191c-62 -130 -194 -212 -348 -212c-252 0 -460 201 -460 512c0 310 209 511 460 511c157 0 292 -85 352 -219v200zM592 129c180 0 321 155 321 362s-142 362 -321 362s-323 -143 -323 -362s144 -362 323 -362z
" />
    <glyph glyph-name="aogonek.ss02" horiz-adv-x="1251" 
d="M1075 983v-983c-50 -52 -168 -164 -168 -228c0 -27 22 -43 75 -43c31 0 67 11 93 30v-127c-31 -12 -70 -18 -108 -18c-116 0 -175 35 -175 94c0 79 101 197 194 292h-78l-4 191c-62 -130 -194 -212 -348 -212c-252 0 -460 201 -460 512c0 310 209 511 460 511
c157 0 292 -85 352 -219v200h167zM592 129c180 0 321 155 321 362s-142 362 -321 362s-323 -143 -323 -362s144 -362 323 -362z" />
    <glyph glyph-name="aring.ss02" horiz-adv-x="1251" 
d="M626 1116c-117 0 -211 97 -211 211c0 116 94 209 211 209c114 0 208 -93 208 -209c0 -114 -94 -211 -208 -211zM626 1455c-70 0 -125 -59 -125 -128c0 -73 55 -125 125 -125s125 52 125 125c0 69 -55 128 -125 128zM908 983h167v-983h-167l-4 191
c-62 -130 -194 -212 -348 -212c-252 0 -460 201 -460 512c0 310 209 511 460 511c157 0 292 -85 352 -219v200zM592 129c180 0 321 155 321 362s-142 362 -321 362s-323 -143 -323 -362s144 -362 323 -362z" />
    <glyph glyph-name="atilde.ss02" horiz-adv-x="1251" 
d="M511 1292c-55 0 -88 -56 -88 -134h-96c0 132 69 229 181 229c72 0 127 -40 162 -98c19 -31 44 -49 82 -49c56 0 87 52 87 132h97c0 -129 -68 -228 -181 -228c-72 0 -125 35 -164 97c-23 35 -47 51 -80 51zM908 983h167v-983h-167l-4 191c-62 -130 -194 -212 -348 -212
c-252 0 -460 201 -460 512c0 310 209 511 460 511c157 0 292 -85 352 -219v200zM592 129c180 0 321 155 321 362s-142 362 -321 362s-323 -143 -323 -362s144 -362 323 -362z" />
    <glyph glyph-name="f_t" horiz-adv-x="1263" 
d="M227 0v845h-190v138h190v206c0 303 169 347 400 347v-145c-112 0 -228 2 -228 -205v-203h271c98 0 145 45 145 139v189h148v-328h226v-138h-226v-560c0 -96 57 -147 136 -147h89v-138h-136c-161 0 -262 97 -262 267v578h-391v-845h-172z" />
    <glyph glyph-name="t_t" horiz-adv-x="1298" 
d="M490 0c-161 0 -262 97 -262 267v578h-201v138h80c88 0 133 45 133 127v145h162v-272h302c87 0 133 45 133 127v145h161v-272h226v-138h-226v-560c0 -96 58 -147 137 -147h88v-138h-136c-161 0 -262 97 -262 267v578h-423v-560c0 -96 57 -147 136 -147h88v-138h-136z" />
    <glyph glyph-name="ordfeminine" unicode="&#xaa;" horiz-adv-x="962" 
d="M669 1408h110v-615h-110v120c-52 -80 -139 -132 -244 -132c-171 0 -310 141 -310 319c0 177 139 320 310 320c105 0 192 -53 244 -134v122zM446 877c122 0 223 100 223 223c0 122 -101 220 -223 220c-123 0 -222 -98 -222 -220c0 -123 99 -223 222 -223z" />
    <glyph glyph-name="ordmasculine" unicode="&#xba;" horiz-adv-x="888" 
d="M442 789c-182 0 -331 141 -331 320c0 176 149 319 331 319c187 0 333 -143 333 -319c0 -179 -146 -320 -333 -320zM442 886c123 0 223 99 223 223c0 121 -100 220 -223 220c-122 0 -221 -99 -221 -220c0 -124 99 -223 221 -223z" />
    <glyph glyph-name="uni0394" unicode="&#x394;" horiz-adv-x="1535" 
d="M862 1536l617 -1536h-1423l617 1536h189zM303 161h927l-462 1184z" />
    <glyph glyph-name="uni03A9" unicode="&#x3a9;" horiz-adv-x="1832" 
d="M1322 150h387v-150h-622v123c196 102 383 330 383 671c0 304 -193 602 -546 602c-325 0 -561 -250 -561 -605c0 -332 190 -572 383 -668v-123h-623v150h381v2c-161 114 -334 357 -334 665c0 412 312 731 752 731c474 0 740 -376 740 -727c0 -308 -167 -553 -340 -671z
" />
    <glyph glyph-name="uni03BC" unicode="&#x3bc;" horiz-adv-x="1206" 
d="M859 1002h172v-1002h-172v140c-71 -97 -181 -158 -305 -158c-96 0 -183 36 -250 96v-520h-129v1444h172v-612c0 -142 112 -257 252 -257c144 0 260 115 260 257v612z" />
    <glyph glyph-name="pi" unicode="&#x3c0;" horiz-adv-x="1258" 
d="M153 0c77 196 144 568 154 830c-134 0 -197 -9 -250 -32l-20 115c53 30 145 52 309 52h881l-15 -135h-177v-542c0 -146 11 -227 30 -288h-160c-23 38 -32 135 -32 271v559l-406 1c-13 -236 -77 -660 -155 -831h-159z" />
    <glyph glyph-name="zero" unicode="0" horiz-adv-x="1153" 
d="M577 -19c-296 0 -469 244 -469 724c0 478 168 722 469 722c299 0 468 -244 468 -722c0 -480 -175 -724 -468 -724zM577 141c187 0 295 182 295 564c0 390 -114 561 -295 561c-183 0 -295 -171 -295 -561c0 -382 106 -564 295 -564z" />
    <glyph glyph-name="one" unicode="1" horiz-adv-x="1153" 
d="M587 1408h162v-1408h-171v1219l-338 -293v185z" />
    <glyph glyph-name="two" unicode="2" horiz-adv-x="1153" 
d="M349 159h701v-159h-950v131l564 583c131 134 162 225 162 312c0 165 -109 253 -255 253c-151 0 -264 -83 -264 -299v-104l-173 16v87c0 300 180 450 437 450c241 0 425 -146 425 -399c0 -152 -66 -266 -200 -406z" />
    <glyph glyph-name="three" unicode="3" horiz-adv-x="1153" 
d="M567 -19c-319 0 -469 177 -469 501l176 9c0 -224 69 -353 293 -353c180 0 302 111 302 275c0 172 -127 271 -282 271h-70v147h68c119 0 218 97 218 225c0 127 -102 215 -239 215c-182 0 -231 -123 -231 -286l-176 6c0 281 147 436 406 436c231 0 404 -155 404 -359
c0 -146 -91 -253 -197 -297c150 -44 275 -165 275 -366c0 -256 -203 -424 -478 -424z" />
    <glyph glyph-name="four" unicode="4" horiz-adv-x="1153" 
d="M1110 442v-159h-217v-283h-173v283h-674v160l586 965h261v-966h217zM225 442h495v839z" />
    <glyph glyph-name="five" unicode="5" horiz-adv-x="1153" 
d="M544 906c352 0 511 -176 511 -449c0 -279 -190 -475 -472 -475c-245 0 -468 149 -468 439c0 23 2 46 5 72l177 15c-4 -29 -8 -55 -8 -79c0 -207 152 -285 291 -285c184 0 301 129 301 307c0 177 -98 303 -356 303h-356l87 652h738v-161h-592l-46 -339h188z" />
    <glyph glyph-name="six" unicode="6" horiz-adv-x="1153" 
d="M1063 469c4 -290 -219 -485 -485 -485c-274 0 -491 191 -491 474c0 119 42 232 122 338l471 612h204l-391 -493c38 11 78 17 122 17c228 0 444 -173 448 -463zM574 145c184 0 323 126 320 327c-3 204 -142 325 -323 325c-187 0 -322 -148 -319 -332
c2 -205 137 -320 322 -320z" />
    <glyph glyph-name="seven" unicode="7" horiz-adv-x="1153" 
d="M98 1408h963v-145l-688 -1263h-198l694 1248h-771v160z" />
    <glyph glyph-name="eight" unicode="8" horiz-adv-x="1153" 
d="M578 -19c-268 0 -478 164 -478 423c0 182 106 313 264 372c-114 56 -190 164 -190 294c0 209 173 357 404 357c226 0 400 -148 400 -357c0 -130 -74 -238 -186 -294c156 -59 263 -190 263 -372c0 -260 -210 -423 -477 -423zM578 833c134 0 240 100 240 228
c0 126 -106 223 -240 223c-137 0 -241 -97 -241 -223c0 -128 104 -228 241 -228zM578 141c169 0 303 108 303 281c0 170 -134 277 -303 277c-170 0 -305 -107 -305 -277c0 -173 134 -281 305 -281z" />
    <glyph glyph-name="nine" unicode="9" horiz-adv-x="1153" 
d="M574 1424c273 0 491 -191 491 -474c0 -118 -43 -232 -123 -338l-471 -612h-207l389 490c-37 -10 -76 -15 -118 -15c-226 0 -441 175 -446 463c-4 292 217 486 485 486zM581 611c187 0 321 148 318 332c-3 203 -138 319 -321 319c-182 0 -324 -126 -321 -327
c3 -202 143 -324 324 -324z" />
    <glyph glyph-name="zero.subs" horiz-adv-x="808" 
d="M403 -381c-194 0 -332 199 -332 473c0 275 138 473 332 473c196 0 335 -198 335 -473c0 -274 -139 -473 -335 -473zM404 -267c121 0 216 149 216 359s-95 359 -216 359s-216 -149 -216 -359s95 -359 216 -359z" />
    <glyph glyph-name="one.subs" horiz-adv-x="481" 
d="M231 553h109v-922h-116v804l-218 -170v118z" />
    <glyph glyph-name="two.subs" horiz-adv-x="718" 
d="M162 -273h501v-96h-626v110c420 346 485 440 485 546c0 126 -79 179 -168 178c-107 -2 -169 -77 -171 -179h-120c2 167 127 281 297 281c156 0 271 -102 275 -264c5 -162 -108 -297 -473 -576z" />
    <glyph glyph-name="three.subs" horiz-adv-x="699" 
d="M478 142c93 -44 154 -130 154 -238c0 -157 -129 -285 -297 -285c-161 0 -292 116 -292 270h115c1 -99 83 -168 180 -168c103 0 178 76 178 182c0 103 -75 177 -181 177h-68v94h61c86 0 148 61 148 148s-62 143 -144 143c-78 0 -142 -53 -143 -144l-113 1
c0 142 112 243 255 243c142 0 250 -101 250 -237c0 -81 -39 -147 -103 -186z" />
    <glyph glyph-name="four.subs" horiz-adv-x="723" 
d="M664 -81v-93h-102v-195h-112v195h-437v91l400 636h149v-634h102zM122 -81h328v534z" />
    <glyph glyph-name="five.subs" horiz-adv-x="764" 
d="M369 226c232 0 329 -122 329 -297c0 -184 -135 -309 -317 -309c-153 0 -294 80 -314 249h119c20 -106 108 -147 191 -147c124 0 203 86 203 203c0 124 -68 203 -227 203h-259l83 426h482v-103h-397l-43 -225h150z" />
    <glyph glyph-name="six.subs" horiz-adv-x="719" 
d="M682 -50c7 -188 -142 -323 -315 -329c-174 -6 -330 120 -335 303c-3 84 27 158 78 219l320 410h140l-258 -314c16 5 36 8 60 9c158 2 303 -128 310 -298zM367 -271c116 6 209 102 202 220c-7 122 -107 205 -221 200c-120 -6 -209 -100 -203 -222
c6 -121 106 -203 222 -198z" />
    <glyph glyph-name="seven.subs" horiz-adv-x="640" 
d="M25 553h618v-79l-471 -843h-135l463 814h-475v108z" />
    <glyph glyph-name="eight.subs" horiz-adv-x="735" 
d="M517 141c90 -46 149 -135 149 -242c0 -156 -129 -280 -298 -280c-170 0 -301 124 -301 280c0 108 60 196 151 243c-63 40 -97 109 -97 191c0 130 105 232 247 232c140 0 246 -102 246 -232c0 -82 -34 -151 -97 -192zM368 467c-82 0 -145 -62 -145 -145
c0 -81 63 -144 145 -144c80 0 143 63 143 144c0 83 -63 145 -143 145zM368 -278c102 0 183 83 183 189c0 102 -81 183 -183 183c-105 0 -185 -81 -185 -183c0 -106 80 -189 185 -189z" />
    <glyph glyph-name="nine.subs" horiz-adv-x="719" 
d="M687 260c3 -84 -29 -158 -76 -219l-321 -410h-141l260 316c-17 -6 -38 -10 -64 -10c-155 -3 -302 127 -310 298c-7 185 144 322 317 328s329 -119 335 -303zM372 36c118 6 208 99 202 221c-6 121 -105 204 -221 198c-117 -6 -211 -101 -203 -220
c7 -123 109 -205 222 -199z" />
    <glyph glyph-name="zero.dnom" horiz-adv-x="808" 
d="M403 -12c-194 0 -332 198 -332 473c0 274 138 473 332 473c196 0 335 -199 335 -473c0 -275 -139 -473 -335 -473zM404 102c121 0 216 149 216 359s-95 359 -216 359s-216 -149 -216 -359s95 -359 216 -359z" />
    <glyph glyph-name="one.dnom" horiz-adv-x="481" 
d="M231 922h109v-922h-116v804l-218 -170v118z" />
    <glyph glyph-name="two.dnom" horiz-adv-x="718" 
d="M160 95h503v-95h-626v110c420 346 485 440 485 546c0 125 -79 179 -168 178c-107 -3 -169 -77 -171 -179h-120c2 167 127 281 297 281c156 0 271 -103 275 -264c5 -163 -108 -297 -475 -577z" />
    <glyph glyph-name="three.dnom" horiz-adv-x="699" 
d="M478 511c93 -45 154 -130 154 -238c0 -157 -129 -285 -297 -285c-161 0 -292 116 -292 270h115c1 -99 83 -168 180 -168c103 0 178 75 178 181c0 104 -75 176 -181 176h-68v96h61c86 0 148 61 148 148s-62 143 -144 143c-78 0 -142 -55 -143 -144l-113 1
c0 141 112 243 255 243c142 0 250 -102 250 -238c0 -81 -39 -146 -103 -185z" />
    <glyph glyph-name="four.dnom" horiz-adv-x="723" 
d="M664 288v-93h-102v-195h-112v195h-437v90l400 637h149v-634h102zM122 288h328v534z" />
    <glyph glyph-name="five.dnom" horiz-adv-x="764" 
d="M369 594c232 0 329 -122 329 -297c0 -183 -135 -308 -317 -308c-153 0 -294 80 -314 249h119c20 -106 108 -148 191 -148c124 0 203 87 203 204c0 124 -68 203 -227 203h-259l83 425h482v-102h-397l-44 -226h151z" />
    <glyph glyph-name="six.dnom" horiz-adv-x="719" 
d="M682 318c7 -187 -142 -322 -315 -328c-174 -6 -330 119 -335 303c-3 84 27 158 78 219l320 410h140l-259 -314c17 5 37 8 61 8c158 3 303 -127 310 -298zM367 98c116 6 209 101 202 220c-7 121 -107 205 -221 199c-120 -6 -209 -99 -203 -221c6 -121 106 -204 222 -198z
" />
    <glyph glyph-name="seven.dnom" horiz-adv-x="640" 
d="M25 922h618v-79l-471 -843h-135l463 814h-475v108z" />
    <glyph glyph-name="eight.dnom" horiz-adv-x="735" 
d="M517 510c90 -46 149 -135 149 -243c0 -155 -129 -279 -298 -279c-170 0 -301 124 -301 279c0 108 60 197 151 244c-63 40 -97 109 -97 190c0 131 105 233 247 233c140 0 246 -102 246 -233c0 -82 -34 -150 -97 -191zM368 836c-82 0 -145 -64 -145 -145
c0 -82 63 -144 145 -144c80 0 143 62 143 144c0 81 -63 145 -143 145zM368 90c102 0 183 84 183 190c0 102 -81 183 -183 183c-105 0 -185 -81 -185 -183c0 -106 80 -190 185 -190z" />
    <glyph glyph-name="nine.dnom" horiz-adv-x="719" 
d="M687 629c3 -85 -29 -158 -76 -219l-321 -410h-141l258 314c-17 -5 -37 -8 -62 -9c-155 -2 -302 128 -310 298c-7 186 144 323 317 329s329 -120 335 -303zM372 404c118 6 208 100 202 222c-6 121 -105 203 -221 198c-117 -6 -211 -102 -203 -220
c7 -123 109 -206 222 -200z" />
    <glyph glyph-name="zero.numr" horiz-adv-x="808" 
d="M403 482c-194 0 -332 199 -332 473s138 473 332 473c196 0 335 -199 335 -473s-139 -473 -335 -473zM404 596c121 0 216 149 216 359s-95 357 -216 357c-123 0 -216 -147 -216 -357s93 -359 216 -359z" />
    <glyph glyph-name="one.numr" horiz-adv-x="481" 
d="M232 1408h108v-922h-116l1 804l-219 -169v117z" />
    <glyph glyph-name="two.numr" horiz-adv-x="718" 
d="M160 587h503v-95h-626v110c420 346 485 440 485 546c0 126 -79 179 -168 178c-107 -2 -169 -77 -171 -179h-120c2 167 127 281 297 281c156 0 271 -103 275 -264c5 -163 -108 -297 -475 -577z" />
    <glyph glyph-name="three.numr" horiz-adv-x="699" 
d="M477 1004c94 -44 155 -129 155 -237c0 -159 -129 -285 -296 -285c-163 0 -293 116 -293 270h119c0 -99 78 -168 175 -168c101 0 176 75 176 182c0 103 -75 175 -186 175h-60v96h55c90 0 150 61 150 149c0 85 -61 142 -140 142s-139 -54 -139 -144l-117 1
c0 142 111 243 256 243c141 0 249 -101 249 -238c0 -81 -39 -147 -104 -186z" />
    <glyph glyph-name="four.numr" horiz-adv-x="723" 
d="M664 774v-93h-102v-195h-112v195h-437v90l400 637h149v-634h102zM122 774h328v534z" />
    <glyph glyph-name="five.numr" horiz-adv-x="764" 
d="M369 1080c232 0 329 -122 329 -297c0 -184 -135 -309 -317 -309c-153 0 -294 80 -314 249h119c20 -106 108 -147 191 -147c124 0 203 86 203 203c0 123 -68 203 -227 203h-259l83 426h482v-103h-397l-43 -225h150z" />
    <glyph glyph-name="six.numr" horiz-adv-x="719" 
d="M682 804c7 -187 -142 -322 -315 -328c-174 -6 -330 119 -335 303c-3 84 27 158 78 219l320 410h140l-258 -315c16 5 36 9 60 9c158 5 303 -127 310 -298zM367 584c116 6 209 101 202 220c-7 121 -107 205 -221 199c-120 -6 -209 -99 -203 -221c6 -121 106 -204 222 -198z
" />
    <glyph glyph-name="seven.numr" horiz-adv-x="640" 
d="M25 1408h618v-79l-471 -843h-135l463 814h-475v108z" />
    <glyph glyph-name="eight.numr" horiz-adv-x="735" 
d="M517 1004c90 -46 149 -135 149 -242c0 -156 -129 -280 -298 -280c-170 0 -301 124 -301 280c0 108 60 196 151 243c-63 40 -97 109 -97 190c0 131 105 233 247 233c138 0 246 -102 246 -233c0 -82 -34 -150 -97 -191zM368 1330c-82 0 -145 -63 -145 -145
c0 -81 63 -144 145 -144c80 0 143 63 143 144c0 82 -63 145 -143 145zM368 585c102 0 183 83 183 189c0 102 -81 183 -183 183c-105 0 -185 -81 -185 -183c0 -106 80 -189 185 -189z" />
    <glyph glyph-name="nine.numr" horiz-adv-x="719" 
d="M362 1428c174 0 325 -128 325 -313c0 -82 -30 -151 -76 -209l-321 -410h-141l260 315c-18 -6 -42 -9 -70 -9c-155 0 -304 135 -304 309c0 185 155 317 327 317zM362 901c118 0 212 90 212 210c0 123 -96 209 -210 209c-118 0 -214 -91 -214 -207c0 -126 98 -212 212 -212
z" />
    <glyph glyph-name="zero.sups" horiz-adv-x="808" 
d="M403 977c-194 0 -332 198 -332 473c0 274 138 473 332 473c196 0 335 -199 335 -473c0 -275 -139 -473 -335 -473zM404 1091c121 0 216 149 216 359s-95 357 -216 357c-123 0 -216 -147 -216 -357s93 -359 216 -359z" />
    <glyph glyph-name="one.sups" horiz-adv-x="481" 
d="M232 1905h108v-922h-116l1 805l-219 -169v116z" />
    <glyph glyph-name="two.sups" horiz-adv-x="718" 
d="M160 1078h503v-95h-626v110c420 346 485 440 485 546c0 125 -79 179 -168 178c-107 -2 -169 -77 -171 -179h-120c2 167 127 281 297 281c156 0 271 -103 275 -264c5 -163 -108 -297 -475 -577z" />
    <glyph glyph-name="three.sups" horiz-adv-x="699" 
d="M477 1493c94 -44 155 -129 155 -237c0 -159 -129 -285 -296 -285c-163 0 -293 116 -293 270h119c0 -99 78 -168 175 -168c101 0 176 75 176 182c0 103 -75 175 -186 175h-60v96h55c90 0 150 61 150 149c0 85 -61 142 -140 142s-139 -55 -139 -144l-117 1
c0 141 111 243 256 243c141 0 249 -102 249 -238c0 -81 -39 -147 -104 -186z" />
    <glyph glyph-name="four.sups" horiz-adv-x="723" 
d="M664 1271v-93h-102v-195h-112v195h-437v90l400 637h149v-634h102zM122 1271h328v534z" />
    <glyph glyph-name="five.sups" horiz-adv-x="764" 
d="M369 1577c232 0 329 -122 329 -297c0 -183 -135 -308 -317 -308c-153 0 -294 80 -314 249h119c20 -106 108 -148 191 -148c124 0 203 87 203 204c0 122 -68 203 -227 203h-259l83 425h482v-102h-397l-44 -226h151z" />
    <glyph glyph-name="six.sups" horiz-adv-x="719" 
d="M682 1301c7 -187 -142 -322 -315 -328c-174 -6 -330 119 -335 303c-3 84 27 158 78 219l320 410h140l-258 -315c16 5 36 9 60 9c158 3 303 -127 310 -298zM367 1081c116 6 209 101 202 220c-7 121 -107 205 -221 199c-120 -6 -209 -99 -203 -221
c6 -121 106 -204 222 -198z" />
    <glyph glyph-name="seven.sups" horiz-adv-x="640" 
d="M25 1905h618v-79l-471 -843h-135l463 814h-475v108z" />
    <glyph glyph-name="eight.sups" horiz-adv-x="735" 
d="M517 1493c90 -46 149 -135 149 -243c0 -155 -129 -279 -298 -279c-170 0 -301 124 -301 279c0 108 60 197 151 244c-63 40 -97 109 -97 190c0 131 105 233 247 233c138 0 246 -102 246 -233c0 -82 -34 -150 -97 -191zM368 1819c-82 0 -145 -64 -145 -145
c0 -82 63 -144 145 -144c80 0 143 62 143 144c0 81 -63 145 -143 145zM368 1073c102 0 183 84 183 190c0 102 -81 183 -183 183c-105 0 -185 -81 -185 -183c0 -106 80 -190 185 -190z" />
    <glyph glyph-name="nine.sups" horiz-adv-x="719" 
d="M687 1612c3 -84 -29 -158 -76 -219l-321 -410h-141l260 315c-17 -6 -38 -9 -64 -10c-155 -2 -302 128 -310 298c-7 186 144 323 317 329s329 -120 335 -303zM372 1387c118 6 208 100 202 222c-6 121 -105 203 -221 198c-117 -6 -211 -102 -203 -220
c7 -123 109 -205 222 -200z" />
    <glyph glyph-name="fraction" unicode="&#x2044;" horiz-adv-x="407" 
d="M-257 0l794 1408h127l-794 -1408h-127z" />
    <glyph glyph-name="onehalf" unicode="&#xbd;" horiz-adv-x="1606" 
d="M224 486l1 804l-219 -169v117l226 170h108v-922h-116zM1018 1408h127l-794 -1408h-127zM1048 95h503v-95h-626v110c420 346 485 440 485 546c0 125 -79 179 -168 178c-107 -3 -169 -77 -171 -179h-120c2 167 127 281 297 281c156 0 271 -103 275 -264
c5 -163 -108 -297 -475 -577z" />
    <glyph glyph-name="onequarter" unicode="&#xbc;" horiz-adv-x="1541" 
d="M224 486l1 804l-219 -169v117l226 170h108v-922h-116zM1018 1408h127l-794 -1408h-127zM1482 288v-93h-102v-195h-112v195h-437v90l400 637h149v-634h102zM940 288h328v534z" />
    <glyph glyph-name="threequarters" unicode="&#xbe;" horiz-adv-x="1759" 
d="M632 767c0 -159 -129 -285 -296 -285c-163 0 -293 116 -293 270h119c0 -99 78 -168 175 -168c101 0 176 75 176 182c0 103 -75 175 -186 175h-60v96h55c90 0 150 61 150 149c0 85 -61 142 -140 142s-139 -54 -139 -144l-117 1c0 142 111 243 256 243
c141 0 249 -101 249 -238c0 -81 -39 -147 -104 -186c94 -44 155 -129 155 -237zM1236 1408h127l-794 -1408h-127zM1700 288v-93h-102v-195h-112v195h-437v90l400 637h149v-634h102zM1158 288h328v534z" />
    <glyph glyph-name="asterisk" unicode="*" horiz-adv-x="990" 
d="M364 908l-89 54l149 200c21 28 8 51 -26 46l-253 -23v103l253 -25c34 -5 47 19 26 46l-149 205l89 49l105 -226c14 -32 40 -32 53 0l104 226l90 -49l-150 -205c-21 -27 -8 -51 26 -46l252 25v-103l-252 23c-34 5 -47 -17 -26 -46l150 -200l-90 -54l-104 227
c-13 32 -39 33 -53 0z" />
    <glyph glyph-name="backslash" unicode="\" horiz-adv-x="1151" 
d="M988 -372l-992 1908h167l992 -1908h-167z" />
    <glyph glyph-name="periodcentered" unicode="&#xb7;" horiz-adv-x="623" 
d="M312 643c-50 0 -94 41 -94 94c0 51 44 93 94 93c49 0 94 -42 94 -93c0 -53 -45 -94 -94 -94z" />
    <glyph glyph-name="bullet" unicode="&#x2022;" horiz-adv-x="883" 
d="M442 412c-137 0 -254 109 -254 253c0 135 117 253 254 253c134 0 253 -118 253 -253c0 -144 -119 -253 -253 -253z" />
    <glyph glyph-name="colon" unicode=":" horiz-adv-x="638" 
d="M317 676c-62 0 -116 52 -116 116c0 63 54 116 116 116c64 0 117 -53 117 -116c0 -64 -53 -116 -117 -116zM317 -20c-62 0 -116 52 -116 116c0 63 54 116 116 116c64 0 117 -53 117 -116c0 -64 -53 -116 -117 -116z" />
    <glyph glyph-name="comma" unicode="," horiz-adv-x="649" 
d="M311 -361h-126l122 620h181z" />
    <glyph glyph-name="ellipsis" unicode="&#x2026;" horiz-adv-x="1880" 
d="M328 -20c-62 0 -116 52 -116 116c0 63 54 116 116 116c63 0 117 -53 117 -116c0 -64 -54 -116 -117 -116zM944 -20c-62 0 -116 52 -116 116c0 63 54 116 116 116c63 0 117 -53 117 -116c0 -64 -54 -116 -117 -116zM1549 -20c-62 0 -116 52 -116 116c0 63 54 116 116 116
c63 0 117 -53 117 -116c0 -64 -54 -116 -117 -116z" />
    <glyph glyph-name="exclam" unicode="!" horiz-adv-x="654" 
d="M252 399l-12 1009h173l-12 -1009h-149zM326 -20c-63 0 -116 52 -116 116c0 65 53 116 116 116c64 0 117 -51 117 -116c0 -64 -53 -116 -117 -116z" />
    <glyph glyph-name="exclamdown" unicode="&#xa1;" horiz-adv-x="654" 
d="M326 1003c64 0 117 -52 117 -116c0 -65 -53 -116 -117 -116c-63 0 -116 51 -116 116c0 64 53 116 116 116zM252 584h149l12 -1009h-173z" />
    <glyph glyph-name="numbersign" unicode="#" horiz-adv-x="1507" 
d="M335 0l49 345h-280l18 133h281l65 452h-281l21 132h276l53 350h130l-48 -350h370l49 350h134l-51 -350h282l-21 -132h-278l-64 -452h279l-19 -133h-278l-53 -345h-130l49 345h-372l-50 -345h-131zM535 478h371l65 452h-373z" />
    <glyph glyph-name="period" unicode="." horiz-adv-x="659" 
d="M328 -20c-62 0 -116 52 -116 116c0 63 54 116 116 116c63 0 117 -53 117 -116c0 -64 -54 -116 -117 -116z" />
    <glyph glyph-name="question" unicode="?" horiz-adv-x="1037" 
d="M438 394v125c0 136 76 188 199 248c79 39 131 110 131 243c0 167 -108 273 -258 273c-148 0 -256 -117 -256 -279c0 -26 3 -54 8 -82l-152 15c-5 29 -7 57 -7 86c0 237 168 405 405 405c240 0 413 -166 413 -415c0 -210 -109 -316 -220 -362c-73 -31 -114 -66 -114 -145
v-112h-149zM518 -20c-62 0 -115 51 -115 116c0 63 54 116 115 116c62 0 115 -53 115 -116c0 -65 -53 -116 -115 -116z" />
    <glyph glyph-name="questiondown" unicode="&#xbf;" horiz-adv-x="1037" 
d="M506 1003c62 0 115 -51 115 -116c0 -63 -54 -116 -115 -116c-62 0 -115 53 -115 116c0 65 53 116 115 116zM586 589v-125c0 -136 -76 -188 -199 -248c-79 -39 -131 -110 -131 -243c0 -167 108 -273 258 -273c148 0 256 117 256 279c0 26 -3 54 -8 82l152 -15
c5 -29 7 -57 7 -86c0 -237 -168 -405 -405 -405c-240 0 -413 166 -413 415c0 210 109 316 220 362c73 31 114 66 114 145v112h149z" />
    <glyph glyph-name="quotedbl" unicode="&#x22;" horiz-adv-x="984" 
d="M253 763l-15 645h164l-11 -645h-138zM593 763l-10 645h162l-14 -645h-138z" />
    <glyph glyph-name="quotesingle" unicode="'" horiz-adv-x="642" 
d="M251 763l-10 645h162l-14 -645h-138z" />
    <glyph glyph-name="semicolon" unicode=";" horiz-adv-x="651" 
d="M351 676c-64 0 -118 52 -118 116c0 63 54 116 118 116c62 0 117 -53 117 -116c0 -64 -55 -116 -117 -116zM153 -361l123 620h181l-178 -620h-126z" />
    <glyph glyph-name="slash" unicode="/" horiz-adv-x="1151" 
d="M-4 -372l992 1908h167l-992 -1908h-167z" />
    <glyph glyph-name="underscore" unicode="_" horiz-adv-x="1367" 
d="M171 -143v143h1024v-143h-1024z" />
    <glyph glyph-name="braceleft" unicode="{" horiz-adv-x="623" 
d="M460 -507c-143 0 -236 100 -236 237v434c0 174 -18 239 -153 296v108c135 57 153 124 153 299v431c0 138 93 238 236 238h89v-119h-59c-72 0 -109 -55 -109 -150v-418c0 -145 -21 -262 -191 -334c170 -72 191 -190 191 -335v-421c0 -95 32 -144 109 -144h59v-122h-89z
" />
    <glyph glyph-name="braceright" unicode="}" horiz-adv-x="620" 
d="M160 -507h-89v122h59c77 0 109 49 109 144v421c0 145 21 263 191 335c-170 72 -191 189 -191 334v418c0 95 -37 150 -109 150h-59v119h89c143 0 236 -100 236 -238v-431c0 -175 18 -242 153 -299v-108c-135 -57 -153 -122 -153 -296v-434c0 -137 -93 -237 -236 -237z" />
    <glyph glyph-name="bracketleft" unicode="[" horiz-adv-x="646" 
d="M176 -512v2048h416v-128h-263v-1792h263v-128h-416z" />
    <glyph glyph-name="bracketright" unicode="]" horiz-adv-x="643" 
d="M467 -512h-416v128h263v1792h-263v128h416v-2048z" />
    <glyph glyph-name="parenleft" unicode="(" horiz-adv-x="674" 
d="M539 -499c-259 166 -421 556 -421 1064c0 504 162 898 421 1065l92 -114c-219 -138 -360 -489 -360 -951c0 -466 141 -811 360 -949z" />
    <glyph glyph-name="parenright" unicode=")" horiz-adv-x="674" 
d="M135 -499l-92 115c219 138 360 483 360 949c0 462 -141 813 -360 951l92 114c259 -167 421 -561 421 -1065c0 -508 -162 -898 -421 -1064z" />
    <glyph glyph-name="emdash" unicode="&#x2014;" horiz-adv-x="2391" 
d="M171 461v143h2048v-143h-2048z" />
    <glyph glyph-name="endash" unicode="&#x2013;" horiz-adv-x="1367" 
d="M171 461v143h1024v-143h-1024z" />
    <glyph glyph-name="hyphen" unicode="-" horiz-adv-x="1060" 
d="M171 461v143h717v-143h-717z" />
    <glyph glyph-name="uni00AD" unicode="&#xad;" horiz-adv-x="1060" 
d="M171 479v153h717v-153h-717z" />
    <glyph glyph-name="guillemotleft" unicode="&#xab;" horiz-adv-x="996" 
d="M384 229l-312 377l312 377h147l-311 -377l311 -377h-147zM765 229l-312 377l312 377h148l-311 -377l311 -377h-148z" />
    <glyph glyph-name="guillemotright" unicode="&#xbb;" horiz-adv-x="996" 
d="M83 229l311 377l-311 377h148l311 -377l-311 -377h-148zM464 229l312 377l-312 377h149l311 -377l-311 -377h-149z" />
    <glyph glyph-name="guilsinglleft" unicode="&#x2039;" horiz-adv-x="614" 
d="M384 229l-312 377l312 377h147l-311 -377l311 -377h-147z" />
    <glyph glyph-name="guilsinglright" unicode="&#x203a;" horiz-adv-x="614" 
d="M83 229l311 377l-311 377h148l311 -377l-311 -377h-148z" />
    <glyph glyph-name="quotedblbase" unicode="&#x201e;" horiz-adv-x="967" 
d="M276 -361h-126l122 620h181zM664 -361h-126l122 620h181z" />
    <glyph glyph-name="quotedblleft" unicode="&#x201c;" horiz-adv-x="957" 
d="M302 1408h126l-122 -620h-181zM680 1408h126l-122 -620h-181z" />
    <glyph glyph-name="quotedblright" unicode="&#x201d;" horiz-adv-x="956" 
d="M276 787h-126l122 620h181zM654 787h-126l122 620h181z" />
    <glyph glyph-name="quoteleft" unicode="&#x2018;" horiz-adv-x="579" 
d="M302 1408h126l-122 -620h-181z" />
    <glyph glyph-name="quoteright" unicode="&#x2019;" horiz-adv-x="578" 
d="M276 787h-126l122 620h181z" />
    <glyph glyph-name="quotesinglbase" unicode="&#x201a;" horiz-adv-x="578" 
d="M276 -361h-126l122 620h181z" />
    <glyph glyph-name="space" unicode=" " horiz-adv-x="617" 
 />
    <glyph glyph-name="cent" unicode="&#xa2;" horiz-adv-x="1202" 
d="M669 371c115 0 214 64 277 163l122 -102c-84 -116 -206 -194 -350 -209v-223h-110v225c-257 30 -449 249 -449 545s192 515 449 545v221h110v-219c144 -15 266 -93 350 -209l-122 -102c-63 99 -162 163 -277 163c-191 0 -344 -163 -344 -399c0 -235 153 -399 344 -399z
" />
    <glyph glyph-name="currency" unicode="&#xa4;" horiz-adv-x="1397" 
d="M328 277l-94 100l103 102c-58 77 -88 170 -88 264c0 93 30 187 90 264l-103 101l94 100l104 -106c79 60 173 91 267 91s187 -30 263 -90l104 104l95 -95l-102 -103c58 -77 89 -173 89 -266c0 -92 -31 -187 -89 -265l101 -101l-94 -100l-104 106
c-76 -59 -171 -89 -265 -89s-188 30 -267 89zM699 427c177 0 316 146 316 317c0 173 -141 314 -314 314c-177 0 -318 -143 -318 -319c0 -175 145 -312 316 -312z" />
    <glyph glyph-name="dollar" unicode="$" horiz-adv-x="1363" 
d="M1201 382c0 -266 -209 -388 -464 -401v-128h-94v128c-255 15 -446 152 -491 372l182 44c30 -150 154 -242 309 -259v510l-10 3c-220 60 -439 127 -439 385c0 256 207 384 449 390v133h94v-136c215 -20 395 -126 442 -338l-173 -45c-32 137 -137 209 -269 227v-480
c222 -59 464 -129 464 -405zM374 1038c0 -133 120 -184 269 -226v459c-137 -7 -269 -74 -269 -233zM737 136c154 10 284 77 281 241c-2 143 -128 201 -281 246v-487z" />
    <glyph glyph-name="Euro" unicode="&#x20ac;" horiz-adv-x="1566" 
d="M932 149c143 0 267 72 350 192l148 -104c-117 -156 -297 -256 -497 -256c-306 0 -552 170 -621 518h-158v110h143c-3 31 -4 64 -4 98c0 30 1 60 3 88h-142v112h157c66 351 314 521 622 521c200 0 380 -100 497 -255l-148 -104c-83 122 -209 189 -350 189
c-210 0 -385 -101 -443 -351h500v-112h-517c-3 -28 -4 -57 -4 -88c0 -34 2 -67 4 -98h517v-110h-498c60 -247 233 -350 441 -350z" />
    <glyph glyph-name="florin" unicode="&#x192;" horiz-adv-x="1037" 
d="M171 -384l194 1223h-172l22 144h174l42 274c25 170 183 299 350 299c55 0 112 -17 136 -36l-15 -135c-27 22 -69 35 -104 35c-103 0 -187 -76 -204 -186l-39 -251h287l-23 -144h-286l-197 -1223h-165z" />
    <glyph glyph-name="sterling" unicode="&#xa3;" horiz-adv-x="1342" 
d="M168 0v116l60 6c62 7 95 43 95 105v391h-155v137h155v222c0 263 183 452 449 452c208 0 388 -130 388 -364c0 -23 -2 -47 -6 -72l-152 -32c6 31 10 59 10 82c0 149 -114 230 -243 230c-172 0 -283 -112 -283 -296v-222h332v-137h-332v-463h684v-155h-1002z" />
    <glyph glyph-name="yen" unicode="&#xa5;" horiz-adv-x="1433" 
d="M629 0v250h-404v118h404v213h-404v118h384l-462 709h203l368 -579l367 579h202l-461 -709h382v-118h-401v-213h401v-118h-401v-250h-178z" />
    <glyph glyph-name="plus" unicode="+" horiz-adv-x="1207" 
d="M533 206v405h-405v142h405v403h142v-403h403v-142h-403v-405h-142z" />
    <glyph glyph-name="minus" unicode="&#x2212;" horiz-adv-x="1284" 
d="M260 611v142h764v-142h-764z" />
    <glyph glyph-name="multiply" unicode="&#xd7;" horiz-adv-x="1072" 
d="M255 281l-100 102l280 280l-280 280l100 101l282 -279l278 277l102 -99l-280 -280l280 -280l-102 -101l-278 281z" />
    <glyph glyph-name="divide" unicode="&#xf7;" horiz-adv-x="1026" 
d="M507 934c-58 0 -110 48 -110 111c0 58 52 111 110 111c60 0 113 -53 113 -111c0 -63 -53 -111 -113 -111zM130 611v142h763v-142h-763zM507 208c-58 0 -110 48 -110 113c0 58 52 109 110 109c60 0 113 -51 113 -109c0 -65 -53 -113 -113 -113z" />
    <glyph glyph-name="equal" unicode="=" horiz-adv-x="1291" 
d="M264 824v142h764v-142h-764zM264 415v142h764v-142h-764z" />
    <glyph glyph-name="notequal" unicode="&#x2260;" horiz-adv-x="1259" 
d="M196 0l217 415h-233v142h306l139 267h-445v142h518l204 390h132l-203 -390h257v-142h-331l-139 -267h470v-142h-542l-217 -415h-133z" />
    <glyph glyph-name="greater" unicode="&#x3e;" horiz-adv-x="1390" 
d="M145 1361l1130 -567v-169l-1130 -572v160l981 496l-981 495v157z" />
    <glyph glyph-name="less" unicode="&#x3c;" horiz-adv-x="1390" 
d="M1245 1361v-157l-981 -495l981 -496v-160l-1130 572v169z" />
    <glyph glyph-name="greaterequal" unicode="&#x2265;" horiz-adv-x="1439" 
d="M164 1422l1130 -526v-169l-1130 -530v160l976 455l-976 453v157zM164 0v126h1130v-126h-1130z" />
    <glyph glyph-name="lessequal" unicode="&#x2264;" horiz-adv-x="1439" 
d="M1276 1422v-157l-977 -453l977 -455v-160l-1131 530v169zM145 0v126h1131v-126h-1131z" />
    <glyph glyph-name="plusminus" unicode="&#xb1;" horiz-adv-x="1258" 
d="M561 339v405h-403v141h403v405h144v-405h403v-141h-403v-405h-144zM149 2v143h944v-143h-944z" />
    <glyph glyph-name="approxequal" unicode="&#x2248;" horiz-adv-x="1434" 
d="M936 669c-141 0 -218 93 -274 154c-48 52 -91 86 -147 86c-103 0 -167 -92 -170 -219h-134c3 211 123 353 305 353c110 0 180 -57 257 -150c39 -46 81 -94 152 -94c96 0 164 85 168 217h132c-3 -198 -114 -347 -289 -347zM936 237c-141 0 -219 92 -274 153
c-44 50 -83 88 -147 87c-104 -2 -167 -93 -170 -219h-134c3 213 124 354 305 354c109 0 178 -55 257 -149c40 -48 81 -96 152 -96c96 0 164 85 168 219h132c-3 -199 -114 -349 -289 -349z" />
    <glyph glyph-name="asciitilde" unicode="~" horiz-adv-x="1432" 
d="M932 351c-140 0 -219 94 -273 153c-49 55 -91 88 -147 88c-106 0 -169 -101 -171 -220h-133c-7 210 118 354 307 354c116 0 185 -60 255 -149c42 -52 81 -95 151 -95c96 0 172 85 168 218h132c12 -199 -113 -349 -289 -349z" />
    <glyph glyph-name="logicalnot" unicode="&#xac;" horiz-adv-x="1654" 
d="M1246 313v525h-1112v145h1256v-670h-144z" />
    <glyph glyph-name="emptyset" unicode="&#x2205;" horiz-adv-x="1575" 
d="M788 -16c-156 0 -298 58 -405 154l-89 -89l-53 53l89 89c-96 107 -154 249 -154 405c0 338 274 612 612 612c156 0 297 -58 405 -154l88 89l54 -53l-89 -89c96 -107 154 -249 154 -405c0 -338 -274 -612 -612 -612zM429 291l664 664c-82 70 -188 111 -305 111
c-261 0 -470 -209 -470 -470c0 -117 40 -224 111 -305zM788 126c261 0 470 209 470 470c0 117 -41 223 -111 305l-665 -664c82 -71 189 -111 306 -111z" />
    <glyph glyph-name="infinity" unicode="&#x221e;" horiz-adv-x="1725" 
d="M486 294c-160 0 -281 128 -287 302c6 174 127 302 287 302c118 0 249 -75 375 -210c124 135 257 210 375 210c166 0 280 -122 287 -302c-7 -180 -121 -302 -287 -302c-118 0 -251 75 -375 209c-126 -134 -257 -209 -375 -209zM486 418c83 0 189 64 292 178
c-103 114 -209 178 -292 178c-88 0 -161 -77 -164 -178c3 -101 76 -178 164 -178zM1236 418c88 0 160 74 163 178c-3 104 -75 178 -163 178c-85 0 -189 -65 -294 -178c105 -114 209 -178 294 -178z" />
    <glyph glyph-name="integral" unicode="&#x222b;" horiz-adv-x="960" 
d="M91 -457v168c218 0 305 88 305 297v1119c0 176 124 301 287 301c61 0 137 -18 194 -70l-78 -130c-30 28 -66 43 -103 43c-79 0 -132 -62 -132 -167v-1099c0 -296 -185 -462 -473 -462z" />
    <glyph glyph-name="product" unicode="&#x220f;" horiz-adv-x="1652" 
d="M283 0v1253h-125v155h1337v-155h-126v-1253h-153v1253h-777v-1253h-156z" />
    <glyph glyph-name="summation" unicode="&#x2211;" horiz-adv-x="1415" 
d="M124 1v118l638 648l-638 650v119h1162v-144h-919l602 -625l-602 -622h919v-144h-1162z" />
    <glyph glyph-name="radical" unicode="&#x221a;" horiz-adv-x="1424" 
d="M475 0l-230 710h-140v145h242l204 -619l622 1300h159l-735 -1536h-122z" />
    <glyph glyph-name="uni00B5" unicode="&#xb5;" horiz-adv-x="1358" 
d="M994 983h155v-983h-155v157c-74 -108 -194 -177 -330 -177c-100 0 -192 37 -262 98v-590h-138v1495h156v-582c0 -157 127 -282 283 -282c160 0 291 125 291 282v582z" />
    <glyph glyph-name="partialdiff" unicode="&#x2202;" horiz-adv-x="1195" 
d="M380 1445c361 56 649 -297 643 -773c-5 -381 -215 -659 -498 -659c-313 0 -467 263 -340 605c117 313 394 440 651 325c-63 251 -229 405 -456 371v131zM863 672c1 43 0 85 -3 126c-215 137 -431 47 -526 -222c-95 -263 10 -443 198 -443c169 0 323 213 331 539z" />
    <glyph glyph-name="percent" unicode="%" horiz-adv-x="1532" 
d="M410 847c-159 0 -288 130 -288 291c0 159 129 290 288 290c161 0 288 -132 288 -290c0 -160 -127 -291 -288 -291zM307 -1l750 1411h158l-750 -1411h-158zM410 973c94 0 165 75 165 165c0 92 -73 164 -165 164c-90 0 -165 -72 -165 -164c0 -93 75 -165 165 -165z
M1124 -18c-161 0 -290 130 -290 290c0 161 131 289 290 289c158 0 286 -130 286 -289s-127 -290 -286 -290zM1124 107c90 0 166 75 166 165c0 92 -76 165 -166 165c-93 0 -166 -72 -166 -165c0 -90 73 -165 166 -165z" />
    <glyph glyph-name="perthousand" unicode="&#x2030;" horiz-adv-x="2208" 
d="M410 847c-159 0 -288 130 -288 291c0 159 129 290 288 290c161 0 288 -132 288 -290c0 -160 -127 -291 -288 -291zM307 -1l750 1411h158l-750 -1411h-158zM410 973c94 0 165 75 165 165c0 92 -73 164 -165 164c-90 0 -165 -72 -165 -164c0 -93 75 -165 165 -165z
M1124 -18c-161 0 -290 130 -290 290c0 161 131 289 290 289c158 0 286 -130 286 -289s-127 -290 -286 -290zM1803 -18c-162 0 -291 130 -291 290c0 161 131 289 291 289c157 0 286 -130 286 -289s-128 -290 -286 -290zM1124 107c90 0 166 75 166 165c0 92 -76 165 -166 165
c-93 0 -166 -72 -166 -165c0 -90 73 -165 166 -165zM1803 107c89 0 165 75 165 165c0 92 -76 165 -165 165c-94 0 -166 -72 -166 -165c0 -90 72 -165 166 -165z" />
    <glyph glyph-name="lozenge" unicode="&#x25ca;" horiz-adv-x="1425" 
d="M713 106l-618 617l618 618l617 -616zM715 301l420 424l-420 420l-424 -422z" />
    <glyph glyph-name="uniF8FF" unicode="&#xf8ff;" horiz-adv-x="1861" 
d="M931 0c-428 0 -779 350 -779 778c0 430 351 778 779 778c430 0 778 -348 778 -778c0 -428 -348 -778 -778 -778zM931 74c389 0 704 317 704 704c0 389 -315 705 -704 705c-387 0 -705 -316 -705 -705c0 -387 318 -704 705 -704zM1338 444c-8 0 -17 6 -23 13l-297 295
c-16 16 -16 39 -1 53l297 297c14 14 37 14 51 0c14 -15 14 -39 0 -53l-270 -271l270 -270c14 -14 12 -35 0 -51c-6 -8 -17 -13 -27 -13zM523 444c-20 0 -37 17 -37 37v594c0 21 17 37 37 37c21 0 37 -16 37 -37v-594c0 -20 -16 -37 -37 -37zM931 444c-21 0 -37 17 -37 37
v594c0 21 16 37 37 37c20 0 37 -16 37 -37v-594c0 -20 -17 -37 -37 -37zM634 741c-21 0 -37 17 -37 37c0 21 16 37 37 37h186c21 0 37 -16 37 -37c0 -20 -16 -37 -37 -37h-186z" />
    <glyph glyph-name="at" unicode="@" horiz-adv-x="1792" 
d="M898 -201c-411 0 -744 332 -744 745c0 408 324 743 746 743c416 0 742 -326 742 -758c0 -292 -150 -399 -313 -399c-121 0 -210 50 -245 137h-8c-64 -86 -160 -121 -257 -121c-134 0 -243 68 -243 214c0 152 119 210 283 240l200 38v51c0 116 -75 156 -165 156
c-88 0 -157 -35 -175 -127l-126 31c28 126 137 197 301 197c157 0 301 -69 301 -269v-305c0 -85 47 -137 139 -137c113 0 191 83 191 284c0 384 -278 651 -624 651c-356 0 -630 -281 -630 -625c0 -348 280 -628 631 -628c109 0 216 28 312 85l54 -103
c-109 -65 -237 -100 -370 -100zM852 247c91 0 216 47 216 210v90l-185 -37c-117 -24 -171 -59 -171 -139c0 -83 57 -124 140 -124z" />
    <glyph glyph-name="ampersand" unicode="&#x26;" horiz-adv-x="1513" 
d="M1367 0h-207l-114 150c-131 -105 -294 -170 -471 -170c-252 0 -447 129 -447 379c0 210 138 316 395 479c-108 145 -157 223 -157 320c0 86 38 152 97 198c59 47 141 72 230 72c183 0 327 -102 327 -272c0 -134 -89 -231 -277 -349l319 -413c87 119 138 263 138 399h161
c0 -193 -75 -382 -198 -529zM575 1257c-26 -26 -42 -63 -42 -110c0 -67 33 -108 117 -220l12 -15c128 83 197 154 197 243c0 96 -78 148 -164 148c-46 0 -89 -15 -120 -46zM581 128c142 0 269 57 371 145l-344 452c-196 -123 -316 -205 -316 -361c0 -161 127 -236 289 -236z
" />
    <glyph glyph-name="paragraph" unicode="&#xb6;" horiz-adv-x="1192" 
d="M543 -307v1028h-65c-225 0 -364 121 -364 345c0 223 139 342 364 342h161v-1715h-96zM831 -307v1715h97v-1715h-97z" />
    <glyph glyph-name="section" unicode="&#xa7;" horiz-adv-x="1347" 
d="M1169 406c0 -103 -33 -183 -87 -242c53 -54 87 -126 87 -227c0 -272 -226 -386 -493 -386s-469 134 -516 356l158 38c36 -162 184 -257 363 -257c173 0 332 63 329 246c-3 175 -189 222 -384 273c-215 56 -426 120 -426 371c0 102 35 182 95 240c-58 52 -95 124 -95 229
c0 254 210 375 449 375c240 0 448 -103 497 -326l-152 -40c-37 158 -177 229 -340 229c-146 0 -296 -64 -296 -237c0 -156 158 -200 339 -247c223 -57 472 -119 472 -395zM358 579c0 -156 158 -200 339 -247c87 -23 178 -46 257 -82c36 36 57 87 56 153
c-3 175 -189 222 -384 273c-68 18 -135 37 -196 62c-44 -36 -72 -88 -72 -159z" />
    <glyph glyph-name="copyright" unicode="&#xa9;" horiz-adv-x="1768" 
d="M882 -20c-401 0 -728 328 -728 729s327 729 728 729c403 0 731 -328 731 -729s-328 -729 -731 -729zM882 87c347 0 622 275 622 622c0 345 -275 622 -622 622c-345 0 -620 -277 -620 -622c0 -347 275 -622 620 -622zM883 289c-227 0 -414 186 -414 416
c0 229 184 414 414 414c121 0 238 -54 314 -143l-88 -76c-55 66 -139 105 -226 105c-165 0 -297 -131 -297 -300c0 -170 132 -300 297 -300c89 0 171 38 226 103l88 -76c-76 -89 -193 -143 -314 -143z" />
    <glyph glyph-name="registered" unicode="&#xae;" horiz-adv-x="1785" 
d="M891 1438c403 0 731 -328 731 -729s-328 -729 -731 -729c-401 0 -728 328 -728 729s327 729 728 729zM891 87c347 0 622 275 622 622c0 345 -275 622 -622 622c-345 0 -620 -277 -620 -622c0 -347 275 -622 620 -622zM1209 894c0 -101 -60 -184 -146 -221l176 -396h-126
l-163 376h-191v-376h-116v864h320c137 0 246 -110 246 -247zM759 1033v-280h190c83 0 146 61 146 140c0 82 -63 140 -146 140h-190z" />
    <glyph glyph-name="trademark" unicode="&#x2122;" horiz-adv-x="1602" 
d="M134 1450v86h442v-86h-175v-635h-92v635h-175zM1240 1536h98v-721h-93v562l-239 -395l-240 393v-560h-94v721h101l232 -388z" />
    <glyph glyph-name="degree" unicode="&#xb0;" horiz-adv-x="972" 
d="M485 853c-159 0 -287 129 -287 288s128 287 287 287c160 0 288 -128 288 -287s-128 -288 -288 -288zM485 956c102 0 184 81 184 185c0 102 -82 185 -184 185c-101 0 -183 -83 -183 -185c0 -104 82 -185 183 -185z" />
    <glyph glyph-name="bar" unicode="|" horiz-adv-x="643" 
d="M264 -307v1843h115v-1843h-115z" />
    <glyph glyph-name="brokenbar" unicode="&#xa6;" horiz-adv-x="643" 
d="M264 799v737h115v-737h-115zM264 -307v737h115v-737h-115z" />
    <glyph glyph-name="uni2113" unicode="&#x2113;" horiz-adv-x="1152" 
d="M638 -11c-234 0 -338 157 -357 331v18c-38 -24 -79 -58 -120 -86l-51 97c58 46 116 84 168 129v501c0 351 166 467 336 467c192 0 276 -149 276 -318c0 -236 -175 -457 -442 -691l1 -51c2 -177 112 -258 226 -258c132 0 240 103 294 197l82 -78
c-102 -179 -249 -258 -413 -258zM448 598c177 175 316 354 316 526c0 117 -40 200 -148 200c-74 0 -168 -74 -168 -322v-404z" />
    <glyph glyph-name="dagger" unicode="&#x2020;" horiz-adv-x="1020" 
d="M922 1005v-116h-359v-1202h-118v1202h-348v116h348v403h118v-403h359z" />
    <glyph glyph-name="daggerdbl" unicode="&#x2021;" horiz-adv-x="1090" 
d="M957 889h-359v-674h359v-116h-359v-412h-118v412h-348v116h348v674h-348v116h348v403h118v-403h359v-116z" />
    <glyph glyph-name="estimated" unicode="&#x212e;" horiz-adv-x="2015" 
d="M1023 -18c-483 0 -874 352 -874 784c0 438 391 790 874 790c486 0 877 -352 877 -790v-21h-1417c-8 0 -13 -2 -13 -8v-430c0 -18 9 -35 19 -49c137 -141 328 -233 536 -233c228 0 428 102 566 262h125c-156 -185 -410 -305 -693 -305zM483 788h1087c6 0 8 9 8 15v430
c0 18 -6 39 -20 51c-137 135 -324 225 -533 225c-206 0 -395 -92 -534 -231c-12 -14 -21 -33 -21 -53v-422c0 -6 5 -15 13 -15z" />
    <glyph glyph-name="uni2116" unicode="&#x2116;" horiz-adv-x="2933" 
d="M1284 294v1242h175v-1536h-168l-852 1245v-1245h-175v1536h168zM2254 325c-292 0 -515 219 -515 551c0 331 223 549 515 549c294 0 515 -220 515 -549c0 -332 -222 -551 -515 -551zM2253 1274c-193 0 -343 -151 -343 -398c0 -250 149 -401 343 -401s346 153 346 401
c0 247 -152 398 -346 398zM1793 0v120h924v-120h-924z" />
    <glyph glyph-name="asciicircum" unicode="^" horiz-adv-x="1393" 
d="M1289 277h-150l-443 976l-442 -976h-150l512 1131h161z" />
    <glyph glyph-name="uni0308" unicode="&#x308;" 
d="M-634 1214c-64 0 -117 53 -117 117s53 116 117 116c63 0 116 -52 116 -116s-53 -117 -116 -117zM-260 1214c-64 0 -117 53 -117 117s53 116 117 116c63 0 116 -52 116 -116s-53 -117 -116 -117z" />
    <glyph glyph-name="uni0307" unicode="&#x307;" 
d="M-260 1214c-64 0 -117 53 -117 117s53 116 117 116c63 0 116 -52 116 -116s-53 -117 -116 -117z" />
    <glyph glyph-name="gravecomb" unicode="&#x300;" 
d="M-179 1229l-225 259l92 67l252 -326h-119z" />
    <glyph glyph-name="acutecomb" unicode="&#x301;" 
d="M-421 1229l251 326l92 -67l-224 -259h-119z" />
    <glyph glyph-name="uni030B" unicode="&#x30b;" 
d="M-781 1229l251 326l92 -67l-224 -259h-119zM-422 1229l252 326l92 -67l-224 -259h-120z" />
    <glyph glyph-name="uni0302" unicode="&#x302;" 
d="M-505 1241h-118l211 295h128l211 -295h-119l-157 212z" />
    <glyph glyph-name="uni030C" unicode="&#x30c;" 
d="M-415 1241l-211 295h117l157 -214l156 214h119l-211 -295h-127z" />
    <glyph glyph-name="uni0306" unicode="&#x306;" 
d="M-453 1219c-195 0 -338 121 -338 317h113c0 -132 91 -226 225 -226c136 0 228 94 228 226h113c0 -196 -143 -317 -341 -317z" />
    <glyph glyph-name="uni030A" unicode="&#x30a;" 
d="M-335 1157c-117 0 -211 97 -211 211c0 116 94 209 211 209c114 0 208 -93 208 -209c0 -114 -94 -211 -208 -211zM-335 1243c70 0 125 52 125 125c0 69 -55 128 -125 128s-125 -59 -125 -128c0 -73 55 -125 125 -125z" />
    <glyph glyph-name="tildecomb" unicode="&#x303;" 
d="M-318 1144c-72 0 -125 35 -164 97c-23 35 -47 51 -80 51c-55 0 -88 -56 -88 -134h-96c0 132 69 229 181 229c72 0 127 -40 162 -98c19 -31 44 -49 82 -49c56 0 87 52 87 132h97c0 -129 -68 -228 -181 -228z" />
    <glyph glyph-name="uni0304" unicode="&#x304;" 
d="M-819 1254v111h647v-111h-647z" />
    <glyph glyph-name="hookabovecomb" unicode="&#x309;" 
d="M-339 1155v119c73 16 119 48 119 110c0 48 -31 86 -87 86c-32 0 -59 -11 -86 -32l-51 70c38 31 85 48 138 48c109 0 185 -70 185 -168c0 -82 -51 -132 -130 -156v-77h-88z" />
    <glyph glyph-name="uni0312" unicode="&#x312;" 
d="M-242 1529h126l-122 -306h-181z" />
    <glyph glyph-name="uni031B" unicode="&#x31b;" 
d="M-321 791c-54 0 -122 21 -179 56l44 60c37 -19 74 -28 102 -28c69 0 93 51 93 152v102h109v-108c0 -174 -74 -234 -169 -234z" />
    <glyph glyph-name="dotbelowcomb" unicode="&#x323;" 
d="M-260 -512c-64 0 -117 51 -117 117c0 63 53 116 117 116c63 0 116 -53 116 -116c0 -66 -53 -117 -116 -117z" />
    <glyph glyph-name="uni0326" unicode="&#x326;" 
d="M-299 -559l-92 41l160 366h158z" />
    <glyph glyph-name="uni0327" unicode="&#x327;" 
d="M-303 -532c-98 0 -196 57 -236 130l86 36c30 -43 95 -75 148 -75c65 0 119 50 119 119c0 74 -54 114 -125 114c-26 0 -54 -6 -80 -20l-75 49l110 219h94l-86 -178c18 4 37 8 55 8c115 0 200 -77 200 -192c0 -117 -91 -210 -210 -210z" />
    <glyph glyph-name="uni0328" unicode="&#x328;" 
d="M-248 -386c-116 0 -175 35 -175 94c0 87 122 220 221 319l62 -27c-50 -52 -168 -164 -168 -228c0 -27 22 -43 75 -43c31 0 67 11 93 30v-127c-31 -12 -70 -18 -108 -18z" />
    <glyph glyph-name="uni0335" unicode="&#x335;" 
d="M-779 473v115h606v-115h-606z" />
    <glyph glyph-name="uni0336" unicode="&#x336;" 
d="M-1638 487v91h1466v-91h-1466z" />
    <glyph glyph-name="uni0337" unicode="&#x337;" 
d="M-603 275v128l541 404v-128z" />
    <glyph glyph-name="uni0338" unicode="&#x338;" 
d="M-904 212l812 1163l85 -52l-812 -1163z" />
    <glyph glyph-name="uni0308.case" 
d="M-634 1536c-64 0 -117 53 -117 117s53 116 117 116c63 0 116 -52 116 -116s-53 -117 -116 -117zM-260 1536c-64 0 -117 53 -117 117s53 116 117 116c63 0 116 -52 116 -116s-53 -117 -116 -117z" />
    <glyph glyph-name="uni0307.case" 
d="M-260 1536c-64 0 -117 53 -117 117s53 116 117 116c63 0 116 -52 116 -116s-53 -117 -116 -117z" />
    <glyph glyph-name="gravecomb.case" 
d="M-179 1554l-225 259l92 67l252 -326h-119z" />
    <glyph glyph-name="acutecomb.case" 
d="M-421 1554l251 326l92 -67l-224 -259h-119z" />
    <glyph glyph-name="uni030B.case" 
d="M-781 1554l251 326l92 -67l-224 -259h-119zM-422 1554l252 326l92 -67l-224 -259h-120z" />
    <glyph glyph-name="uni0302.case" 
d="M-505 1554h-118l211 295h128l211 -295h-119l-157 212z" />
    <glyph glyph-name="uni030C.case" 
d="M-415 1554l-211 295h117l157 -214l156 214h119l-211 -295h-127z" />
    <glyph glyph-name="uni0306.case" 
d="M-461 1554c-195 0 -338 80 -338 270h107c0 -126 97 -180 231 -180c137 0 234 54 234 180h107c0 -190 -143 -270 -341 -270z" />
    <glyph glyph-name="uni030A.case" 
d="M-335 1554c-117 0 -211 96 -211 210c0 116 94 209 211 209c114 0 208 -93 208 -209c0 -114 -94 -210 -208 -210zM-335 1639c70 0 125 52 125 125c0 70 -55 128 -125 128s-125 -58 -125 -128c0 -73 55 -125 125 -125z" />
    <glyph glyph-name="tildecomb.case" 
d="M-337 1548c-91 0 -137 51 -170 96c-26 37 -52 73 -103 73c-70 0 -109 -65 -109 -154h-94c0 140 76 243 202 243c85 0 131 -46 166 -93c27 -35 54 -75 108 -75c69 0 106 59 106 151h97c0 -137 -74 -241 -203 -241z" />
    <glyph glyph-name="uni0304.case" 
d="M-819 1554v110h647v-110h-647z" />
    <glyph glyph-name="hookabovecomb.case" 
d="M-339 1536v119c73 15 119 48 119 110c0 47 -31 85 -87 85c-32 0 -59 -11 -86 -31l-51 69c38 31 85 49 138 49c109 0 185 -70 185 -168c0 -82 -51 -132 -130 -157v-76h-88z" />
    <glyph glyph-name="uni0312.case" 
d="M-242 1860h126l-122 -306h-181z" />
    <glyph glyph-name="uni0338.case" 
d="M-1192 1l1102 1584l90 -57l-1101 -1580z" />
    <glyph glyph-name="acute" unicode="&#xb4;" horiz-adv-x="482" 
d="M61 1229l251 326l92 -67l-224 -259h-119z" />
    <glyph glyph-name="breve" unicode="&#x2d8;" horiz-adv-x="902" 
d="M449 1219c-195 0 -338 121 -338 317h113c0 -132 91 -226 225 -226c136 0 228 94 228 226h113c0 -196 -143 -317 -341 -317z" />
    <glyph glyph-name="caron" unicode="&#x2c7;" horiz-adv-x="703" 
d="M288 1241l-211 295h117l157 -214l156 214h119l-211 -295h-127z" />
    <glyph glyph-name="cedilla" unicode="&#xb8;" horiz-adv-x="615" 
d="M312 -532c-98 0 -196 57 -236 130l86 36c30 -43 95 -75 148 -75c65 0 119 50 119 119c0 74 -54 114 -125 114c-26 0 -54 -6 -80 -20l-75 49l110 219h94l-86 -178c18 4 37 8 55 8c115 0 200 -77 200 -192c0 -117 -91 -210 -210 -210z" />
    <glyph glyph-name="circumflex" unicode="&#x2c6;" horiz-adv-x="696" 
d="M191 1241h-118l211 295h128l211 -295h-119l-157 212z" />
    <glyph glyph-name="dieresis" unicode="&#xa8;" horiz-adv-x="894" 
d="M260 1214c-64 0 -117 53 -117 117s53 116 117 116c63 0 116 -52 116 -116s-53 -117 -116 -117zM634 1214c-64 0 -117 53 -117 117s53 116 117 116c63 0 116 -52 116 -116s-53 -117 -116 -117z" />
    <glyph glyph-name="dotaccent" unicode="&#x2d9;" horiz-adv-x="520" 
d="M260 1214c-64 0 -117 53 -117 117s53 116 117 116c63 0 116 -52 116 -116s-53 -117 -116 -117z" />
    <glyph glyph-name="grave" unicode="`" horiz-adv-x="482" 
d="M303 1229l-225 259l92 67l252 -326h-119z" />
    <glyph glyph-name="hungarumlaut" unicode="&#x2dd;" horiz-adv-x="842" 
d="M61 1229l251 326l92 -67l-224 -259h-119zM420 1229l252 326l92 -67l-224 -259h-120z" />
    <glyph glyph-name="macron" unicode="&#xaf;" horiz-adv-x="991" 
d="M172 1254v111h647v-111h-647z" />
    <glyph glyph-name="ogonek" unicode="&#x2db;" horiz-adv-x="521" 
d="M273 -386c-116 0 -175 35 -175 94c0 87 122 220 221 319l62 -27c-50 -52 -168 -164 -168 -228c0 -27 22 -43 75 -43c31 0 67 11 93 30v-127c-31 -12 -70 -18 -108 -18z" />
    <glyph glyph-name="ring" unicode="&#x2da;" horiz-adv-x="671" 
d="M336 1157c-117 0 -211 97 -211 211c0 116 94 209 211 209c114 0 208 -93 208 -209c0 -114 -94 -211 -208 -211zM336 1243c70 0 125 52 125 125c0 69 -55 128 -125 128s-125 -59 -125 -128c0 -73 55 -125 125 -125z" />
    <glyph glyph-name="tilde" unicode="&#x2dc;" horiz-adv-x="883" 
d="M565 1144c-72 0 -125 35 -164 97c-23 35 -47 51 -80 51c-55 0 -88 -56 -88 -134h-96c0 132 69 229 181 229c72 0 127 -40 162 -98c19 -31 44 -49 82 -49c56 0 87 52 87 132h97c0 -129 -68 -228 -181 -228z" />
    <glyph glyph-name="uni03060301" 
d="M-517 1706l251 326l92 -67l-224 -259h-119zM-453 1219c-195 0 -338 121 -338 317h113c0 -132 91 -226 225 -226c136 0 228 94 228 226h113c0 -196 -143 -317 -341 -317z" />
    <glyph glyph-name="uni03060300" 
d="M-509 1706l-225 259l92 67l252 -326h-119zM-453 1219c-195 0 -338 121 -338 317h113c0 -132 91 -226 225 -226c136 0 228 94 228 226h113c0 -196 -143 -317 -341 -317z" />
    <glyph glyph-name="uni03060309" 
d="M-494 1632v119c73 16 119 48 119 110c0 48 -31 86 -87 86c-32 0 -59 -11 -86 -32l-51 70c38 31 85 48 138 48c109 0 185 -70 185 -168c0 -82 -51 -132 -130 -156v-77h-88zM-453 1219c-195 0 -338 121 -338 317h113c0 -132 91 -226 225 -226c136 0 228 94 228 226h113
c0 -196 -143 -317 -341 -317z" />
    <glyph glyph-name="uni03060303" 
d="M-322 1697c-72 0 -125 35 -164 97c-23 35 -47 51 -80 51c-55 0 -88 -56 -88 -134h-96c0 132 69 229 181 229c72 0 127 -40 162 -98c19 -31 44 -49 82 -49c56 0 87 52 87 132h97c0 -129 -68 -228 -181 -228zM-453 1219c-195 0 -338 121 -338 317h113
c0 -132 91 -226 225 -226c136 0 228 94 228 226h113c0 -196 -143 -317 -341 -317z" />
    <glyph glyph-name="uni03020301" 
d="M-415 1706l251 326l92 -67l-224 -259h-119zM-505 1241h-118l211 295h128l211 -295h-119l-157 212z" />
    <glyph glyph-name="uni03020300" 
d="M-407 1706l-225 259l92 67l252 -326h-119zM-505 1241h-118l211 295h128l211 -295h-119l-157 212z" />
    <glyph glyph-name="uni03020309" 
d="M-392 1632v119c73 16 119 48 119 110c0 48 -31 86 -87 86c-32 0 -59 -11 -86 -32l-51 70c38 31 85 48 138 48c109 0 185 -70 185 -168c0 -82 -51 -132 -130 -156v-77h-88zM-505 1241h-118l211 295h128l211 -295h-119l-157 212z" />
    <glyph glyph-name="uni03020303" 
d="M-220 1697c-72 0 -125 35 -164 97c-23 35 -47 51 -80 51c-55 0 -88 -56 -88 -134h-96c0 132 69 229 181 229c72 0 127 -40 162 -98c19 -31 44 -49 82 -49c56 0 87 52 87 132h97c0 -129 -68 -228 -181 -228zM-505 1241h-118l211 295h128l211 -295h-119l-157 212z" />
    <glyph glyph-name="uni03060301.case" 
d="M-524 1896l251 326l92 -67l-224 -259h-119zM-461 1554c-195 0 -338 80 -338 270h107c0 -126 97 -180 231 -180c137 0 234 54 234 180h107c0 -190 -143 -270 -341 -270z" />
    <glyph glyph-name="uni03060300.case" 
d="M-516 1896l-225 259l92 67l252 -326h-119zM-461 1554c-195 0 -338 80 -338 270h107c0 -126 97 -180 231 -180c137 0 234 54 234 180h107c0 -190 -143 -270 -341 -270z" />
    <glyph glyph-name="uni03060309.case" 
d="M-501 1878v119c73 15 119 48 119 110c0 47 -31 85 -87 85c-32 0 -59 -11 -86 -31l-51 69c38 31 85 49 138 49c109 0 185 -70 185 -168c0 -82 -51 -132 -130 -157v-76h-88zM-461 1554c-195 0 -338 80 -338 270h107c0 -126 97 -180 231 -180c137 0 234 54 234 180h107
c0 -190 -143 -270 -341 -270z" />
    <glyph glyph-name="uni03060303.case" 
d="M-316 1890c-91 0 -137 51 -170 96c-26 37 -52 73 -103 73c-70 0 -109 -65 -109 -154h-94c0 140 76 243 202 243c85 0 131 -46 166 -93c27 -35 54 -75 108 -75c69 0 106 59 106 151h97c0 -137 -74 -241 -203 -241zM-461 1554c-195 0 -338 80 -338 270h107
c0 -126 97 -180 231 -180c137 0 234 54 234 180h107c0 -190 -143 -270 -341 -270z" />
    <glyph glyph-name="uni03020301.case" 
d="M-415 1948l251 326l92 -67l-224 -259h-119zM-505 1554h-118l211 295h128l211 -295h-119l-157 212z" />
    <glyph glyph-name="uni03020300.case" 
d="M-407 1948l-225 259l92 67l252 -326h-119zM-505 1554h-118l211 295h128l211 -295h-119l-157 212z" />
    <glyph glyph-name="uni03020309.case" 
d="M-392 1930v119c73 15 119 48 119 110c0 47 -31 85 -87 85c-32 0 -59 -11 -86 -31l-51 69c38 31 85 49 138 49c109 0 185 -70 185 -168c0 -82 -51 -132 -130 -157v-76h-88zM-505 1554h-118l211 295h128l211 -295h-119l-157 212z" />
    <glyph glyph-name="uni03020303.case" 
d="M-207 1942c-91 0 -137 51 -170 96c-26 37 -52 73 -103 73c-70 0 -109 -65 -109 -154h-94c0 140 76 243 202 243c85 0 131 -46 166 -93c27 -35 54 -75 108 -75c69 0 106 59 106 151h97c0 -137 -74 -241 -203 -241zM-505 1554h-118l211 295h128l211 -295h-119l-157 212z
" />
    </font>
</defs>
</svg>
